#VERSION:0.82;
#TITLE:Can't Stop The Feeling!;
#SUBTITLE:;
#ARTIST:Justin Timberlake;
#TITLETRANSLIT:;
#SUBTITLETRANSLIT:;
#ARTISTTRANSLIT:;
#GENRE:Funk-Pop;
#ORIGIN:;
#CREDIT:;
#BANNER:Can't Stop The Feeling.png;
#BACKGROUND:Can't Stop The Feeling-bg.png;
#PREVIEWVID:;
#JACKET:jacket.png;
#CDIMAGE:;
#DISCIMAGE:;
#LYRICSPATH:;
#CDTITLE:cdtitle.png;
#MUSIC:Can't Stop The Feeling.ogg;
#OFFSET:-0.005000;
#SAMPLESTART:59.428185;
#SAMPLELENGTH:17.959999;
#SELECTABLE:YES;
#BPMS:0.000=113.000;
#STOPS:;
#DELAYS:;
#WARPS:;
#TIMESIGNATURES:0.000=4=4;
#TICKCOUNTS:0.000=4;
#COMBOS:0.000=1;
#SPEEDS:0.000=1.000=0.000=0;
#SCROLLS:0.000=1.000;
#FAKES:;
#LABELS:0.000=Song Start;
#BGCHANGES:4.000=Can't Stop The Feeling.avi=1.000=0=0=1=====,
99999=-nosongbg-=1.000=0=0=0 // don't automatically add -songbackground-
;
#KEYSOUNDS:;
#ATTACKS:
;

//---------------dance-single - ----------------
#NOTEDATA:;
#CHARTNAME:;
#STEPSTYPE:dance-single;
#DESCRIPTION:;
#CHARTSTYLE:;
#DIFFICULTY:Hard;
#METER:8;
#RADARVALUES:0.533645,0.554113,0.151906,0.138097,0.435005,499.000000,22.000000,20.000000,0.000000,0.000000,0.000000,0.000000,0.000000,0.533645,0.554113,0.151906,0.138097,0.435005,499.000000,22.000000,20.000000,0.000000,0.000000,0.000000,0.000000,0.000000;
#CREDIT:Ben Speirs;
#NOTES:
// measure 0
0000
0000
0000
0000
,  // measure 1
0000
0000
0000
0000
,  // measure 2
0000
0000
0000
0000
,  // measure 3
0000
0000
0000
0000
0000
1000
0100
0010
,  // measure 4
0002
0000
0103
0000
0000
0001
0100
0010
,  // measure 5
2000
0000
3100
0000
0000
1000
0100
0010
,  // measure 6
0001
0001
1000
0001
1000
1000
0001
1000
,  // measure 7
0020
0000
0130
0000
0000
0001
0100
0001
,  // measure 8
0200
0000
0310
0000
0000
1000
0100
1000
,  // measure 9
0200
0000
0310
0000
0000
0001
0010
0100
,  // measure 10
1000
1000
0001
1000
0001
0001
1000
0010
,  // measure 11
0200
0000
0310
1000
1100
0000
0101
0000
,  // measure 12
1000
0000
0100
0000
1000
0001
0000
0100
0000
0001
0000
0000
1000
0000
0001
0000
,  // measure 13
0100
0100
0010
0010
1000
0000
0010
1000
,  // measure 14
0001
0000
0010
0000
0001
1000
0000
0010
0000
1000
0000
0000
0001
0000
1000
0000
,  // measure 15
0020
0000
1030
0001
0200
0000
0301
0000
,  // measure 16
1001
1000
0100
1000
0001
0100
0010
1000
,  // measure 17
0100
0000
0100
0010
0000
0010
0001
0000
1000
0000
0000
0000
0001
0000
1000
0000
,  // measure 18
0010
0000
0100
0000
0010
0000
1000
0000
0100
0000
0010
0000
0001
0100
0001
0000
,  // measure 19
1000
0000
1010
0000
0001
0100
1000
0020
,  // measure 20
0000
0000
0000
0130
0010
1000
0100
0200
,  // measure 21
0000
0000
0310
0000
0001
0010
0100
1000
,  // measure 22
0002
0000
0103
0001
1000
1000
0100
1000
,  // measure 23
0020
0000
0130
0000
0010
0100
0001
1000
,  // measure 24
0200
0000
1300
0001
0010
0001
0010
0100
,  // measure 25
2000
0000
0000
0000
3010
0000
1000
0000
0001
0000
0000
0000
0100
0000
0001
0100
,  // measure 26
0001
0000
0000
0000
1000
0000
0100
1000
0100
0000
0000
0000
1000
0000
0000
0000
,  // measure 27
1100
0110
0011
0000
,  // measure 28
0001
0100
0000
0001
0000
1000
0000
0100
0000
1000
0000
0001
0000
0100
0010
0000
,  // measure 29
1000
0000
0001
0000
1000
0000
0001
0000
1000
0000
0100
0000
0010
0000
0001
1000
,  // measure 30
0000
0010
0000
1000
0000
0001
0000
0010
0000
0001
0000
1000
0000
0010
0100
0000
,  // measure 31
0001
0000
1000
0000
0001
0000
1000
0000
0001
0000
0100
0010
0100
0000
0001
0000
,  // measure 32
1000
0100
0000
1000
0000
0001
0000
0100
0000
0001
0000
1000
0000
0100
0010
0000
,  // measure 33
0001
0000
1000
0000
0001
0000
1000
0000
0001
0000
1000
0000
0010
0000
0100
0001
,  // measure 34
0000
0100
0000
0010
0000
1000
0000
0100
0000
1000
0000
0001
0000
0010
0001
0000
,  // measure 35
1000
0000
0001
0000
1000
0000
0000
0000
0010
0100
0010
0000
0100
0000
0001
1000
,  // measure 36
0001
2000
0000
0000
3100
0000
0000
0000
1000
0000
0100
0010
0000
0010
0001
0000
,  // measure 37
1000
0000
0100
0000
0001
0000
0100
0000
1000
0010
1000
0000
0100
0000
0010
0001
,  // measure 38
0010
0002
0000
0000
0103
0000
0000
0000
0001
0000
0100
0010
0000
0010
1000
0000
,  // measure 39
0001
0000
0100
0000
1000
0000
0100
0000
0001
1000
0001
0000
1000
0000
0100
1000
,  // measure 40
0100
2000
0000
0000
3001
0000
0000
0000
1000
0000
0010
0100
0000
0100
0001
0000
,  // measure 41
1000
0000
0100
0000
0001
0000
0100
0000
1000
0001
1000
0000
0010
0000
0100
0001
,  // measure 42
0100
0002
0000
0000
1003
0000
0000
0000
0001
0000
1000
0010
0000
0010
0100
0000
,  // measure 43
0001
0000
0010
0000
1000
0000
0010
0000
0001
0100
0001
0000
1000
0100
1000
0000
,  // measure 44
0010
0000
0000
0000
1001
0000
1000
0000
0100
0010
0000
0001
0000
0000
0100
0010
,  // measure 45
0000
0010
0100
0000
0001
0000
1000
0000
0001
0100
0000
0000
0010
0000
1000
0100
,  // measure 46
0000
0100
1000
0000
0001
0000
0010
0000
0001
0100
0000
0000
0010
0000
0100
0001
,  // measure 47
0000
0001
1000
0000
0010
0000
1000
0000
0000
0001
0100
0000
0010
0000
1000
0000
,  // measure 48
0000
1000
0100
0000
0010
0000
0001
0000
0000
0001
0100
0000
0010
0000
1000
0000
,  // measure 49
0001
0100
0000
0010
0000
1000
0000
0100
0000
0010
0000
0001
0000
1000
0010
0000
,  // measure 50
0100
0000
0001
0000
0100
0000
1000
0000
0100
0010
0100
0000
0001
0000
0100
0010
,  // measure 51
1000
0010
0000
1000
0000
0100
0000
1000
0000
0001
0000
0010
0000
0001
1000
0000
,  // measure 52
0010
0000
0100
0000
0010
0000
0001
0000
0010
1000
0010
0000
1000
0000
0001
0010
,  // measure 53
0100
1000
0000
0001
0000
1000
0000
0001
0000
0100
0000
0010
0000
1000
0100
0000
,  // measure 54
0010
0000
0100
0000
0010
0000
0100
0000
0010
0001
0010
0000
0001
0000
1000
0100
,  // measure 55
0010
0001
0000
1000
0000
0001
0000
1000
0000
0010
0000
0100
0000
0001
1000
0000
,  // measure 56
0010
0000
0100
0000
0010
0000
0000
0000
1000
0010
1000
0000
0001
0000
0010
0100
,  // measure 57
0010
0000
0011
0010
0100
1000
1100
1000
,  // measure 58
0010
0000
0100
0000
0101
0000
0100
0000
0010
1000
0010
0000
1000
0000
0001
0010
,  // measure 59
0001
0010
0000
0000
1001
0000
1000
0000
0100
0000
1000
0000
1001
0000
0001
0000
,  // measure 60
0100
0000
0001
0000
1001
0000
1000
0000
0010
1000
0010
0000
1000
0000
0001
0010
,  // measure 61
0100
1000
0000
0000
1100
0000
0100
0000
0010
0000
0001
0000
0011
0000
0001
0000
,  // measure 62
0100
0000
0010
0000
1010
0000
0010
0000
0100
0001
0100
0000
0001
0000
1000
0100
,  // measure 63
1000
0100
0000
0000
1001
0000
0001
0000
0010
0000
0001
0000
1001
0000
1000
0000
,  // measure 64
0010
0000
1000
0000
1001
0000
0001
0000
1000
0010
1000
0010
0100
0001
1000
0100
,  // measure 65
0010
0000
0011
0010
0100
1000
0001
0100
,  // measure 66
0020
0000
1030
0002
0000
0103
0010
1010
;

//---------------dance-double - ----------------
#NOTEDATA:;
#CHARTNAME:;
#STEPSTYPE:dance-double;
#DESCRIPTION:;
#CHARTSTYLE:;
#DIFFICULTY:Challenge;
#METER:8;
#RADARVALUES:0.512931,0.554113,0.172621,0.110477,0.386671,479.000000,25.000000,16.000000,0.000000,0.000000,0.000000,0.000000,0.000000,0.512931,0.554113,0.172621,0.110477,0.386671,479.000000,25.000000,16.000000,0.000000,0.000000,0.000000,0.000000,0.000000;
#CREDIT:Ben Speirs;
#NOTES:
00000000
00000000
00000000
00000000
,
00000000
00000000
00000000
00000000
,
00000000
00000000
00000000
00000000
,
00000000
00000000
00000000
00000000
00000000
00010000
00001000
00100000
,
00020000
00000000
10030000
00000000
00000000
10000000
01000000
00100000
,
00020000
00000000
10030000
00000000
00000000
00010000
10000000
00010000
,
01000000
01000000
00010000
00100000
00001000
00001000
00100000
00001000
,
00020000
00000000
00031000
00000000
00000000
00001000
00010000
00000100
,
00002000
00000000
00003001
00000000
00000000
00000001
00000010
00000100
,
00002000
00000000
00003001
00000000
00000000
00001000
00000001
00001000
,
00000010
00000010
00001000
00000100
00010000
00010000
00000100
00010000
,
00002000
00013000
00011000
00101000
,
00100000
00010000
00100000
00010000
10000000
00100000
01000000
00000000
,
00010000
10000000
00010000
10000000
00100000
00000000
10000000
00010000
,
01000000
00100000
10000000
01000000
00100000
00000000
00010000
00100000
,
00001000
00000000
00000000
00101000
00000000
00000100
00010000
00000000
,
00000100
00001000
00000010
00000100
00000001
00001000
00000001
00000000
,
00000100
00000000
00000100
00000010
00000000
00000010
00001000
00000000
00000100
00000000
00000000
00000000
00001000
00000000
00000100
00000000
,
00010000
00001000
00010000
00000100
00001000
00000000
00000100
00000010
,
00000001
00000000
00000100
00000000
00000001
00000100
00000010
00001000
,
00000200
00000000
00000000
00001300
00001000
00000100
00010000
00001000
,
00200000
00000000
00310000
00000000
00000000
00100000
00010000
10000000
,
00200000
00000000
01300000
01000000
00100000
10000000
01000000
00100000
,
00020000
00000000
01030000
00000000
00010000
00000000
10000000
01000000
,
20000000
00000000
30010000
00100000
00001000
00010000
00000100
00001000
,
00000002
00000000
00000103
00000000
00000010
00000000
00001000
00000100
,
00001000
00000000
00000100
00010000
00000100
00000000
00010000
00000000
,
00010100
00011000
00101000
00000000
,
00001000
00100000
00000000
00001000
00000000
00010000
00000000
00000100
00000000
00010000
00000000
00001000
00000000
00100000
00010000
00000000
,
10000000
00000000
00100000
00000000
10000000
00000000
00100000
00000000
10000000
00000000
00100000
00000000
01000000
00000000
00010000
10000000
,
00000000
01000000
00000000
10000000
00000000
00010000
00000000
01000000
00000000
00010000
00000000
10000000
00000000
01000000
00100000
00000000
,
00010000
01000000
00010000
01000000
00010000
01000000
00001000
00000000
,
00010000
00001000
00000000
00010000
00000000
00000100
00000000
00001000
00000000
00000001
00000000
00000100
00000000
00000010
00001000
00000000
,
00000001
00000000
00000100
00000000
00000001
00000000
00000100
00000000
00000001
00000000
00000100
00000000
00000010
00000000
00001000
00000100
,
00000000
00000010
00000000
00000001
00000000
00000100
00000000
00000010
00000000
00001000
00000000
00000100
00000000
00010000
00001000
00000000
,
00011000
00000000
00000000
00000000
00011000
00000000
00000000
00000000
00100000
00010000
00100000
00000000
00001000
00000000
00010000
00001000
,
00010000
00000100
00000000
00000000
00010100
00000000
00000000
00000000
00001000
00000000
00000100
00000010
00000000
00000010
00000001
00000000
,
00000100
00000000
00000010
00000000
00000100
00000000
00000010
00000000
00001000
00000010
00001000
00000000
00000001
00000000
00000100
00000010
,
00000100
00000010
00000000
00000000
00001010
00000000
00000000
00000000
00001000
00000000
00000100
00010000
00000000
00010000
00001000
00000000
,
00100000
00001000
00100000
00000000
00010000
00100000
00010000
00000000
10000000
00010000
10000000
00000000
00100000
00000000
00000000
00000000
,
10010000
00000000
00000000
00000000
11000000
00000000
00000000
00000000
00010000
00000000
10000000
00100000
00000000
00100000
01000000
00000000
,
00010000
10000000
00010000
00000000
10000000
00010000
10000000
00000000
00010000
10000000
00010000
00000000
10000000
00000000
00000000
00000000
,
10100000
00000000
00000000
00000000
01010000
00000000
00000000
00000000
01000000
00000000
00010000
00100000
00000000
00100000
00001000
00000000
,
00100000
00010000
00100000
00000000
00001000
00010000
00001000
00000000
00010000
00000100
00010000
00000000
00000100
00001000
00000100
00000000
,
00000010
00000000
00000000
00000000
00001001
00000000
00000001
00000000
00000100
00000010
00000000
00001000
00000000
00000000
00000100
00010000
,
00000000
00010000
00001000
00000000
00010000
00000000
00000100
00000000
00000010
00000001
00000000
00000000
00000100
00000000
00000010
00001000
,
00000000
00001000
00000100
00000000
00010000
00000000
00001000
00000000
00100000
00010000
00000000
00000000
01000000
00000000
00001000
00100000
,
00000000
00100000
00010000
00000000
10000000
00000000
00100000
00000000
00000000
10000000
01000000
00000000
00100000
00000000
00010000
00000000
,
00000000
10000000
01000000
00000000
00100000
00000000
00010000
00000000
00000000
10000000
01000000
00000000
00100000
00000000
00010000
00000000
,
01000000
00100000
00000000
01000000
00000000
00010000
00000000
10000000
00000000
01000000
00000000
00100000
00000000
00010000
01000000
00000000
,
00010000
00000000
00100000
00000000
00001000
00000000
00010000
00000000
00000100
00001000
00000100
00000000
00000010
00000000
00000001
00000100
,
00000001
00000100
00000000
00000010
00000000
00001000
00000000
00000100
00000000
00000010
00000000
00000001
00000000
00000100
00000010
00000000
,
00001000
00000000
00000100
00000000
00010000
00000000
00001000
00000000
00100000
00010000
00100000
00000000
00010000
00000000
10000000
00100000
,
10000000
00100000
00000000
01000000
00000000
00010000
00000000
10000000
00000000
01000000
00000000
00100000
00000000
00010000
01000000
00000000
,
00010000
00000000
00100000
00000000
00001000
00000000
00010000
00000000
00000100
00001000
00000100
00000000
00001000
00000000
00000010
00000100
,
00000010
00000100
00000000
00000001
00000000
00000010
00000000
00000100
00000000
00001000
00000000
00000010
00000000
00000100
00000001
00000000
,
00001000
00000000
00000100
00000000
00001000
00000000
00000001
00000000
00000100
00000001
00000100
00000000
00000001
00000000
00001000
00000100
,
00001000
00000000
00010100
00010000
00001000
00100000
00101000
00100000
,
00020000
00000000
10030000
00100000
01000000
01000000
00100000
10000000
,
01000000
00000000
11000000
01000000
00100000
00010000
00110000
00100000
,
00002000
00000000
00013000
00000100
00001000
00000010
00000100
00000001
,
00001000
00000000
00001001
00001000
00000100
00010000
00010100
00010000
,
00000100
00000000
00001000
00000000
00001001
00000000
00000001
00000000
00000100
00000010
00000100
00000000
00000010
00000000
00001000
00000100
,
00010000
00001000
00000000
00000000
00011000
00000000
00001000
00000000
00100000
00000000
00010000
00000000
00110000
00000000
00010000
00000000
,
10000000
00000000
00100000
00000000
10100000
00000000
10000000
00000000
00010000
01000000
00010000
01000000
00100000
10000000
00100000
10000000
,
01000000
00000000
10000000
01000000
00100000
00010000
01000000
00001000
,
00020000
00000000
00030100
00002000
00000000
00003010
00000100
00000001
;

//---------------dance-single - ----------------
#NOTEDATA:;
#CHARTNAME:;
#STEPSTYPE:dance-single;
#DESCRIPTION:;
#CHARTSTYLE:;
#DIFFICULTY:Medium;
#METER:6;
#RADARVALUES:0.378780,0.392497,0.421195,0.158811,0.000000,300.000000,61.000000,23.000000,0.000000,0.000000,0.000000,0.000000,0.000000,0.378780,0.392497,0.421195,0.158811,0.000000,300.000000,61.000000,23.000000,0.000000,0.000000,0.000000,0.000000,0.000000;
#CREDIT:Ben Speirs;
#NOTES:
0000
0000
0000
0000
,
0000
0000
0000
0000
,
0000
0000
0000
0000
,
0000
0000
0000
0000
0000
0001
0100
0000
,
0201
0000
0310
0000
0000
1000
0010
0000
,
2000
0000
3100
0000
0000
1000
0100
0000
,
1001
0000
0010
0000
1001
0000
0100
0001
,
0020
0000
0031
0000
0000
0010
0001
1000
,
1020
0000
0130
0000
0000
0001
0100
0000
,
0002
0000
0013
0000
0000
0001
0010
0000
,
1001
0000
0100
0000
1001
0000
0010
1000
,
0200
1300
0011
1001
,
1000
0010
0100
0000
0001
1000
0010
0000
,
0100
0100
0010
0010
0100
0000
0001
0000
,
0010
0001
0100
0000
0010
1000
0100
0000
,
1001
0000
0000
0110
0000
0000
1001
0000
,
1000
0001
0100
0000
0010
0000
1000
0000
,
0001
0100
0001
0100
0010
0000
1000
0000
,
0100
0000
1000
0001
0010
0000
0001
1000
,
1000
0000
0000
0000
0001
0100
0010
2000
,
0000
0000
3000
0000
0010
0100
0010
2000
,
0000
3100
0000
1100
,
0002
0000
0013
0000
0001
0100
0001
0200
,
0000
0000
0310
0000
0000
0000
0100
0001
,
1000
0000
0010
0000
1000
0000
0001
0010
,
0001
0000
1000
0000
0010
0000
0100
0001
,
0101
0000
1000
0100
1100
0000
0001
0010
,
0011
0110
1100
0000
,
0001
0010
0001
0100
0001
1000
0001
0000
,
1001
1001
1001
0110
,
1000
0100
1000
0010
1000
0001
1000
0000
,
1001
1001
1001
0110
,
0002
0103
2000
3100
,
1100
0011
1100
0011
,
0002
0103
2000
3010
,
1010
0000
0101
0000
0000
1000
0001
1000
,
0020
0130
0001
1000
,
1100
0000
0101
0000
1100
0000
0001
1000
,
0010
0000
0100
0000
0001
0100
0001
0000
,
1100
0101
1100
0101
,
1000
0001
0010
0000
0001
1000
0010
0000
,
1010
0000
0101
0000
0010
1000
0100
0100
,
0010
0000
0011
0000
1000
0001
0100
0000
,
1001
0000
0110
0000
1001
0000
0100
0001
,
2000
3100
0001
0000
,
0002
0103
1000
0000
,
0001
1000
0010
0010
,
0100
0000
0001
0000
0000
1000
0100
1000
,
0000
0001
0100
0001
0000
1000
0001
0000
,
1001
0000
0100
0000
1000
0100
0001
0000
,
0011
0011
0011
1000
,
0001
0000
0100
0000
0001
0100
1000
0000
,
1010
1010
1010
0001
,
1000
0100
1000
0010
1000
0001
1000
0000
,
1001
0110
1001
0110
,
0001
0100
0001
0010
0001
1000
0001
0000
,
1001
0000
0110
0000
1000
0100
0001
0010
,
1000
0000
1100
0000
0011
0000
1000
0001
,
0200
0000
0000
0020
0000
0000
0330
0000
,
0001
0000
0100
0001
1000
0000
0010
1000
,
0200
0000
0000
0020
0000
0000
0330
0000
,
0100
0000
1000
0100
1000
0100
1000
0000
,
0002
0000
0103
0020
0000
0000
1030
0001
,
1000
0000
0100
0010
0100
0010
0001
0000
,
1000
0100
0010
0001
0100
0010
1000
0001
,
0000
1001
0000
0010
,
0000
0000
1100
0000
0000
0000
0001
0100
;

//---------------dance-single - ----------------
#NOTEDATA:;
#CHARTNAME:;
#STEPSTYPE:dance-single;
#DESCRIPTION:;
#CHARTSTYLE:;
#DIFFICULTY:Easy;
#METER:4;
#RADARVALUES:0.200240,0.230449,0.062144,0.082858,0.000000,182.000000,9.000000,12.000000,0.000000,0.000000,0.000000,0.000000,0.000000,0.200240,0.230449,0.062144,0.082858,0.000000,182.000000,9.000000,12.000000,0.000000,0.000000,0.000000,0.000000,0.000000;
#CREDIT:Ben Speirs;
#NOTES:
0000
0000
0000
0000
,
0000
0000
0000
0000
,
0000
0000
0000
0000
,
0000
0000
0000
0000
,
2000
3000
0000
0010
,
0200
0300
0000
0010
,
1000
1000
0001
0001
,
2000
3000
0000
0001
,
0002
0003
0000
0010
,
0200
0300
0000
0010
,
0001
0001
1000
1000
,
0001
0000
0100
0100
,
1001
0000
1000
0000
,
0010
1000
0100
0000
,
1000
0000
0001
0000
,
0100
0001
1000
0000
,
0010
0000
1000
0000
,
0001
0010
0001
0000
,
1000
0010
1000
0000
,
0001
0000
0100
0100
,
0020
0000
0030
0000
,
1000
0000
0001
1000
,
0200
0000
0300
0000
,
1000
0000
0001
1000
,
0020
0030
0200
0300
,
0002
0003
1000
0100
,
2000
3000
0002
0003
,
0100
0100
0100
0000
,
1001
0001
0010
0001
,
1000
1000
1000
0000
,
0001
1000
0010
0100
,
0001
0001
0001
0000
,
0100
0010
1000
0001
,
0010
0010
0010
0000
,
0001
0010
0100
1000
,
0100
0100
0000
1000
,
0001
1001
0000
0000
,
0001
0001
1000
1000
,
0000
1001
0000
1000
,
0001
0100
0100
0000
,
0000
1001
0000
1000
,
0010
0010
0010
0100
,
0000
1001
0000
0001
,
0100
0100
0010
1000
,
0000
1001
0100
0000
,
0010
0010
1000
0000
,
0001
0001
0100
0000
,
0010
0010
1000
0000
,
0100
0000
0010
0001
,
1000
1000
0100
1000
,
0010
0010
0010
0000
,
0001
0001
0100
0001
,
0010
0010
0010
0000
,
0001
1000
0010
0010
,
0100
0100
0100
0000
,
0010
1000
0001
0001
,
0100
0100
0000
0001
,
1000
1001
0000
0010
,
0000
1000
0100
0010
,
0001
0100
0000
0001
,
0000
1000
0001
0100
,
0010
1000
0000
0001
,
0000
1000
0100
0010
,
0001
0100
0000
0010
,
0100
0100
0001
0001
,
0000
1000
0000
0001
,
0000
0100
0000
1001
;

//---------------dance-single - ----------------
#NOTEDATA:;
#CHARTNAME:;
#STEPSTYPE:dance-single;
#DESCRIPTION:;
#CHARTSTYLE:;
#DIFFICULTY:Beginner;
#METER:2;
#RADARVALUES:0.111464,0.161314,0.027619,0.000000,0.000000,109.000000,4.000000,0.000000,0.000000,0.000000,0.000000,0.000000,0.000000,0.111464,0.161314,0.027619,0.000000,0.000000,109.000000,4.000000,0.000000,0.000000,0.000000,0.000000,0.000000,0.000000;
#CREDIT:Ben Speirs;
#NOTES:
0000
0000
0000
0000
,
0000
0000
0000
0000
,
0000
0000
0000
0000
,
0000
0000
0000
0000
,
0001
0000
0000
0000
,
0100
0000
0000
0000
,
0010
0000
0010
0000
,
0010
0000
0000
0000
,
1000
0000
0000
0000
,
0100
0000
0000
0000
,
0010
0000
0010
0000
,
0010
0000
0000
0000
,
0001
0001
0000
0000
,
1000
0000
0000
0000
,
0010
0010
0000
0000
,
1000
0000
0000
0000
,
1000
1000
0000
0000
,
0100
0000
0000
0000
,
0010
0010
0000
0000
,
0001
0000
0001
0000
,
1000
0000
0000
0000
,
0010
0000
0000
0000
,
0100
0000
0100
0000
,
0100
0000
0000
0000
,
0001
0000
0000
0000
,
1000
0000
0000
0010
,
0010
0000
0010
0000
,
0100
0100
0100
0000
,
1001
0000
0001
0000
,
0100
0100
0100
0000
,
0001
0000
1000
0000
,
0100
0100
0100
0000
,
1000
0000
0000
0000
,
0001
0001
0001
0000
,
0001
0000
0000
0000
,
1000
1000
0000
0000
,
0010
0010
0000
0000
,
1000
1000
1000
0000
,
0100
0000
0100
0000
,
0100
0000
0000
0000
,
1000
1000
0000
0000
,
0001
0001
0001
0000
,
0100
0000
0000
0000
,
0010
0010
0000
0000
,
0000
1001
0000
0000
,
1000
1000
0000
0000
,
0001
0001
0000
0000
,
0100
0100
0000
0000
,
0000
0000
0000
0000
,
1001
0000
0000
0000
,
0010
0010
0010
0000
,
1001
0000
0000
0000
,
0010
0010
0010
0000
,
1000
1000
0000
0000
,
0001
0001
0001
0000
,
0001
0001
0000
0000
,
1000
1000
0000
0000
,
0000
0010
0000
0010
,
0000
0010
0000
0000
,
0000
1000
0000
1000
,
0000
1000
0000
0000
,
0000
0001
0000
0001
,
0000
0001
0000
0000
,
0000
0100
0000
0100
,
0000
0100
0000
0000
,
0000
0001
0000
0001
,
0000
1000
0000
1000
;
