#VERSION:0.82;
#TITLE:Titanium;
#SUBTITLE:;
#ARTIST:David Guetta feat. Sia;
#TITLETRANSLIT:;
#SUBTITLETRANSLIT:;
#ARTISTTRANSLIT:;
#GENRE:EDM;
#ORIGIN:;
#CREDIT:;
#BANNER:Titanium.png;
#BACKGROUND:Titanium-bg.png;
#PREVIEWVID:;
#JACKET:jacket.png;
#CDIMAGE:;
#DISCIMAGE:;
#LYRICSPATH:;
#CDTITLE:;
#MUSIC:Titanium.ogg;
#OFFSET:0.010000;
#SAMPLESTART:65.663979;
#SAMPLELENGTH:13.714000;
#SELECTABLE:YES;
#BPMS:0.000=126.000;
#STOPS:;
#DELAYS:;
#WARPS:;
#TIMESIGNATURES:0.000=4=4;
#TICKCOUNTS:0.000=4;
#COMBOS:0.000=1;
#SPEEDS:0.000=1.000=0.000=0;
#SCROLLS:0.000=1.000;
#FAKES:;
#LABELS:0.000=Song Start;
#BGCHANGES:4.000=Titanium.avi=1.000=0=0=1=====,
99999=-nosongbg-=1.000=0=0=0 // don't automatically add -songbackground-
;
#KEYSOUNDS:;
#ATTACKS:
;

//---------------dance-single - ----------------
#NOTEDATA:;
#CHARTNAME:;
#STEPSTYPE:dance-single;
#DESCRIPTION:;
#CHARTSTYLE:;
#DIFFICULTY:Hard;
#METER:8;
#RADARVALUES:0.512586,0.590584,0.148660,0.297319,0.226368,465.000000,22.000000,44.000000,0.000000,0.000000,0.000000,0.000000,0.000000,0.512586,0.590584,0.148660,0.297319,0.226368,465.000000,22.000000,44.000000,0.000000,0.000000,0.000000,0.000000,0.000000;
#CREDIT:Ben Speirs;
#NOTES:
0000
0000
0000
0000
,
0000
0000
0000
0000
,
0000
0000
0000
0000
,
0000
0000
0000
0000
,
1000
0000
0010
0100
0001
0100
0002
0000
,
1003
0000
0010
0000
1000
0001
0010
0001
,
2000
3100
0020
0031
,
1000
0100
1000
0001
0200
0000
0310
0000
,
0100
0000
0001
0010
0001
0010
0100
0000
,
1000
0000
0100
1000
0100
1000
0020
0000
,
0130
0000
0001
0000
1000
0000
0001
0100
,
0000
0010
0000
1000
0000
0100
0010
0001
,
1000
0000
0000
0100
1000
0000
0010
0000
0100
0000
0010
0000
0200
0000
0000
0000
,
0301
0000
0000
0000
0100
0000
0001
0000
1000
0000
0000
0001
0100
0000
0001
0000
,
1000
0100
1000
0100
0010
0001
1000
0010
,
0100
0000
0001
0000
0100
0000
0001
0000
1000
0000
0000
1000
0010
0000
0100
0000
,
0001
0000
0000
0001
0100
0000
0010
0000
1000
0000
0010
0000
2000
0000
0000
0000
,
3100
0000
1000
0100
0010
0001
0200
0000
,
0301
0000
0100
0000
0010
0000
1000
0000
0100
0000
0000
1000
0100
0000
1000
0000
,
0001
0000
0000
0001
0100
0000
0001
0000
1000
0000
0000
1000
0010
0000
1000
0000
,
2002
0000
3003
0001
0100
0100
0020
0000
,
1030
0000
0000
1000
0100
0100
0020
0000
,
0031
0000
1000
0000
0010
0000
0100
0002
,
0000
0000
1003
0200
0000
0000
0310
0001
,
0100
0000
0000
0010
0010
0100
0001
0000
,
1000
0000
0000
0100
0100
1000
0001
0000
,
0100
0000
0001
0000
1000
0000
0010
0100
,
0002
0000
1003
0100
2000
0000
3001
0100
,
0101
0000
1100
0100
0010
0001
1000
0000
,
1010
0000
0011
0010
0001
1000
0010
0000
,
1010
0000
0101
0000
1001
1000
0100
0010
,
0002
0000
0013
0100
2000
0000
3010
0100
,
0001
1000
0001
1000
0010
0100
0001
0000
,
1000
0001
1000
0001
0100
0010
1000
0000
,
0001
0100
0010
1000
0100
0010
0001
1000
,
0010
0100
0010
0100
0010
0100
0010
0100
0010
0100
0010
0100
0001
0000
0000
0000
,
0101
0000
0000
0100
0010
0000
0000
1000
0100
0000
0000
0100
0010
0000
0000
0010
,
0001
0000
0000
0001
1000
0000
0000
1000
0010
0000
0000
0010
0100
0000
0000
0100
,
0001
0000
0000
0001
0010
0000
0000
0010
0100
0000
0000
0100
1000
0000
0000
1000
,
0010
0000
0000
0010
0100
0000
0000
0100
0010
0000
0000
0010
1000
0000
0100
0000
,
0010
0000
0000
0010
0001
0000
0000
0001
1000
0000
0000
1000
0010
0000
0000
0010
,
0100
0000
0000
0100
0001
0000
0000
0001
1000
0000
0000
1000
0100
0000
0000
0100
,
0010
0000
0000
0010
0001
0000
0000
0001
0100
0000
0010
0000
0100
0000
0010
0000
,
2000
0000
3010
0100
0002
0000
1003
0100
,
2000
0000
0001
3001
,
0002
0000
0100
0103
,
0100
0000
0010
0000
1000
0010
1000
0001
,
0020
0000
0031
1000
0200
0000
1300
0000
,
2001
0100
0100
3010
,
1002
0100
0010
0013
,
0002
0203
2300
3200
,
0302
0023
0230
2300
,
3001
0000
1100
0000
0001
1000
0010
0000
,
1000
0000
0101
0000
1000
0001
0100
0000
,
1001
0000
1001
0000
1000
0100
0010
0001
,
0200
0000
0310
1000
0200
0000
0310
0001
,
1000
0100
1000
0000
1100
0000
1100
0000
,
0001
0100
0001
0000
0101
0000
0101
0000
,
1000
0010
1000
0000
1010
0000
1001
0000
,
0002
0000
0103
0001
2000
0000
3010
0000
,
1000
0100
1000
0100
1000
0001
1000
0000
,
0001
0100
0001
0100
0001
1000
0001
0000
,
1000
0010
1000
0010
0100
0001
0100
0001
,
2000
0000
3100
0010
0002
0000
0103
0001
,
1000
0010
0100
0001
1000
0100
0020
0000
,
0031
0010
0100
1000
0010
0100
0002
0000
,
0103
0010
1000
0100
0010
0001
0100
0010
,
1000
0001
1000
0001
1000
0001
1000
0001
1000
0001
1000
0001
0100
0000
0000
0000
,
1001
0000
0000
1000
0010
0000
0000
0010
0100
0000
0000
0100
0001
0000
0000
0001
,
0010
0000
0000
0010
0100
0000
0000
0100
1000
0000
0000
1000
0010
0000
0100
0000
,
0010
0000
0000
0010
1000
0000
0000
1000
0001
0000
0000
0001
0010
0000
0000
0010
,
0001
0000
0000
0001
1000
0000
0000
1000
0100
0000
0000
0100
0010
0000
0001
0000
,
0100
0000
0000
0100
0010
0000
0000
0010
1000
0000
0000
1000
0001
0000
0000
0001
,
0010
0000
0000
0010
0001
0000
0000
0001
1000
0000
0000
1000
0010
0000
0100
0000
,
0010
0000
0000
0010
1000
0000
0000
1000
0001
0000
0100
0000
0001
0000
1000
0000
,
0020
0000
0130
0001
2000
0000
3100
1000
,
0001
0000
0000
0000
;

//---------------dance-double - ----------------
#NOTEDATA:;
#CHARTNAME:;
#STEPSTYPE:dance-double;
#DESCRIPTION:;
#CHARTSTYLE:;
#DIFFICULTY:Challenge;
#METER:8;
#RADARVALUES:0.506794,0.590584,0.195961,0.283805,0.229747,454.000000,29.000000,42.000000,0.000000,0.000000,0.000000,0.000000,0.000000,0.506794,0.590584,0.195961,0.283805,0.229747,454.000000,29.000000,42.000000,0.000000,0.000000,0.000000,0.000000,0.000000;
#CREDIT:Ben Speirs;
#NOTES:
00000000
00000000
00000000
00000000
,
00000000
00000000
00000000
00000000
,
00000000
00000000
00000000
00000000
,
00000000
00000000
00000000
00000000
,
00000002
00000000
00000103
00001000
00000100
00001000
00020000
00000000
,
00031000
00000000
00010000
01000000
00010000
00000000
01000000
10000000
,
02000000
23000000
30200000
02300000
,
03010000
10000000
00010000
10000000
00200000
00000000
00300000
00000000
,
20000000
00000000
30100000
00010000
00100000
00010000
00002000
00000000
,
00013000
00000000
00010000
00001000
00000010
00000010
00000001
00000000
,
00001000
00000000
00000010
00000000
00000100
00000000
00000001
00001000
,
00000000
00000010
00000000
00001000
00000000
00000001
00000010
00000000
,
00000011
00000000
00000000
00000001
00001000
00000000
00000010
00000000
00000010
00000000
00000000
00001000
00000001
00000000
00000100
00000000
,
00000100
00000000
00000000
00000001
00001000
00000000
00000100
00000000
00000100
00000000
00000000
00001000
00000001
00000000
00000100
00000000
,
00000010
00001000
00000010
00001000
00000100
00010000
00000100
00010000
,
00001000
00100000
00010000
10000000
00200000
00000000
01300000
00000000
,
00010000
00000000
00000000
00010000
01000000
00000000
00100000
00000000
10000000
00000000
00000000
10000000
00100000
00000000
01000000
00000000
,
00010000
00000000
00000000
00010000
00100000
00000000
01000000
00000000
10000000
00000000
00000000
10000000
01000000
00000000
00100000
00000000
,
00010000
01000000
00010000
10000000
00200000
00000000
10300000
01000000
,
10000000
00010000
00200000
00000000
00310000
10000000
00100000
00000000
,
10010000
00000000
00000000
10000000
01000000
01000000
00100000
00000000
,
00010000
00000000
00000000
00010000
01000000
01000000
00100000
00000000
,
10000000
00000000
00010000
00000000
00100000
00000000
00010000
00100000
,
00001000
00000000
00100000
00001000
00010000
00000000
00001000
00010000
,
00000100
00000000
00000000
00001000
00001000
00000100
00000010
00000000
,
00000001
00000000
00000000
00000001
00000001
00000100
00000010
00000000
,
00001000
00000000
00000010
00000000
00000100
00000001
00000100
00000001
,
00002000
00003100
00000020
00000031
,
00001100
00001100
00000101
00001001
,
00001010
00001010
00000011
00001001
,
00000001
00000000
00000100
00000000
00000010
00001000
00000100
00020000
,
00000000
00031000
00100000
00020000
00000000
10030000
00100000
01000000
,
00010000
10000000
00010000
10000000
00100000
01000000
00020000
00000000
,
01030000
00100000
01000000
00100000
10000000
01000000
20000000
00000000
,
30010000
00100000
01000000
10000000
00100000
01000000
00010000
00100000
,
00001000
00100000
00001000
00100000
00001000
00100000
00001000
00100000
00001000
00100000
00001000
00100000
00010000
00000000
00000000
00000000
,
00101000
00000000
00000000
00100000
00001000
00000000
00000000
00001000
00010000
00000000
00000000
00010000
00000100
00000000
00000000
00000100
,
00001000
00000000
00000000
00001000
00000010
00000000
00000000
00000010
00000100
00000000
00000000
00000100
00000001
00000000
00000000
00000001
,
00000010
00000000
00000000
00000010
00000100
00000000
00000000
00000100
00001000
00000000
00000000
00001000
00000100
00000000
00000000
00000100
,
00010000
00000000
00000000
00010000
00001000
00000000
00000000
00001000
00100000
00000000
00000000
00100000
00010000
00000000
01000000
00000000
,
00100000
00000000
00000000
00100000
10000000
00000000
00000000
10000000
01000000
00000000
00000000
01000000
00100000
00000000
00000000
00100000
,
00010000
00000000
00000000
00010000
10000000
00000000
00000000
10000000
00100000
00000000
00000000
00100000
01000000
00000000
00000000
01000000
,
00010000
00000000
00000000
00010000
00100000
00000000
00000000
00100000
00001000
00000000
00010000
00000000
00001000
00000000
00010000
00000000
,
00000200
00000000
00001300
00000010
00000200
00000000
00000301
00001000
,
00001002
00000000
00000100
00000103
,
00002000
00000000
00000100
00003100
,
00000002
00000000
00000103
00000000
00000010
00001000
00000100
00010000
,
00002000
00203000
00320000
00030000
,
02010000
00000000
00000000
00000000
03100000
10000000
00100000
00000000
,
12000000
00000000
00000000
00000000
03100000
00010000
00100000
00000000
,
11000000
01100000
00110000
01100000
,
11000000
10010000
01010000
10010000
,
00200000
00000000
00300000
01000000
00010000
01000000
00010000
00000000
,
20000000
00000000
30000000
00010000
01000000
00010000
01000000
00000000
,
00200000
00000000
10300000
00000000
00010000
10000000
01000000
00100000
,
00020000
00000000
00130000
00001000
00020000
00000000
00031000
00010000
,
00000200
00000000
00000300
00001000
00000100
00000010
00000001
00000000
,
00000200
00000000
00000300
00000001
00000010
00000100
00001000
00000000
,
00000002
00000000
00000013
00000000
00000001
00001000
00000010
00001000
,
00000002
00000000
00000103
00000010
00002000
00000000
00003100
00000000
,
00001100
00000000
00010100
00000000
00001000
00010000
00000100
00000000
,
00010100
00000000
00011000
00000000
00001000
00100000
00010000
00000000
,
00101000
00000000
00011000
00000000
00100000
00001000
00100000
00010000
,
02000000
00000000
03100000
10000000
02000000
00000000
03100000
00000000
,
00010000
00100000
00010000
00100000
00001000
00010000
00000200
00000000
,
00001300
00000100
00001000
00000100
00010000
00001000
00200000
00000000
,
00310000
00100000
01000000
10000000
00100000
01000000
00010000
00100000
,
00001000
00010000
00001000
00010000
00001000
00010000
00001000
00010000
00001000
00010000
00001000
00010000
00000100
00000000
00000000
00000000
,
00001001
00000000
00000000
00001000
00000100
00000000
00000000
00000100
00000010
00000000
00000000
00000010
00000001
00000000
00000000
00000001
,
00000100
00000000
00000000
00000100
00000010
00000000
00000000
00000010
00001000
00000000
00000000
00001000
00000100
00000000
00010000
00000000
,
00001000
00000000
00000000
00001000
00100000
00000000
00000000
00100000
00010000
00000000
00000000
00010000
01000000
00000000
00000000
01000000
,
00100000
00000000
00000000
00100000
10000000
00000000
00000000
10000000
00010000
00000000
00000000
00010000
00100000
00000000
01000000
00000000
,
10000000
00000000
00000000
10000000
01000000
00000000
00000000
01000000
00010000
00000000
00000000
00010000
00001000
00000000
00000000
00001000
,
00000100
00000000
00000000
00000100
00000001
00000000
00000000
00000001
00001000
00000000
00000000
00001000
00000100
00000000
00000010
00000000
,
00000001
00000000
00000000
00000001
00000100
00000000
00000000
00000100
00000010
00000000
00001000
00000000
00000010
00000000
00001000
00000000
,
00000001
00000100
00000010
00001000
00000100
00010000
00001000
00100000
,
00100000
00000000
00000000
00000000
;

//---------------dance-single - ----------------
#NOTEDATA:;
#CHARTNAME:;
#STEPSTYPE:dance-single;
#DESCRIPTION:;
#CHARTSTYLE:;
#DIFFICULTY:Medium;
#METER:5;
#RADARVALUES:0.359100,0.385164,0.168931,0.331106,0.000000,298.000000,25.000000,49.000000,0.000000,0.000000,0.000000,0.000000,0.000000,0.359100,0.385164,0.168931,0.331106,0.000000,298.000000,25.000000,49.000000,0.000000,0.000000,0.000000,0.000000,0.000000;
#CREDIT:Ben Speirs;
#NOTES:
0000
0000
0000
0000
,
0000
0000
0000
0000
,
0000
0000
0000
0000
,
0000
0000
0000
0000
,
0001
0000
0100
0000
0010
1000
0010
0000
,
1000
0000
0100
0000
0010
0000
0001
0100
,
0000
0010
0000
1000
0000
0100
0000
0010
,
0000
0002
0000
2000
0000
0000
3003
0000
,
1000
0000
0010
0000
0100
0001
0100
0000
,
0001
0000
1000
0000
0001
0010
0001
0000
,
1000
0000
0010
0000
0100
0000
0001
0001
,
0000
0100
0000
0010
0000
1000
0000
0000
,
0001
0101
1000
1100
,
0002
1003
2000
3001
,
1000
0100
1000
0000
0001
0100
0001
0000
,
2000
3020
0230
0300
,
0001
0000
0101
0000
0100
0010
1000
0000
,
0100
0000
1100
0000
0100
0010
0001
0000
,
1000
0000
0001
0000
0100
0000
0010
0010
,
0000
1000
0000
0001
0000
0100
0000
0000
,
1001
0000
0000
0000
1000
0100
1000
0000
,
0001
0000
0000
0000
0001
0100
0001
0000
,
1000
0000
0002
0023
,
0230
2300
3010
0000
,
2000
0000
3000
0000
0010
0010
0010
0000
,
2000
0000
3000
0000
0010
0010
0010
0000
,
2000
3200
0320
0032
,
0100
0100
0103
0000
,
0101
0101
1001
1001
,
2000
0000
3000
0000
0001
1000
0001
0000
,
1100
1100
1001
1001
,
0002
0000
0003
0000
1000
0100
1000
0000
,
0002
0013
0010
0001
,
2000
3010
0010
0000
,
1000
0001
1000
0001
1000
0001
1000
0001
,
0200
0000
0300
1001
,
0020
1030
0002
0013
,
0002
0000
1003
0000
2000
0000
3100
0010
,
0002
0103
0020
1030
,
0100
1000
0100
0000
1000
0001
1000
0000
,
0020
1030
0002
0013
,
0200
1000
0010
0310
,
0020
0000
0031
0000
0001
1000
0001
0000
,
1100
0101
1001
0010
,
2000
3000
0100
0010
,
0002
0003
0100
0010
,
2000
3000
0002
0003
,
0100
0100
0100
0000
,
0002
0003
0100
0010
,
2000
3000
0100
1000
,
0001
0001
0001
0001
,
1000
1000
1000
1000
,
1001
0000
0000
1000
0100
1000
0100
0000
,
1000
0000
0000
0001
0100
0001
0100
0000
,
0001
0000
0000
0000
1000
0001
1000
0020
,
0000
0000
0000
0230
0000
0000
0000
0301
,
0001
0000
0000
1000
0100
1000
0100
0000
,
1000
0000
0000
0001
0100
0001
0100
0000
,
0001
0000
0000
0000
1000
0001
1000
0020
,
0000
0000
0000
2030
0000
0000
0000
3100
,
0100
1000
1100
0101
,
0100
0001
1001
1010
,
1000
0000
0001
0000
1000
0100
0010
0002
,
0000
0000
0000
2003
0000
0000
0000
3010
,
0010
0000
0100
0000
0001
0001
0001
0000
,
0100
0000
0010
0000
1000
1000
1000
0000
,
0001
1000
0001
1000
0001
1000
0001
1000
,
0020
0000
0030
1001
,
1001
0100
1000
0010
,
0100
0000
0100
0000
0001
0000
1000
1000
,
0010
0100
0001
1000
,
0100
0000
0100
0000
0010
0000
0001
0001
,
0200
0310
2000
3100
,
2000
0001
0100
3100
,
0002
0100
1000
1003
,
0001
0000
1000
0000
0010
0100
0001
0000
,
1010
0000
0000
0000
;

//---------------dance-single - ----------------
#NOTEDATA:;
#CHARTNAME:;
#STEPSTYPE:dance-single;
#DESCRIPTION:;
#CHARTSTYLE:;
#DIFFICULTY:Easy;
#METER:3;
#RADARVALUES:0.190169,0.231098,0.047301,0.013515,0.000000,188.000000,7.000000,2.000000,0.000000,0.000000,0.000000,0.000000,0.000000,0.190169,0.231098,0.047301,0.013515,0.000000,188.000000,7.000000,2.000000,0.000000,0.000000,0.000000,0.000000,0.000000;
#CREDIT:Ben Speirs;
#NOTES:
// measure 0
0000
0000
0000
0000
,  // measure 1
0000
0000
0000
0000
,  // measure 2
0000
0000
0000
0000
,  // measure 3
0000
0000
0000
0000
,  // measure 4
1000
0000
0010
0010
,  // measure 5
0100
0000
0001
0000
,  // measure 6
1000
0100
1000
0100
,  // measure 7
0010
0010
0010
0000
,  // measure 8
0001
0000
0100
0100
,  // measure 9
0010
0000
1000
1000
,  // measure 10
0100
0000
1000
0000
,  // measure 11
0010
0000
0010
0000
,  // measure 12
1000
0000
0001
0001
,  // measure 13
0100
0000
0100
0000
,  // measure 14
0010
1000
0010
1000
,  // measure 15
0001
0001
0001
0000
,  // measure 16
1000
0000
0100
0100
,  // measure 17
0010
0000
0001
0001
,  // measure 18
0100
0000
0010
0000
,  // measure 19
1000
0000
0001
0000
,  // measure 20
1001
0000
0000
1000
,  // measure 21
1000
0000
0000
0001
,  // measure 22
0001
0000
0100
0000
,  // measure 23
0010
0000
0010
0000
,  // measure 24
1001
0000
0000
0001
,  // measure 25
0001
0000
0000
1000
,  // measure 26
1000
0000
1000
0000
,  // measure 27
0010
0000
0010
0000
,  // measure 28
0100
0100
0100
0000
,  // measure 29
0001
0001
0001
0000
,  // measure 30
1000
1000
1000
0000
,  // measure 31
0020
0030
0020
0030
,  // measure 32
1000
0100
1000
1000
,  // measure 33
0001
0100
0001
0000
,  // measure 34
0001
0100
0001
0001
,  // measure 35
1000
0100
1000
0000
,  // measure 36
1001
0000
1000
0010
,  // measure 37
1000
0000
0001
0010
,  // measure 38
0001
0000
1000
0001
,  // measure 39
0100
0000
0100
0000
,  // measure 40
0001
0000
1000
0100
,  // measure 41
1000
0000
0001
0100
,  // measure 42
0001
0000
1000
0000
,  // measure 43
0001
1000
0010
0000
,  // measure 44
1001
0000
0000
0000
,  // measure 45
1000
0000
0000
0000
,  // measure 46
0010
0000
0100
0000
,  // measure 47
0010
0000
0010
0000
,  // measure 48
1000
0000
0000
0000
,  // measure 49
0001
0000
0000
0000
,  // measure 50
0010
0010
0001
0001
,  // measure 51
0100
0100
0010
0000
,  // measure 52
1001
0000
0000
1000
,  // measure 53
1000
0000
0000
0001
,  // measure 54
0001
0000
1000
0000
,  // measure 55
0010
0000
0010
0000
,  // measure 56
1001
0000
0000
0001
,  // measure 57
0001
0000
0000
1000
,  // measure 58
1000
0000
0001
0000
,  // measure 59
0100
0000
0100
0000
,  // measure 60
0001
0001
0001
0000
,  // measure 61
1000
1000
1000
0000
,  // measure 62
0010
0010
0010
0000
,  // measure 63
0100
0100
0100
0000
,  // measure 64
0001
0100
0010
0010
,  // measure 65
0100
0010
1000
0000
,  // measure 66
0010
1000
0010
0010
,  // measure 67
0100
0001
0100
0000
,  // measure 68
1001
0000
0001
0000
,  // measure 69
1000
0000
0010
0000
,  // measure 70
0100
0100
0010
0010
,  // measure 71
1000
0100
1000
0000
,  // measure 72
0001
0000
1000
0000
,  // measure 73
0001
0100
0001
0000
,  // measure 74
1000
1000
0010
0000
,  // measure 75
1000
0100
0010
0001
,  // measure 76
1000
0000
0000
0000
;

//---------------dance-single - ----------------
#NOTEDATA:;
#CHARTNAME:;
#STEPSTYPE:dance-single;
#DESCRIPTION:;
#CHARTSTYLE:;
#DIFFICULTY:Beginner;
#METER:1;
#RADARVALUES:0.104255,0.128388,0.013515,0.000000,0.000000,106.000000,2.000000,0.000000,0.000000,0.000000,0.000000,0.000000,0.000000,0.104255,0.128388,0.013515,0.000000,0.000000,106.000000,2.000000,0.000000,0.000000,0.000000,0.000000,0.000000,0.000000;
#CREDIT:Ben Speirs;
#NOTES:
// measure 0
0000
0000
0000
0000
,  // measure 1
0000
0000
0000
0000
,  // measure 2
0000
0000
0000
0000
,  // measure 3
0000
0000
0000
0000
,  // measure 4
0010
0000
0000
0000
,  // measure 5
1000
0000
0000
0000
,  // measure 6
0001
0000
0001
0000
,  // measure 7
0001
0000
0000
0000
,  // measure 8
1000
0000
0000
0000
,  // measure 9
0001
0000
0000
0000
,  // measure 10
0100
0000
0100
0000
,  // measure 11
0100
0000
0000
0000
,  // measure 12
0010
0010
0000
0000
,  // measure 13
1000
1000
0000
0000
,  // measure 14
0100
0000
0100
0000
,  // measure 15
0100
0000
0000
0000
,  // measure 16
1000
1000
0000
0000
,  // measure 17
0001
0001
0000
0000
,  // measure 18
0010
0010
0000
0000
,  // measure 19
0001
0000
0001
0000
,  // measure 20
0001
0000
0000
0000
,  // measure 21
1000
0000
0000
0000
,  // measure 22
0010
0000
0000
0000
,  // measure 23
0100
0000
0100
0000
,  // measure 24
0100
0000
0000
0000
,  // measure 25
0001
0000
0000
0000
,  // measure 26
1000
0000
0000
0000
,  // measure 27
0010
0000
0010
0000
,  // measure 28
0010
0000
0000
1000
,  // measure 29
1000
0000
0000
0001
,  // measure 30
0001
0000
0000
0000
,  // measure 31
0100
0000
0100
0000
,  // measure 32
0100
0000
0000
0001
,  // measure 33
0001
0000
0000
1000
,  // measure 34
1000
0000
0000
0000
,  // measure 35
0010
0000
0010
0000
,  // measure 36
0010
0000
0000
0000
,  // measure 37
1000
0000
1000
0000
,  // measure 38
1000
0000
0000
0000
,  // measure 39
0001
0000
0001
0000
,  // measure 40
0001
0000
0000
0000
,  // measure 41
0100
0000
0100
0000
,  // measure 42
0100
0000
0000
0000
,  // measure 43
0010
0000
0010
0000
,  // measure 44
0010
0000
0000
0000
,  // measure 45
0000
0000
0000
0000
,  // measure 46
1000
0000
0000
0000
,  // measure 47
0001
0000
0000
0000
,  // measure 48
1000
0000
0000
0000
,  // measure 49
0000
0000
0000
0000
,  // measure 50
0001
0000
0000
0000
,  // measure 51
1000
0000
0000
0000
,  // measure 52
1001
0000
0000
0001
,  // measure 53
0001
0000
0000
0000
,  // measure 54
1000
0000
0000
1000
,  // measure 55
1000
0000
0000
0000
,  // measure 56
0010
0000
0000
0010
,  // measure 57
0010
0000
0000
0000
,  // measure 58
0100
0000
0000
0100
,  // measure 59
0100
0000
0000
0000
,  // measure 60
0001
0001
0000
0000
,  // measure 61
1000
1000
0000
0000
,  // measure 62
0010
0000
0010
0000
,  // measure 63
0010
0000
0000
0000
,  // measure 64
1000
1000
0000
0000
,  // measure 65
0001
0001
0000
0000
,  // measure 66
0100
0000
0100
0000
,  // measure 67
0100
0000
0000
0000
,  // measure 68
1001
0000
0000
0000
,  // measure 69
0001
0000
0001
0000
,  // measure 70
0001
0000
0000
0000
,  // measure 71
0100
0000
0100
0000
,  // measure 72
0100
0000
0000
0000
,  // measure 73
0001
0000
0001
0000
,  // measure 74
0001
0000
0000
0000
,  // measure 75
1000
0000
1000
0000
,  // measure 76
1000
0000
0000
0000
;
