#TITLE:Mosaik Role;
#ARTIST:GUMI;
#FILE:Mosaik Role.mp3;
#BPM:145.000;
#GAP:10;
#SAMPLESTART:89.500;
#SAMPLELENGTH:15.580;
#FREEZE:596.000=10.000,600.000=10.000;
#SINGLE:BEGINNER:1:
00000000
00000000
00000000
00000000
80000000
40000000
80000000
20000000
80000000
40000000
60000000
80000000
60000000
40000000
20000000
40000000
80000000
20000000
60000000
40000000
80000000
40000000
20000000
40000000
60000000
80000000
60000000
40000000
20000000
20000000
40000000
40000000
80000000
80000000
20000000
20000000
60006000
60006000
B0000000
20002000
20000000
80008000
80000000
40004000
40000000
60006000
60000000
20000000
80008000
80000000
20000000
60000000
80008000
80008000
A0000000
20200000
40400000
60600000
80800000
60600000
40400000
80800000
B0000000
20000000
80000000
40000000
B0000000
20000000
60000000
80808080
;
#SINGLE:ANOTHER:8:
00000000
00000000
00000000
00000000
80406020
80460000
80602080
40280000
60802040
80420000
40602080
20640000
20202084
60606082
40404084
20202046
80808064
60606028
40404084
20202040
80406020
80260000
80604080
20840000
20406020
80260000
20604020
80640000
80406280
40604280
60408260
80208640
80406280
40604280
60408260
20804620
3!30301!1010
A!A0A0B0B0
80406260
80204240
80406260
40602820
6!60304!4070
2!20A04!4010
60408260
82406480
2!2060A020
604!401000
40602!203!60
9!809!60B!4010
0040602!20
A04!401086
2!203!60B!407!80
A!2080A000
B0B02080
40242000
10106040
30304000
A0A04060
20842000
40204620
82608240
60408020
60260000
80604080
20840000
10408020
62620000
80206080
24240846
;
#SINGLE:MANIAC:12:
00000000
00000000
00000000
00000000
70268020
86864640
20482080
48482620
A0264060
82824640
80462080
46462820
(8008206000400020)
(4004802000006040)
(8008206000800020)
(4004802000804080)
(2002604000200040)
(6006802000402080)
(6006408000200060)
(900400A000602080)
A!20A03!6020
408020B0
A0462082
64246820
A0904620
84246280
A0308620
84684860
(3002802000600040)
(2002408000208040)
(6006806000400080)
(2002804000604020)
(8008602000800020)
(6006402000408020)
(8008402000400060)
(8008602000802060)
3!20A0B!6090
1!4070A0B0
2!203!609242
48284682
806230B0
24248282
6!60B08!80A0
6!60924!4010
8!80A04!40B0
46862846
30826048
46284062
80842!201!40
7!80A!203!6038
02842046
40826026
40842!201!40
7!809!609000
(7080206040006028)
28482042
4!40728!80A!20
30301046
(4080206040008026)
28464026
4!40726!60B0
10B08262
A0842080
24246460
80628020
62628480
A8264080
42864080
26242080
42864888
;
#SINGLE:BASIC:4:
00000000
00000000
00000000
00000000
80802000
60206000
40402000
40804000
80802000
60206000
40406000
20802000
60002000
60802000
80006000
80204000
80002000
80406000
40002000
40208000
60604000
20004000
80802000
80004000
60604000
20806000
40408000
20804000
20004000
60408000
40002000
80602000
80002000
60208000
20006000
40208000
B000B000
A000A000
80802060
40402040
60604080
20208040
60604040
80804040
20204040
80406020
30002000
80808000
20006000
40604000
20002000
40404000
80004000
20202000
40604080
20804060
80606020
80404000
80406020
80206040
40204080
80002080
20006000
40006000
20008000
20006000
40208060
20802000
60208040
60402020
;
