#TITLE:The One That Got Away;
#ARTIST:Katy Perry;
#FILE:The One That Got Away.mp3;
#BPM:134.000;
#GAP:200;
#SAMPLESTART:102.220;
#SAMPLELENGTH:15.400;
#CHANGEBPM:272.000=67.000,280.000=134.000,904.000=67.000,912.000=134.000;
#SINGLE:BEGINNER:1:
00000000
00000000
40000000
40000000
20000000
20000000
80000000
80000000
60000000
60000000
20000000
20000000
60000000
60000000
40000000
40000000
80000000
80008000
00004000
40004000
00006000
60006000
00004000
00008000
00002000
20002000
00006000
60006000
00004000
40004000
00008000
00004000
00002020
20002000
0000B000
00008000
0000A000
00002000
0000B000
00004000
00006000
60006000
00008000
00002000
00008000
00006000
00002000
00008000
00004000
0000B000
00002000
00004000
00008000
00002000
00006000
00008000
80008000
A0000000
20002000
20000000
40004000
40000000
60000000
80000000
60006000
60000000
20002000
20000000
80008000
80000000
20000000
60000000
40404000
B0000000
;
#SINGLE:ANOTHER:5:
00000000
00000000
80206000
80204000
60408000
40602000
80206000
80204000
8!80407000
4!40201000
40208000
60402000
40802000
80406000
80602000
60402000
4!40807000
6!60003000
60004020
86208000
20006080
24804000
60002080
42806000
40006040
82828000
20006040
68204000
80004060
28406000
80006040
80284000
60424080
26200060
00408280
28200060
00806460
46400020
00408480
26200080
00428060
46208080
40402020
80806!600B!4
001!200080
8080A060
40802080
40604!400B!6
003!200060
60603080
60402080
20408!8007!4
001!200040
40401060
20804080
20603030
3030B!B060
70004000
60802480
20008000
40208620
60004000
80206820
40006000
40602828
20008000
40604280
60002000
60408260
40002000
40602082
60004068
60208480
A!A00000A0
;
#SINGLE:MANIAC:9:
00000000
00000000
80406080
60408028
40204060
80602068
20806040
80208048
2!2080A040
6!6040B084
20806040
80208046
20608020
40604082
80406080
20408046
2!2080A060
A!A0803!6040
20B08040
62804!4020
80B02460
26408028
20626042
40828!8040
20A04!4020
60B03080
20604020
48284060
40208060
46264082
80424064
60262!2080
60A28040
624000A0
00284646
46460010
00846464
64640090
00286464
646400A0
00642040
62408080
40246046
20804046
06806020
80460400
00008420
46208082
02602060
42862060
40246046
20826086
40248020
84680000
00004240
6260B0B0
B0B0A!A020
7!406080B0
20604820
6!608020B0
86408460
20828048
40686028
2!206080A0
6!608040B0
70208040
60806282
60406080
20406484
60282068
60464084
8!802040A8
20604860
B!B00000B0
;
#SINGLE:BASIC:2:
00000000
00000000
80002000
60606000
20006000
40404000
20004000
80808000
4!40004000
8!80008000
20006000
80808000
60004000
20202000
40006000
80808000
6!60006000
2!2000A000
80004000
40006000
60002000
20006000
40008000
40002000
80006040
80206000
20008000
40002000
40008000
4000B000
2000B000
80002020
20202080
80202000
80004060
40602000
60004060
40602000
60004060
40602000
60004060
40008000
80008000
80004000
40004000
40002000
20002000
20008000
80008000
80006000
60006000
60002000
20002000
20008000
80008000
80004040
40404!4000
70008000
40004000
60006000
20002000
60004000
80004000
20008000
60408020
60002000
80004000
20004000
80004000
B0002000
B0008000
20202020
20000000
;
