#TITLE:Bangarang;
#SUBTITLE:;
#ARTIST:Skrillex;
#TITLETRANSLIT:;
#SUBTITLETRANSLIT:;
#ARTISTTRANSLIT:;
#CREDIT:;
#BANNER:Bangarang-bn.png;
#BACKGROUND:Bangarang-bg.png;
#LYRICSPATH:;
#CDTITLE:;
#MUSIC:Bangarang.mp3;
#OFFSET:-0.060;
#SAMPLESTART:76.420;
#SAMPLELENGTH:16.160;
#SELECTABLE:YES;
#BPMS:0.000=109.990,199.000=107.750,200.000=110.010;
#STOPS:;
#BGCHANGES:;

//---------------dance-single - ----------------
#NOTES:
     dance-single:
     :
     Beginner:
     2:
     0.134,0.193,0.082,0.000,0.000: // measure 1
0000
0000
0000
0000
,  // measure 2
0000
0000
0000
0000
,  // measure 3
0000
0000
0000
0000
,  // measure 4
0000
0000
0000
0000
,  // measure 5
0010
0000
0000
0000
,  // measure 6
0010
0000
0000
0000
,  // measure 7
1000
0000
0000
0000
,  // measure 8
1000
0000
0000
0000
,  // measure 9
0100
0000
0100
0000
,  // measure 10
0100
0000
0100
0000
,  // measure 11
0010
0000
0000
0000
,  // measure 12
0000
0000
0000
0000
,  // measure 13
1001
0000
0000
0100
,  // measure 14
0100
0000
0010
0000
,  // measure 15
1000
0000
0000
0001
,  // measure 16
0001
0000
0010
0000
,  // measure 17
0001
0000
0000
0100
,  // measure 18
0100
0000
0010
0000
,  // measure 19
1000
0000
0000
0001
,  // measure 20
0001
0000
1000
0000
,  // measure 21
0110
0000
0000
1000
,  // measure 22
1000
0000
0100
0000
,  // measure 23
1000
0000
0000
0010
,  // measure 24
0010
0000
0100
0000
,  // measure 25
0001
0000
0000
0010
,  // measure 26
0010
0000
0001
0000
,  // measure 27
1000
0000
0000
0100
,  // measure 28
0100
0000
1000
0000
,  // measure 29
1001
0000
0010
0000
,  // measure 30
1000
0000
0001
0000
,  // measure 31
1000
0000
0100
0000
,  // measure 32
1000
0000
0010
0000
,  // measure 33
0100
0100
0100
0100
,  // measure 34
0010
0010
0010
0010
,  // measure 35
1000
1000
1000
1000
,  // measure 36
0001
0001
0001
0000
,  // measure 37
1001
0000
0100
0000
,  // measure 38
1000
1000
0100
0000
,  // measure 39
1000
0000
0001
0000
,  // measure 40
0010
0010
0001
0000
,  // measure 41
0100
0000
0001
0000
,  // measure 42
1000
0000
0010
0010
,  // measure 43
0100
0000
0010
0000
,  // measure 44
1000
1000
0001
0000
,  // measure 45
0110
0000
1000
0000
,  // measure 46
0110
0000
0001
0000
,  // measure 47
0110
0000
1000
0000
,  // measure 48
0110
0000
0001
0000
,  // measure 49
1001
0000
0100
0000
,  // measure 50
1001
0000
0010
0000
,  // measure 51
1000
1000
1000
0000
,  // measure 52
0001
0001
0001
0001
,  // measure 53
0001
0000
0000
0000
;

//---------------dance-single - ----------------
#NOTES:
     dance-single:
     :
     Medium:
     6:
     0.307,0.364,0.049,0.165,0.008:
0000
0000
0000
0000
,
0000
0000
0000
0000
,
0000
0000
0000
0000
,
0000
0000
0000
0000
,
1000
0000
0001
0000
0100
0010
0100
0000
,
0010
1000
0100
0000
,
1000
0000
0001
0000
1000
0010
1000
0000
,
0100
0010
0001
0000
,
1001
0000
0100
0000
1000
0010
0100
0000
,
0010
0000
1000
0000
0001
1000
0100
0000
,
1000
0000
0001
0000
0010
0001
0100
0000
,
0010
0000
0000
0000
0100
0000
0000
0000
0001
0000
0000
1000
0000
0000
0000
0000
,
1001
0000
0100
1000
0010
0100
0100
0000
,
0010
0100
0002
0103
,
0010
0000
1000
0010
0100
0100
0010
1000
,
0001
1000
0200
0310
,
0001
0000
0010
0100
1000
1000
0010
1000
,
0001
0100
0020
0130
,
0001
0000
1000
0001
0100
0100
0010
0100
,
0001
0010
0002
1003
,
0100
0000
1000
0010
1000
1000
0100
0010
,
0001
0100
0020
0130
,
0001
0000
0100
0010
1000
1000
0100
1000
,
0001
0010
0200
1300
,
0010
0000
1000
0001
0100
0100
0010
0100
,
0010
1000
0200
0310
,
0001
0000
1000
0001
0100
0100
0010
0100
,
0001
0010
0200
0310
,
1001
0100
1000
0010
,
0100
0000
0010
0000
1000
0100
1000
0100
,
1000
0010
0100
0010
,
1000
0000
0001
0000
0010
0001
0010
0001
,
0200
0320
2030
3200
,
2300
3002
0023
0230
,
0320
0032
0203
0320
,
0030
0000
1001
0000
0000
0000
1001
0000
0100
0000
0000
0100
0000
0000
0000
0000
,
1000
1000
0001
0001
0000
0000
0000
0000
,
0100
0100
0010
0010
0000
0000
0000
0000
,
1000
1000
0010
0010
0000
0000
0000
0000
,
0100
0001
1000
0100
1000
0001
0000
0000
,
1000
1000
0010
0010
0000
0000
0000
0000
,
0100
0100
0010
0010
0000
0000
0000
0000
,
1000
1000
0001
0001
0000
0000
0000
0000
,
0010
0001
0010
0100
1000
0001
0000
0000
,
0100
0010
0000
0010
0100
0000
0000
0000
,
1000
0001
0000
0001
1000
0000
0000
0000
,
0001
0010
0000
0010
0001
0000
0000
0000
,
1000
0010
0100
0010
1000
0001
0000
0000
,
0010
0100
0000
0100
0010
0000
0000
0000
,
0001
1000
0000
1000
0001
0000
0000
0000
,
1010
0000
0100
1000
1000
0010
0100
0000
,
0010
0100
0100
0001
1000
0100
0010
0001
,
0100
0000
0000
0000
;

//---------------dance-single - ----------------
#NOTES:
     dance-single:
     :
     Hard:
     9:
     0.373,0.386,0.107,0.058,0.025:
0000
0000
0000
0000
,
0000
0000
0000
0000
,
0000
0000
0000
0000
,
0000
0000
0000
0000
,
1001
0000
0100
0000
1000
0010
1000
0010
,
1000
0010
0100
0001
,
0100
0000
0010
0000
0100
0001
0100
0001
,
0100
0010
1000
0001
,
1010
0000
0001
0000
0100
0010
0100
0010
,
0100
0001
0100
0010
,
1000
0100
1000
0001
0000
0100
0100
0100
,
0010
0000
0100
0000
0001
0000
0000
0000
1100
0000
0000
0101
0000
0000
0000
0000
,
0010
0000
1000
0100
1000
0001
0001
0001
,
0010
0000
0001
0000
0100
0010
1000
0000
,
0010
0000
0100
0001
0100
0010
0010
0010
,
1000
0000
0001
0000
1000
0100
0010
0000
,
0001
0000
1000
0100
1000
0010
0010
0010
,
0100
0000
0000
0000
0010
0000
0000
0000
1000
0000
0100
1000
0000
0000
0000
0000
,
2001
0000
3010
0100
0010
1000
1000
1000
,
0001
0000
0010
0000
0001
0010
0100
0000
,
1020
0000
0130
0010
1000
0001
0001
0001
,
1000
0000
0000
0000
0100
0000
0000
0000
0010
0000
0001
0010
0000
0000
0000
0000
,
0210
0000
0310
1000
0100
1000
1000
1000
,
0010
0000
1000
0000
0010
0100
0001
0000
,
0210
0000
0301
0100
0010
0100
0100
0100
,
0001
0000
0000
0000
1000
0000
0000
0000
0100
0000
0010
0100
0000
0000
0000
0000
,
2010
0000
3100
1000
0001
0100
0100
0100
,
0010
0000
0100
0000
0001
0100
1000
0000
,
0110
0100
0001
1000
0000
0010
0010
0010
,
1000
0000
0100
0000
1000
0001
1000
0000
,
0010
0100
0001
1000
0000
0001
0001
0001
,
0010
0000
0000
0000
0001
0000
0100
0000
0010
0000
0100
0010
0000
0000
0000
0000
,
0110
0100
0001
1000
0000
0100
0100
0100
,
1000
0010
1000
0000
0001
0100
0010
0000
,
0100
0001
0010
1000
0000
0010
0010
0010
,
0001
0000
1000
0000
0100
0000
1000
0000
0010
0000
0100
0001
0000
0000
0000
0000
,
1000
1000
0001
1000
0000
0000
0100
0000
,
1000
1000
0010
0100
0001
0010
1000
0000
,
0010
0010
0001
1000
0100
0000
1000
0010
,
1000
1000
0001
0100
0010
0200
0010
0000
,
0301
0001
0100
0001
1000
0100
1000
0000
,
0010
1000
0100
1000
0010
0010
0100
0000
,
0010
0100
0001
0000
0010
0010
0100
0010
,
0001
1000
0100
0010
0001
2000
0010
0000
,
3100
0010
0000
0010
0100
0000
0010
0001
,
0100
0010
0000
0100
0010
1000
0100
0000
,
1000
0100
0000
1000
0100
0010
0001
0000
,
0100
0010
1000
0100
0010
0001
0100
0000
,
0010
0100
0000
0001
1000
0100
1000
0000
,
0010
1000
0000
0001
0100
0010
1000
0000
,
0110
0100
0001
1000
0100
0001
1000
0000
,
0010
1000
0100
0010
0001
0100
0010
0100
,
1010
0000
0000
0000
;

//---------------dance-single - ----------------
#NOTES:
     dance-single:
     :
     Easy:
     5:
     0.237,0.257,0.099,0.041,0.000:
0000
0000
0000
0000
,
0000
0000
0000
0000
,
0000
0000
0000
0000
,
0000
0000
0000
0000
,
0010
0010
1000
0100
,
1000
1000
0001
0000
,
0010
0010
0001
0100
,
0010
0010
0100
0000
,
0010
0010
1000
0001
,
1000
1000
0100
0000
,
1000
1000
0000
0000
,
0100
0000
1100
0000
,
1010
0001
0001
1000
,
0010
0100
0010
0010
,
0110
0001
0100
0010
,
0010
1000
0001
1000
,
1100
1000
0010
0100
,
0001
0001
0010
0001
,
1001
1000
0010
0100
,
0100
0010
1000
0100
,
1100
0100
0010
0001
,
0100
0010
0100
0001
,
1001
1000
0100
1000
,
0010
0100
0010
0100
,
0101
0010
1000
0001
,
1000
0100
0010
0001
,
0011
1000
0100
1000
,
0010
0100
0010
0000
,
1000
0100
1000
0100
,
0010
0001
0200
0300
,
0010
0100
0010
0100
,
0001
0100
0020
0030
,
1000
0100
1000
0001
,
1000
0100
1000
0001
,
0010
1000
0010
0001
,
0010
0100
0010
0100
0000
0000
0000
0000
,
1001
0010
1000
0010
,
0100
0000
0001
0000
0100
0100
0010
0000
,
1000
0001
0010
0001
,
1000
0100
0020
0030
,
1001
0100
1000
0010
,
0100
0000
0001
0000
1000
1000
0100
0000
,
1000
0010
0100
0001
,
0010
0100
2000
3000
,
0010
0100
0000
0000
0010
0000
0100
0000
,
0001
0100
0000
0000
0001
0000
0100
0000
,
0010
1000
0000
0000
0010
0000
1000
0000
,
0100
0010
0002
0003
,
1000
0010
0000
0000
1000
0000
0010
0000
,
0100
0010
0000
0000
0100
0000
0010
0000
,
1001
0100
1000
0010
,
0100
0000
0001
0000
0100
0010
0100
0010
,
0010
0000
0000
0000
;

//---------------dance-single - ----------------
#NOTES:
     dance-single:
     :
     Challenge:
     14:
     0.614,0.664,0.330,0.099,0.585:
0000
0000
0000
0000
,
0000
0000
0000
0000
,
0000
0000
0000
0000
,
0000
0000
0000
0000
,
1010
0000
0100
0000
0001
0000
1000
0000
0000
0000
0010
0100
0010
0100
0010
0100
,
0010
0000
1000
0000
0100
0000
0010
0000
0001
0000
0000
1000
0000
0000
0010
0000
,
1000
0000
0100
0000
0010
0000
0001
0000
0000
0000
0100
0010
0100
0010
0100
0010
,
1000
0000
0001
0000
0010
0000
0100
0000
1000
0000
0000
0001
0000
0000
0100
0000
,
0010
1000
0010
0000
0100
0000
0001
0000
0000
0000
0010
0100
0010
0100
0010
0100
,
0010
0000
0001
0000
1000
0000
0010
0000
0100
0000
0100
0010
0000
0000
1000
0000
,
0010
0100
0010
0100
0010
0000
1000
0000
0000
0000
0001
1000
0001
1000
0001
1000
,
0100
0000
1000
0000
0010
0000
0100
0000
0001
0000
1000
0010
0000
0000
1001
0000
,
0101
0000
0000
1000
0010
0000
0010
0000
0100
0000
0001
0100
0001
0000
0010
0000
,
0001
0010
0100
1000
0010
0100
0001
0000
0100
0000
0010
0100
0000
0000
1000
0000
,
0110
0000
0000
1000
0100
0000
0001
0000
0100
0000
0010
1000
0010
0000
1000
0000
,
0010
0100
0010
1000
0100
0010
0001
0000
1000
0000
0020
0000
1000
0000
0130
0000
,
0101
0000
0000
1000
0100
0000
0010
0000
0001
0000
0100
0010
0100
0000
0001
0000
,
0100
0010
1000
0001
1000
0010
0100
0000
0001
0000
0100
0001
0000
0000
1000
0000
,
0110
0000
0000
1000
0001
0000
1000
0000
0010
0000
0100
0001
0100
0000
0010
0000
,
1000
0001
1000
0010
0100
0001
0010
0000
0100
0000
0020
0000
0001
0000
0130
0000
,
1001
0000
0000
0100
1000
0000
0010
0000
0100
0000
0010
0100
0010
0000
1000
0000
,
0100
1000
0100
1000
0001
0010
0100
0000
0010
0000
0001
0100
0000
0000
0010
0000
,
1010
0000
0000
0100
0010
0000
1000
0000
0001
0000
1000
0100
1000
0000
0010
0000
,
0100
0010
0100
0001
1000
0100
0010
0000
0001
0000
0020
0000
0100
0000
1030
0000
,
0101
0000
0000
0010
0100
0000
0001
0000
1000
0000
0100
1000
0100
0000
0010
0000
,
0001
0010
1000
0010
0001
1000
0010
0000
0100
0000
0010
1000
0000
0000
0001
0000
,
1010
0000
0000
0100
0010
0000
0100
0000
0001
0000
1000
0001
1000
0000
0010
0000
,
0100
0010
0100
0010
1000
0100
1000
0000
0010
0000
0200
0000
1000
0000
0301
0000
,
1010
0000
0000
0000
0100
0000
0001
0000
0000
0000
1000
0100
0010
0001
0010
0100
,
1000
0000
0010
0000
0100
0000
0001
0000
1010
0000
0000
1001
0000
0000
0101
0000
,
0010
0000
0000
0000
0100
0000
0001
0000
0000
0000
0100
0010
1000
0001
0100
0010
,
1000
0000
0100
0000
0010
0000
0001
0000
0110
0000
0000
1001
0000
0000
1100
0000
,
0100
0010
0000
0001
0000
1000
0000
0010
0100
0010
0000
1000
0000
0001
0000
0010
,
1000
0010
0000
0001
0000
1000
0000
0100
1000
0100
0000
0010
0000
0001
0000
0100
,
0010
0100
0000
0001
0000
1000
0000
0010
1000
0010
0000
0100
0000
0001
0000
1000
,
0100
0000
1010
0000
0100
0000
1001
0000
0100
0000
0010
0100
0000
0000
1001
0000
,
0101
0000
0010
0000
0100
0000
0001
0000
1000
0010
0100
0000
1000
0010
0100
0100
,
0001
0000
1000
0000
0100
0000
0010
0000
0001
0100
1000
0100
0020
0000
0000
0000
,
1030
0000
1000
0000
0100
0000
0010
0000
0001
0010
0100
0000
0001
0010
0100
0100
,
1000
0000
0100
1000
0100
0000
0010
0001
0100
0000
0220
0000
0000
0000
0330
0000
,
1010
0000
0100
0000
0010
0000
1000
0000
0001
0100
0010
0000
0001
0100
0010
0010
,
1000
0000
0001
0000
0010
0000
0100
0000
1000
0010
0001
0010
0200
0000
0000
0000
,
0301
0000
0001
0000
0010
0000
0100
0000
1000
0100
0010
0000
1000
0100
0010
0010
,
0001
0000
0010
0001
0010
0000
0100
1000
0010
0000
0220
0000
0000
0000
0330
0000
,
1001
0000
0000
0000
0110
0000
0000
0000
0100
0000
0000
0000
0110
0000
0000
0000
1000
0000
0100
0000
1000
0000
0100
0010
0100
0000
0010
0000
0001
0000
0100
0000
,
0110
0000
1001
0000
1000
0000
1001
0000
0100
0010
1000
0001
1000
0000
0010
0000
,
1010
0000
0000
0000
0101
0000
0000
0000
0100
0000
0000
0000
0101
0000
0000
0000
0010
0000
0100
0000
0010
0000
1000
0001
1000
0000
0100
0000
0010
0000
0001
0000
,
0100
0000
0010
1000
0001
0000
0100
0010
1000
0000
2020
0000
0000
0000
3030
0000
,
0110
0000
0000
0000
1001
0000
0000
0000
0001
0000
0000
0000
1001
0000
0000
0000
0010
0000
0100
0000
0010
0000
1000
0001
0100
0000
0010
0000
0100
0000
0001
0000
,
1000
0000
1000
0000
0100
0000
0010
0000
0001
0010
0100
0010
0001
0000
1000
0000
,
1010
0000
0100
0010
1000
0000
0001
0000
0010
0000
0100
0010
0001
0000
0010
0000
,
0100
1000
0010
1000
0001
1000
0010
0000
0100
0000
0110
0000
0001
0000
0101
0000
,
1000
0000
0000
0000
;
