#VERSION:0.82;
#TITLE:Get Lucky;
#SUBTITLE:;
#ARTIST:Daft Punk feat. Pharrell Williams;
#TITLETRANSLIT:;
#SUBTITLETRANSLIT:;
#ARTISTTRANSLIT:;
#GENRE:Disco;
#ORIGIN:;
#CREDIT:;
#BANNER:Get Lucky.png;
#BACKGROUND:Get Lucky-bg.png;
#PREVIEWVID:;
#JACKET:jacket.png;
#CDIMAGE:;
#DISCIMAGE:;
#LYRICSPATH:;
#CDTITLE:cdtitle.png;
#MUSIC:Get Lucky.ogg;
#OFFSET:-0.001400;
#SAMPLESTART:107.531769;
#SAMPLELENGTH:14.620000;
#SELECTABLE:YES;
#BPMS:0.000=116.050;
#STOPS:;
#DELAYS:;
#WARPS:;
#TIMESIGNATURES:0.000=4=4;
#TICKCOUNTS:0.000=4;
#COMBOS:0.000=1;
#SPEEDS:0.000=1.000=0.000=0;
#SCROLLS:0.000=1.000;
#FAKES:;
#LABELS:0.000=Song Start;
#BGCHANGES:8.000=Get Lucky.avi=1.000=0=0=1=====,
99999=-nosongbg-=1.000=0=0=0 // don't automatically add -songbackground-
;
#KEYSOUNDS:;
#ATTACKS:
;

//---------------dance-single - ----------------
#NOTEDATA:;
#CHARTNAME:;
#STEPSTYPE:dance-single;
#DESCRIPTION:;
#CHARTSTYLE:;
#DIFFICULTY:Hard;
#METER:7;
#RADARVALUES:0.457103,0.472290,0.188219,0.202161,0.052283,403.000000,27.000000,29.000000,0.000000,0.000000,0.000000,0.000000,0.000000,0.457103,0.472290,0.188219,0.202161,0.052283,403.000000,27.000000,29.000000,0.000000,0.000000,0.000000,0.000000,0.000000;
#CREDIT:Ben Speirs;
#NOTES:
0000
0000
0000
0000
,
0000
0000
0000
0000
,
0000
0000
0000
0000
,
0000
0000
0000
0000
,
0001
0000
0100
0000
0001
1000
0000
0000
0010
0000
0000
0000
1001
0000
0000
0000
,
1000
0000
0100
0000
1000
0001
0000
0000
0010
0000
0000
0000
1001
0000
0000
0000
,
0001
0100
0020
0000
1030
0010
0200
0000
,
0301
1000
0010
0010
0100
0001
1000
0000
,
2100
0000
3001
0000
1000
0001
0100
0000
,
1001
0000
0001
0100
0010
0010
1000
0010
,
0100
0000
0101
0000
1100
0010
0010
0000
,
0100
1000
0010
0000
1000
1000
0001
0100
,
0102
0000
1003
0000
0010
1000
0001
0010
,
0020
0000
0031
0000
1000
0100
0010
0000
,
1100
0000
1001
0000
0100
0100
0100
0000
,
0001
1000
0010
0100
0100
0001
1000
0000
,
2100
0000
3001
0000
0000
1000
0100
0010
,
0012
0000
1003
0000
0000
0001
0100
0010
,
2010
0000
3001
0000
0000
1000
0010
0100
,
0201
0000
0310
0000
0100
0001
1000
0000
,
0100
1000
0011
0000
0100
0001
1000
0000
,
0010
1000
0101
0000
1000
0001
0100
0000
,
0001
1000
0110
0000
1000
0100
0001
0000
,
0010
0001
1100
0000
0001
0100
1000
0000
,
0001
0100
1000
0100
0010
1000
0200
0000
,
1300
0100
0001
0100
0010
0001
2000
0000
,
3001
0000
0100
0000
0010
0000
1000
0000
0001
1000
0001
0000
0100
0000
0000
0000
,
0001
0000
1000
0000
0100
0000
0010
0000
0001
1000
0001
0000
1000
0000
1000
0000
,
0200
0000
0310
0000
0000
0000
0010
0001
,
0200
0000
0310
0000
0000
0000
0010
1000
,
0200
1300
0001
0100
,
0020
0000
1030
0000
0001
1000
0010
0000
,
1000
0100
1000
0100
0010
0001
0100
0000
,
0001
0100
0001
0100
0010
1000
0100
0000
,
1000
0100
1000
0100
0010
0001
0100
0000
,
0001
0100
0001
0100
0010
1000
0100
0000
,
1000
0000
0001
0000
0100
0000
0000
0010
0000
0000
0010
0000
0000
0000
0000
0000
,
0100
0000
0001
0000
1000
0000
0000
0100
0000
0000
0100
0000
0000
0000
0000
0000
,
1000
0000
0001
0000
0010
0000
0000
0001
0000
0000
1000
0000
0000
0000
0000
0000
,
0001
0000
1000
0000
0010
0000
0000
1000
0000
0000
0001
0000
0000
0000
0000
0000
,
1000
0100
0010
0000
0001
1000
0010
0000
,
0100
0100
0010
1000
0001
0010
0001
0010
,
0100
1000
0010
0100
0010
0100
0001
0001
,
0010
0001
1000
0100
1000
0100
0010
0010
,
0002
0000
0103
0001
0100
0010
1000
0001
,
0020
0000
0031
0010
0100
1000
0010
1000
,
2000
0000
3100
0010
0001
0100
0010
1000
,
0002
0000
0013
0001
1000
0010
0100
0001
,
2000
0000
3100
1000
0010
0010
0100
0010
,
2000
0000
3100
0010
0100
0100
0010
0001
,
0200
0000
0301
0100
0010
0010
0100
0001
,
0020
0000
0031
0010
0100
1000
0001
0000
,
1100
0100
0010
0001
0100
0100
1001
0000
,
0101
0100
0010
1000
0100
0100
1001
0000
,
1010
0010
0100
0001
0010
0010
1001
0000
,
0001
0000
0010
0100
0000
0100
0000
0100
0000
1000
0010
0000
0100
0000
0001
0000
,
1000
0100
1000
0100
0010
0001
0100
0000
,
0001
0100
0001
0100
0010
1000
0100
0000
,
1000
0001
1000
0000
0100
0000
0010
0000
0001
0000
1000
0000
0010
0000
0000
1000
,
0001
1000
0001
0000
0100
0000
0010
0000
1000
0000
0100
0000
0010
0000
0010
0000
,
0002
0000
0013
0000
0001
0010
0100
2000
,
0100
0001
3010
1001
,
1000
0010
0001
0100
0100
1000
0010
0002
,
0000
0000
0100
0000
1003
0100
1001
0000
,
2000
0000
3100
0000
1000
0100
0010
0002
,
0010
1000
0103
1001
,
0001
0100
1000
0010
0010
0001
0100
2000
,
0000
0000
0010
0000
3001
0100
1001
0000
;

//---------------dance-single - ----------------
#NOTEDATA:;
#CHARTNAME:;
#STEPSTYPE:dance-single;
#DESCRIPTION:;
#CHARTSTYLE:;
#DIFFICULTY:Challenge;
#METER:9;
#RADARVALUES:0.560673,0.566748,0.097595,0.104566,0.564657,534.000000,14.000000,15.000000,0.000000,0.000000,0.000000,0.000000,0.000000,0.560673,0.566748,0.097595,0.104566,0.564657,534.000000,14.000000,15.000000,0.000000,0.000000,0.000000,0.000000,0.000000;
#CREDIT:Ben Speirs;
#NOTES:
0000
0000
0000
0000
,
0000
0000
0000
0000
,
0000
0000
0000
0000
,
0000
0000
0000
0000
,
1000
0000
0010
0000
0100
0010
0000
0010
1000
0000
1000
0100
0000
0100
0010
0000
,
0001
0000
0010
0000
0100
0010
0000
0010
0001
0000
0001
0100
0000
0100
0010
0000
,
1000
0000
0001
0000
0100
0001
0000
0001
1000
0000
1000
0100
0000
0100
1000
0000
,
0001
0000
0010
0000
0001
0000
1000
0000
0010
0100
0010
0000
1000
0000
0001
0000
,
0200
0000
0310
0000
0100
0001
1000
0100
,
0100
0010
0001
0000
1000
0100
1000
0001
,
0100
0100
0020
0000
1030
0010
0100
0001
,
1000
1000
0001
0000
0100
0100
0010
0100
,
0001
0010
0200
0000
1300
0100
0010
0002
,
0200
0000
0303
0000
0001
0100
0010
1000
,
0001
0000
0010
0000
0001
0000
0000
0000
1000
0000
0010
0100
0000
0100
0001
0000
,
1000
0000
0100
0000
1000
0000
0000
0000
0001
0000
0010
0100
0000
0100
1000
0000
,
0001
0100
0001
0000
0101
0000
0000
0000
1000
0000
0001
0000
0100
0000
0100
0000
,
0010
1000
0010
0000
1010
0000
0000
0000
0001
0000
1000
0000
0100
0000
0100
0000
,
0010
0001
0010
0000
0011
0000
0000
0000
1000
0000
0001
0000
1000
0000
1000
0000
,
0001
0100
0001
0000
0101
0000
0000
0000
0100
0000
0001
0000
1000
0000
0000
0000
,
0010
1000
0001
0000
1001
0000
0000
0000
0100
0000
0001
0000
1000
0000
1000
0000
,
0100
0010
0001
0000
1100
0000
0000
0000
0001
0000
1000
0000
0010
0000
0010
0000
,
0100
0001
1000
0000
1010
0000
0000
0000
0001
0000
1000
0000
0100
0000
0100
0000
,
0010
0001
0100
0000
0101
0000
0000
0000
1000
0000
0001
0000
0100
0000
0000
0000
,
0001
0000
0100
0010
0100
0010
0000
1000
0000
0100
0010
0000
0001
0000
0000
0000
,
1000
0000
0100
1000
0100
1000
0000
0010
0000
0100
0001
0000
1000
0000
0000
0000
,
0001
0000
0100
0010
0100
0010
0000
1000
0000
0001
0010
0000
0001
0000
0000
0000
,
1000
0000
0100
0010
0000
0010
0000
0010
0000
0001
1000
0000
0010
1000
0001
0000
,
0200
0010
0010
0310
,
0002
0100
0100
0103
,
2000
0100
0100
3100
,
0002
0010
0010
0013
,
0001
0000
1000
0010
0000
0010
0000
0010
0000
1000
0001
0000
0010
0000
0000
0000
,
0001
0000
1000
0100
0000
0100
0000
0100
0000
1000
0001
0000
0100
0000
0000
0000
,
0001
0000
1000
0010
0000
0010
0000
0010
0000
1000
0001
0000
0010
0000
0000
0000
,
0001
0000
1000
0100
0000
0100
0000
0100
0000
1000
0001
0000
0100
0010
0100
0000
,
0001
0100
0001
0100
0000
0010
0000
1000
0000
0100
0010
0000
0001
0000
0000
1000
,
0010
0000
0010
0100
0000
0001
0000
1000
0000
0100
1000
0000
0001
0000
0000
0000
,
1000
0010
1000
0010
0000
0100
0000
0001
0000
0010
0100
0000
1000
0000
0000
0001
,
0100
0000
0100
0010
0000
1000
0000
0001
0000
0010
0001
0000
1000
0000
0000
0000
,
0001
0100
0010
1000
0000
0001
0000
0010
0000
0001
1000
0001
0000
0000
0000
1000
,
0100
0000
0010
0000
0000
0001
0000
1000
0010
0000
0010
0000
0100
0000
0001
1000
,
0001
0100
0001
0100
0000
0010
0000
1000
0000
0100
0010
0000
0001
0010
0001
0000
,
1000
0100
1000
0100
0000
0010
0000
0001
0000
1000
0010
0000
0100
0001
0100
0000
,
0010
1000
0100
0000
0100
0000
0010
0000
0001
0000
1000
0000
0010
0000
0100
0001
,
1000
1000
0100
0010
0001
1000
0010
0100
,
0001
1000
0010
0000
0100
0000
0001
0000
1000
0000
0100
0000
0010
0000
0001
1000
,
0010
0010
0100
0001
1000
0100
1100
0000
,
0001
1000
0010
0000
0010
0000
0100
0000
0001
0000
1000
0000
0100
0000
0010
0001
,
0100
0100
0010
1000
0001
0010
0001
1000
,
0010
0100
0001
0000
1000
0000
0100
0000
0010
0000
0001
0000
1000
0000
0010
0100
,
0001
0100
0001
0000
1000
0000
0100
0000
0010
0000
0001
0000
0011
0000
0000
0000
,
1000
0100
1000
0100
0010
0100
0000
0010
0000
0001
1000
0000
0010
0000
0100
0001
,
1000
0000
1000
0001
0000
0001
0000
0100
0000
0010
1000
0000
1001
0000
0000
0000
,
0001
0010
0001
0010
0100
0010
0000
0100
0000
1000
0001
0000
0100
0000
0010
1000
,
0001
0000
0001
1000
0000
1000
0000
0010
0000
0100
0001
0000
0101
0000
1000
0000
,
0010
1000
0010
0100
0010
1000
0000
0010
0000
1000
0100
0000
0010
0000
0001
0100
,
0010
0000
0010
0100
0000
0100
0000
0001
0000
1000
0100
0000
0010
0000
0001
0000
,
0100
0001
0100
0010
0100
0001
0000
0100
0000
0001
0010
0000
0100
0000
1000
0010
,
0100
0000
0100
0010
0000
0010
0000
1000
0000
0001
0010
0000
0100
0000
1000
0000
,
1002
0000
0103
0010
0100
0001
1000
0200
,
0010
0001
1000
0310
,
0100
1000
0100
1000
0010
0100
0010
0100
0001
1000
0001
1000
0010
0000
0200
0000
,
0001
0000
1000
0000
0310
0100
0001
0000
,
2001
0000
3010
0100
0010
1000
0001
0020
,
0100
1000
0001
0130
,
0010
0001
0010
0001
0100
0010
0100
0010
1000
0001
1000
0001
0100
0000
0020
0000
,
1000
0000
0001
0000
0130
0010
1000
0000
;

//---------------dance-double - ----------------
#NOTEDATA:;
#CHARTNAME:;
#STEPSTYPE:dance-double;
#DESCRIPTION:;
#CHARTSTYLE:;
#DIFFICULTY:Challenge;
#METER:9;
#RADARVALUES:0.568640,0.637591,0.118508,0.139421,0.564657,534.000000,17.000000,20.000000,0.000000,0.000000,0.000000,0.000000,0.000000,0.568640,0.637591,0.118508,0.139421,0.564657,534.000000,17.000000,20.000000,0.000000,0.000000,0.000000,0.000000,0.000000;
#CREDIT:Ben Speirs;
#NOTES:
// measure 0
00000000
00000000
00000000
00000000
,  // measure 1
00000000
00000000
00000000
00000000
,  // measure 2
00000000
00000000
00000000
00000000
,  // measure 3
00000000
00000000
00000000
00000000
,  // measure 4
00000010
00000000
00001000
00000000
00000001
00000100
00000000
00000100
00000010
00000000
00000010
00001000
00000000
00001000
00000100
00000000
,  // measure 5
00010000
00000000
00001000
00000000
00100000
00001000
00000000
00001000
00010000
00000000
00010000
00100000
00000000
00100000
10000000
00000000
,  // measure 6
00010000
00000000
00100000
00000000
00010000
10000000
00000000
10000000
01000000
00000000
01000000
00100000
00000000
00100000
00010000
00000000
,  // measure 7
01000000
00000000
00010000
00000000
00100000
00001000
00100000
00000000
00001000
00010000
00001000
00000000
00010000
00000000
00000100
00000000
,  // measure 8
00000020
00000000
00000031
00000010
00000100
00001000
00000010
00000100
,  // measure 9
00000002
00000000
00000103
00000010
00001000
00000100
00001000
00000100
,  // measure 10
00010000
00001000
00200000
00000000
00310000
00100000
00001000
00010000
,  // measure 11
00002000
00000000
00013000
00000000
00001000
01000000
00010000
10000000
,  // measure 12
02000000
00000000
00000000
00000000
03100000
00000000
00010000
00000000
10000000
00000000
00100000
00000000
01000000
00000000
00010000
10000000
,  // measure 13
00020000
00000000
01030000
00100000
10000000
10000000
01000000
10000000
,  // measure 14
00020000
00000000
00130000
00001000
00100000
00001000
00100000
00010000
,  // measure 15
10000000
00100000
01000000
00000000
00010000
10000000
01000000
00000000
,  // measure 16
10000000
00010000
10000000
00000000
10010000
00000000
00000000
00000000
10000000
00000000
01000000
00000000
00100000
00000000
00010000
00000000
,  // measure 17
01000000
00010000
01000000
00000000
01010000
00000000
00000000
00000000
00010000
00000000
01000000
00000000
00001000
00000000
00100000
00000000
,  // measure 18
00001000
00010000
00001000
00000000
00011000
00000000
00000000
00000000
00010000
00000000
00000100
00000000
00001000
00000000
00000010
00000000
,  // measure 19
00000100
00000010
00000100
00000000
00000110
00000000
00000000
00000000
00000001
00000000
00000100
00000000
00000010
00000000
00000000
00000000
,  // measure 20
00000100
00000001
00001000
00000000
00001100
00000000
00000000
00000000
00001000
00000000
00000010
00000000
00000100
00000000
00000001
00000000
,  // measure 21
00001000
00000100
00010000
00000000
00010100
00000000
00000000
00000000
00000100
00000000
00001000
00000000
00000010
00000000
00000100
00000000
,  // measure 22
00000001
00001000
00000010
00000000
00001010
00000000
00000000
00000000
00001000
00000000
00000100
00000000
00010000
00000000
00001000
00000000
,  // measure 23
00100000
00001000
00010000
00000000
00011000
00000000
00000000
00000000
00001000
00000000
00100000
00000000
00010000
00000000
00000000
00000000
,  // measure 24
00100000
00000000
00010000
10000000
00010000
10000000
00000000
00100000
00000000
01000000
00010000
00000000
10000000
00000000
00000000
00000000
,  // measure 25
00100000
00000000
10000000
01000000
10000000
01000000
00000000
00100000
00000000
00010000
10000000
00000000
00100000
00000000
00000000
00000000
,  // measure 26
01000000
00000000
00010000
01000000
00010000
01000000
00000000
00100000
00000000
10000000
00010000
00000000
00100000
00000000
00000000
00000000
,  // measure 27
00010000
00000000
00100000
00001000
00000000
00010000
00000000
00000100
00000000
00001000
00000010
00000000
00000100
00000000
00000001
00000000
,  // measure 28
00002000
00000000
00000100
00000000
00000000
00000000
00003100
00000010
,  // measure 29
00000002
00000000
00000000
00000000
00000100
00000000
00000000
00000000
00000000
00000000
00000000
00000000
00000100
00000003
00000010
00000000
,  // measure 30
00020000
00000000
00001000
00000000
00000000
00000000
00031000
00010000
,  // measure 31
00000200
00001000
00000000
00001300
,  // measure 32
00000100
00000000
00010000
00001000
00000000
00010000
00000000
00001000
00000000
00010000
00001000
00000000
00011000
00000000
00000000
00000000
,  // measure 33
00100000
00000000
00001000
00010000
00000000
00001000
00000000
00010000
00000000
00001000
00010000
00000000
00011000
00000000
00000000
00000000
,  // measure 34
00000100
00000000
00010000
00001000
00000000
00010000
00000000
00001000
00000000
00010000
00001000
00000000
00011000
00000000
00000000
00000000
,  // measure 35
00100000
00000000
00001000
00010000
00000000
00001000
00000000
00010000
00000000
00001000
00010000
00000000
00001000
00010000
00001000
00000000
,  // measure 36
00010000
00001000
00010000
00000100
00000000
00001000
00000000
00000010
00000000
00000100
00000001
00000000
00001000
00000000
00000000
00000001
,  // measure 37
00000100
00000000
00000100
00000010
00000000
00001000
00000000
00000100
00000000
00000010
00000001
00000000
00001000
00000000
00000000
00000000
,  // measure 38
00000001
00000100
00000001
00000100
00000000
00000010
00000000
00001000
00000000
00000100
00010000
00000000
00001000
00000000
00000000
00100000
,  // measure 39
00001000
00100000
00001000
00010000
00000000
00001000
00000000
00100000
00000000
00010000
10000000
00000000
00100000
00000000
01000000
00000000
,  // measure 40
00010000
10000000
00100000
01000000
00000000
00010000
00000000
10000000
00000000
01000000
00100000
00010000
00000000
00000000
00000000
01000000
,  // measure 41
00010000
00000000
00100000
00000000
00000000
00001000
00000000
00010000
00000100
00000000
00100000
00000000
00000100
00000000
00100000
00000000
,  // measure 42
00000100
00010000
00001000
00010000
00000000
00000100
00000000
00001000
00000000
00000010
00000100
00000000
00000001
00001000
00000001
00000000
,  // measure 43
00000100
00000010
00000100
00000010
00000000
00001000
00000000
00000100
00000000
00010000
00001000
00000000
00010000
00001000
00010000
00000000
,  // measure 44
00000100
00001000
00000010
00000000
00000100
00000000
00000001
00000000
00001000
00000000
00000100
00000000
00000010
00000000
00000001
00001000
,  // measure 45
00000010
00000010
00000100
00000001
00001000
00000100
00000010
00000001
,  // measure 46
00001000
00000100
00010000
00000000
00001000
00000000
00100000
00000000
00010000
00000000
00100000
00000000
00001000
00000000
00010000
00001000
,  // measure 47
00100000
00100000
00010000
10000000
00100000
01000000
01010000
00000000
,  // measure 48
00100000
10000000
01000000
00000000
00100000
00000000
00010000
00000000
10000000
00000000
00100000
00000000
01000000
00000000
00010000
00100000
,  // measure 49
00001000
00000000
00001000
00000000
00100000
00000000
00010000
00000000
10000000
00000000
00100000
00000000
01000000
00000000
00010000
10000000
,  // measure 50
00100000
10000000
00100000
00000000
01000000
00000000
00010000
00000000
10000000
00000000
01000000
00000000
00100000
00000000
00010000
01000000
,  // measure 51
00010000
01000000
00010000
00000000
10000000
00000000
01000000
00000000
00100000
00000000
00010000
00000000
00110000
00000000
00000000
00000000
,  // measure 52
00100000
00010000
00100000
00010000
00100000
00001000
00000000
00010000
00000000
00001000
00010000
00000000
00000100
00000000
00001000
00000000
,  // measure 53
00000010
00001000
00000010
00001000
00000010
00000100
00000000
00000010
00000000
00001000
00000001
00000000
00000010
00000000
00000001
00000000
,  // measure 54
00001000
00000100
00001000
00000100
00010000
00000100
00000000
00010000
00000000
00001000
00100000
00000000
00010000
00000000
10000000
00000000
,  // measure 55
00100000
01000000
00100000
01000000
00000000
00010000
00000000
10000000
00000000
01000000
00100000
00000000
00010000
10000000
00010000
00000000
,  // measure 56
01000000
00100000
01000000
00100000
10000000
00100000
00000000
10000000
00000000
01000000
00100000
00000000
00120000
00000000
00000000
00000000
,  // measure 57
10030000
00100000
10000000
00100000
10000000
00010000
00000000
00100000
00000000
00001000
00100000
00000000
00102000
00000000
00000000
00000000
,  // measure 58
00013000
00001000
00010000
00001000
00010000
00000100
00000000
00001000
00000000
00000010
00000100
00000000
00000210
00000000
00000000
00000000
,  // measure 59
00000301
00000100
00000010
00001000
00000000
00000100
00000000
00000010
00000000
00000001
00001000
00000000
00000001
00000100
00000001
00000000
,  // measure 60
00002000
00000000
00000100
00000000
00000001
00000000
00003010
00001000
,  // measure 61
00000002
00000100
00001000
00000013
,  // measure 62
00000001
00000010
00000100
00001000
00000010
00000100
00001000
00010000
00001000
00010000
00000010
00000100
00000001
00000000
00002000
00000000
,  // measure 63
00000000
00000000
00003100
00010000
00001000
00100000
00010000
10000000
,  // measure 64
00020000
00000000
00100000
00000000
10000000
00000000
01030000
00010000
,  // measure 65
20000000
00100000
00010000
31000000
,  // measure 66
10000000
01000000
00100000
00010000
01000000
00100000
00010000
00001000
00010000
00001000
01000000
00100000
10000000
00000000
00020000
00000000
,  // measure 67
00000000
00000000
00130000
00001000
00010000
00000100
00101000
00000000
;

//---------------dance-single - ----------------
#NOTEDATA:;
#CHARTNAME:;
#STEPSTYPE:dance-single;
#DESCRIPTION:;
#CHARTSTYLE:;
#DIFFICULTY:Medium;
#METER:5;
#RADARVALUES:0.338595,0.377832,0.125479,0.237016,0.000000,288.000000,18.000000,34.000000,0.000000,0.000000,0.000000,0.000000,0.000000,0.338595,0.377832,0.125479,0.237016,0.000000,288.000000,18.000000,34.000000,0.000000,0.000000,0.000000,0.000000,0.000000;
#CREDIT:Ben Speirs;
#NOTES:
0000
0000
0000
0000
,
0000
0000
0000
0000
,
0000
0000
0000
0000
,
0000
0000
0000
0000
,
1000
0000
0001
0000
0100
0100
0010
0000
,
0100
0000
0001
0000
1000
1000
0100
0000
,
0020
0000
0030
0000
0001
1000
0010
0000
,
0200
0000
0300
0000
0001
1000
0010
0000
,
2000
0000
3100
0000
1000
0000
0010
1000
,
0001
0000
0000
0000
0100
0100
0100
0000
,
0002
0000
1003
0000
0001
0000
0100
0010
,
2000
0000
3000
0000
0001
0001
0001
0000
,
2000
3100
1000
1100
,
0002
0000
0003
0000
1000
0010
0100
0000
,
0002
0103
0001
0101
,
0100
0000
0000
0000
0001
1000
0010
0000
,
2000
0000
3100
0000
0000
0000
0100
0010
,
0002
0103
0000
1001
,
2000
0000
3010
0000
1000
0001
1000
0000
,
0002
0000
0013
0000
0001
1000
0010
1000
,
0002
0103
0000
0101
,
2000
3100
0000
1100
,
0001
0000
1000
0000
0010
0010
0100
0100
,
0010
0000
1000
0000
0010
1000
0001
0000
,
0100
0000
0000
0000
0001
1000
0010
0000
,
0100
0000
0000
0000
0001
1000
0100
0000
,
0010
0000
0010
0000
0001
1000
0010
0000
,
0100
0000
0100
0000
0001
1000
0100
0000
,
2200
3300
0010
0010
,
0202
0303
1000
1000
,
0022
0033
0001
0001
,
2200
3300
0001
0001
,
0100
0000
0100
0000
0010
1000
0100
0000
,
0010
0000
0010
0000
0001
1000
0010
0000
,
0100
0000
0100
0000
0001
1000
0100
0000
,
0010
0000
0010
0000
0001
1000
0010
0000
,
1000
0100
1000
0100
1000
0000
0000
0000
,
0001
0100
0001
0100
0001
0000
0000
0000
,
1000
0001
1000
0001
1000
0000
0000
0000
,
0001
0010
0001
0010
0001
0000
0000
0000
,
1000
0010
1000
0000
0001
0000
0010
0000
,
0001
1000
0010
0000
0100
0100
0100
0100
,
0002
0000
0103
0000
0010
0000
1000
1000
,
0100
0000
0010
0000
0001
0000
1000
1000
,
1200
0300
1000
0001
,
0102
0000
0003
0000
0100
0010
0100
0000
,
0001
0001
1000
1000
,
0010
0010
0010
0000
1000
0001
1000
0000
,
0100
0100
0020
0000
0030
0000
0001
0000
,
1000
1000
0020
0000
0030
0000
0100
0000
,
0001
1000
0002
0000
0003
0000
0100
0010
,
1000
1000
0100
0000
1000
0000
0001
0000
,
1001
0000
0100
0000
0001
1000
0100
0000
,
1001
0000
0010
0000
1000
0001
0010
0000
,
0001
0100
0001
0100
0010
1000
0100
0000
,
0000
0000
1100
0000
0001
1000
0010
0000
,
1001
0100
1000
0010
,
0100
0100
0010
1000
0100
0000
1100
0000
,
0001
0010
0010
0000
0001
0000
1000
0000
,
0010
0100
0010
0000
1000
1000
0100
0000
,
2000
3100
0000
0100
,
0002
0103
0000
0100
,
0001
1000
0001
1000
0001
1000
0010
0020
,
0000
0000
0030
0110
,
0002
0103
0000
0100
,
2000
3100
0000
0100
,
1000
0001
1000
0001
1000
0001
0010
0020
,
0000
0000
0030
0000
0001
1000
1001
0000
;

//---------------dance-single - ----------------
#NOTEDATA:;
#CHARTNAME:;
#STEPSTYPE:dance-single;
#DESCRIPTION:;
#CHARTSTYLE:;
#DIFFICULTY:Easy;
#METER:3;
#RADARVALUES:0.185231,0.236145,0.006971,0.174277,0.000000,160.000000,1.000000,25.000000,0.000000,0.000000,0.000000,0.000000,0.000000,0.185231,0.236145,0.006971,0.174277,0.000000,160.000000,1.000000,25.000000,0.000000,0.000000,0.000000,0.000000,0.000000;
#CREDIT:Ben Speirs;
#NOTES:
0000
0000
0000
0000
,
0000
0000
0000
0000
,
0000
0000
0000
0000
,
0000
0000
0000
0000
,
0001
0001
0100
0001
,
1000
0000
0001
0000
,
1000
1000
0100
1000
,
0001
0000
0100
0100
,
0020
0030
1000
0000
,
0001
0000
1000
0100
,
0020
0030
0000
0000
,
0001
0001
1000
1000
,
0020
0030
0100
0001
,
2000
3000
0100
0000
,
0020
0030
0000
0000
,
0001
1000
0001
0000
,
2000
3000
0000
0100
,
0200
0300
0000
0010
,
0020
0030
0000
0001
,
0002
0003
0000
0000
,
0002
0003
0000
0100
,
0200
0300
0000
0010
,
0020
0030
0000
1000
,
2000
3000
0000
0000
,
1001
0000
0100
0000
,
0001
0000
1000
0000
,
0010
0000
1000
0000
,
0100
0100
0010
0010
,
0002
0003
0000
0000
,
2000
3000
0000
0000
,
0020
0030
0000
0000
,
0200
0300
0000
0000
,
0001
0001
0100
0000
,
1000
1000
0100
0000
,
0001
0001
0010
0000
,
1000
1000
0010
0000
,
1000
0100
0010
0000
,
1000
0100
0010
0000
,
0001
0100
0010
0000
,
0001
0100
0010
0000
,
1000
0001
0010
0000
,
1000
0001
0010
0000
,
0001
1000
0100
0000
,
0001
1000
0100
0000
,
0002
0003
0000
0100
,
0020
0030
0000
1000
,
0200
0300
0000
1000
,
2000
3000
0001
0000
,
2000
3000
0000
0010
,
0200
0300
0000
0001
,
0020
0030
0000
0001
,
0002
0003
1000
0000
,
0001
0100
0010
0010
,
1000
0000
0001
0000
,
1000
0010
0100
0100
,
0001
0000
1000
0000
,
0001
0010
0100
1000
,
0001
0000
0001
0000
,
1000
0100
0010
0001
,
1000
0000
1000
0000
,
0010
0010
0100
0000
,
0010
0010
0100
0000
,
0001
0100
0010
1000
,
0001
0000
0000
0000
,
1000
1000
1000
0000
,
0001
0001
0001
0000
,
1000
0100
0010
0001
,
0100
0000
0010
0010
;

//---------------dance-single - ----------------
#NOTEDATA:;
#CHARTNAME:;
#STEPSTYPE:dance-single;
#DESCRIPTION:;
#CHARTSTYLE:;
#DIFFICULTY:Beginner;
#METER:1;
#RADARVALUES:0.096599,0.141687,0.006971,0.000000,0.000000,96.000000,1.000000,0.000000,0.000000,0.000000,0.000000,0.000000,0.000000,0.096599,0.141687,0.006971,0.000000,0.000000,96.000000,1.000000,0.000000,0.000000,0.000000,0.000000,0.000000,0.000000;
#CREDIT:Ben Speirs;
#NOTES:
0000
0000
0000
0000
,
0000
0000
0000
0000
,
0000
0000
0000
0000
,
0000
0000
0000
0000
,
1000
0000
0000
0000
,
0001
0000
0000
0000
,
0100
0000
0000
0000
,
0100
0000
0100
0000
,
0010
0010
0000
0000
,
1000
0000
0000
0000
,
0001
0001
0000
0000
,
1000
0000
0000
0000
,
0100
0100
0000
0000
,
0010
0000
0000
0000
,
0001
0001
0000
0000
,
1000
0000
0000
0000
,
0001
0000
0000
0100
,
0100
0000
0000
0000
,
0010
0000
0000
1000
,
1000
0000
0000
0000
,
1000
0000
0000
0100
,
0100
0000
0000
0000
,
0010
0000
0000
0001
,
0001
0000
0000
0000
,
1000
0000
1000
0000
,
1000
0000
0000
0000
,
0001
0000
0001
0000
,
0001
0000
0000
0000
,
0100
0000
0000
0000
,
0100
0000
0000
0000
,
0010
0000
0000
0000
,
0010
0000
0000
0000
,
1000
0000
0000
0000
,
1000
0000
0000
0000
,
0001
0000
0000
0000
,
0001
0000
0000
0000
,
1000
1000
0000
0000
,
0010
0010
0000
0000
,
1000
1000
0000
0000
,
0001
0001
0000
0000
,
0100
0000
0100
0000
,
0010
0010
0000
0000
,
1000
0000
1000
0000
,
0001
0001
0000
0000
,
1000
0000
0000
0100
,
0100
0000
0000
0000
,
0010
0000
0000
0001
,
0001
0000
0000
0000
,
0001
0000
0000
0100
,
0100
0000
0000
0000
,
0010
0000
0000
1000
,
1000
0000
0000
0000
,
0001
0000
0001
0000
,
0001
0000
0000
0000
,
1000
0000
1000
0000
,
1000
0000
0000
0000
,
0010
0000
0010
0000
,
0010
0000
0000
0000
,
0100
0000
0100
0000
,
0100
0000
0000
0000
,
0001
0000
0000
0000
,
1000
0000
0000
0000
,
0010
0010
0000
0010
,
0010
0000
0000
0000
,
1000
0000
0000
0000
,
0001
0000
0000
0000
,
0100
0100
0000
0100
,
0100
0000
0000
1001
;
