#TITLE:The Middle;
#SUBTITLE:;
#ARTIST:Jimmy Eat World;
#TITLETRANSLIT:;
#SUBTITLETRANSLIT:;
#ARTISTTRANSLIT:;
#GENRE:;
#CREDIT:;
#BANNER:The Middle-bn.png;
#BACKGROUND:The Middle-bg.png;
#LYRICSPATH:;
#CDTITLE:;
#MUSIC:The Middle.mp3;
#OFFSET:-0.080;
#SAMPLESTART:70.400;
#SAMPLELENGTH:14.360;
#SELECTABLE:YES;
#BPMS:0.000=162.040
;
#STOPS:
;
#BGCHANGES:-0.500=The Middle.avi=1.000=1=0=0=StretchNoLoop==CrossFade==,
99999=-nosongbg-=1.000=0=0=0 // don't automatically add -songbackground-
;
#KEYSOUNDS:;
#ATTACKS:;

//---------------dance-single - ----------------
#NOTES:
     dance-single:
     :
     Beginner:
     2:
     0.098,0.098,0.000,0.000,0.000,65.000,0.000,0.000,0.000,0.000,0.000,0.098,0.098,0.000,0.000,0.000,65.000,0.000,0.000,0.000,0.000,0.000: // measure 0
0000
0000
0000
0000
,  // measure 1
0000
0000
0000
0000
,  // measure 2
0000
0000
0000
0000
,  // measure 3
0000
0000
0000
0000
,  // measure 4
0000
0000
0000
0000
,  // measure 5
0000
0000
0000
0000
,  // measure 6
0000
0000
0000
0000
,  // measure 7
0000
0000
0000
0000
,  // measure 8
0010
0000
0000
0000
,  // measure 9
1000
0000
1000
0000
,  // measure 10
1000
0000
0000
0000
,  // measure 11
0001
0000
0000
0000
,  // measure 12
0010
0000
0000
0000
,  // measure 13
0001
0000
0001
0000
,  // measure 14
0001
0000
0000
0000
,  // measure 15
1000
0000
0000
0000
,  // measure 16
0010
0000
0000
0000
,  // measure 17
1000
0000
1000
0000
,  // measure 18
1000
0000
0000
0000
,  // measure 19
0001
0000
0000
0000
,  // measure 20
0010
0000
0000
0000
,  // measure 21
0001
0000
0001
0000
,  // measure 22
0001
0000
0000
0000
,  // measure 23
1000
0000
0000
0000
,  // measure 24
0000
0010
0010
0000
,  // measure 25
0000
0000
0000
0000
,  // measure 26
0000
1000
1000
0000
,  // measure 27
0000
0000
0000
0000
,  // measure 28
0000
0001
0001
0000
,  // measure 29
0000
0000
0000
0000
,  // measure 30
0000
0100
0000
0100
,  // measure 31
0000
0100
0000
0000
,  // measure 32
0010
0000
0000
0000
,  // measure 33
1000
0000
0000
0000
,  // measure 34
0001
0000
0000
0000
,  // measure 35
0010
0000
0010
0000
,  // measure 36
0010
0000
0000
0000
,  // measure 37
0001
0000
0000
0000
,  // measure 38
1000
0000
0000
0000
,  // measure 39
0010
0000
0000
0000
,  // measure 40
0100
0000
0000
0000
,  // measure 41
0010
0000
0010
0000
,  // measure 42
0010
0000
0000
0000
,  // measure 43
1000
0000
0000
0000
,  // measure 44
0001
0000
0000
0000
,  // measure 45
1000
0000
1000
0000
,  // measure 46
1000
0000
0000
0000
,  // measure 47
0100
0000
0000
0000
,  // measure 48
0000
1000
1000
0000
,  // measure 49
0000
0000
0000
0000
,  // measure 50
0000
0010
0010
0000
,  // measure 51
0000
0000
0000
0000
,  // measure 52
0000
0100
0100
0000
,  // measure 53
0000
0000
0000
0000
,  // measure 54
0000
0001
0000
0001
,  // measure 55
0000
0001
0000
0000
,  // measure 56
0000
0010
0010
0000
,  // measure 57
0000
0000
0000
0000
,  // measure 58
0000
0001
0001
0000
,  // measure 59
0000
0000
0000
0000
,  // measure 60
0000
1000
1000
0000
,  // measure 61
0000
0000
0000
0000
,  // measure 62
1000
0000
1000
0000
;

//---------------dance-single - ----------------
#NOTES:
     dance-single:
     :
     Medium:
     9:
     0.404,0.363,0.263,0.000,0.000,244.000,25.000,0.000,0.000,0.000,0.000,0.404,0.363,0.263,0.000,0.000,244.000,25.000,0.000,0.000,0.000,0.000:
0000
0000
0000
0000
,
0000
0000
0000
0000
,
0000
0000
0000
0000
,
0000
0000
0000
0000
,
0000
0000
0000
0000
,
0000
0000
0000
0000
,
0000
0000
0000
0000
,
0000
0000
0000
1001
,
0100
0010
0100
0001
,
1000
0000
0100
1000
0100
0000
1000
0000
,
0001
0100
0010
1000
,
0001
0000
0100
0010
0100
0000
0001
1000
,
0001
1000
0010
0100
,
0010
0000
1000
0000
0001
0000
1000
0100
,
1000
0010
1000
0001
,
0100
0000
0010
0000
0100
0010
0100
0000
,
0001
0100
0010
1000
,
0001
0000
1000
0100
1000
0000
0010
0000
,
1000
0001
0010
0100
,
1000
0000
0010
0100
0010
0000
1000
0001
,
1000
0100
1000
0010
,
0100
0000
0001
0100
0001
0000
0010
0100
,
0010
0001
0010
0100
,
1000
0000
0001
0000
1000
0010
1000
0001
,
0000
1001
0110
0000
,
0001
0000
0100
0000
0010
1000
0010
1000
,
0000
1010
0101
0000
,
1000
0000
0001
0000
0010
0100
0010
0100
,
0000
0011
1100
0000
,
0010
0000
1000
0000
0001
0100
0001
0100
,
0000
1001
0000
0110
,
0000
0000
0011
0000
0000
1000
0100
1000
,
0100
1000
0010
0100
,
0001
0000
1000
0001
1000
0000
0010
1000
,
0010
0100
0010
0100
,
0001
0000
1000
0000
0001
1000
0001
1000
,
0100
1000
0010
0100
,
0010
0000
1000
0000
0001
0000
0010
0001
,
0010
0001
0100
0010
,
0100
0000
0001
0000
1000
0001
1000
0000
,
0100
1000
0010
0100
,
0010
0000
1000
0000
0001
0000
0100
0010
,
0100
0001
0010
0100
,
1000
0000
0001
1000
0001
1000
0001
1000
,
0010
0100
0010
1000
,
0001
0000
1000
0000
0100
0000
0010
0001
,
0010
0001
0100
0010
,
1000
0000
0001
0000
1000
0001
1000
0100
,
0000
1100
0011
0000
,
1000
0000
0001
0000
0100
0001
0100
0001
,
0000
0101
1100
0000
,
1000
0000
0001
0000
0010
0100
0010
0100
,
0000
0011
1100
0000
,
0010
0000
1000
0000
0001
0100
0001
0100
,
0000
0110
0000
1001
,
0000
0000
0110
0000
0000
1000
0100
1000
,
0000
0101
1100
0000
,
0010
0000
1000
0000
0001
1000
0001
1000
,
0000
0110
0011
0000
,
0010
0000
0100
0000
1000
0001
1000
0001
,
0000
0110
0101
0000
,
1000
0000
0001
0000
0100
0010
0100
0010
,
1000
0000
0001
0000
1000
0100
0010
0001
;

//---------------dance-single - ----------------
#NOTES:
     dance-single:
     :
     Hard:
     12:
     0.621,0.561,0.210,0.357,0.042,360.000,20.000,34.000,0.000,0.000,0.000,0.621,0.561,0.210,0.357,0.042,360.000,20.000,34.000,0.000,0.000,0.000:
0000
0000
0000
0000
,
0000
0000
0000
0000
,
0000
0000
0000
0000
,
0000
0000
0000
0000
,
0000
0000
0000
0000
,
0000
0000
0000
0000
,
0000
0000
0000
0000
,
0000
0000
0000
2001
,
3200
0000
1300
0000
0010
1000
0001
0000
,
1000
0010
1000
0001
0200
0000
0320
0000
,
0230
0000
0301
0000
0010
0001
1000
0000
,
0010
1000
0001
1000
0100
0010
0001
0100
,
0200
0320
2030
3001
,
1000
0000
0010
1000
0001
0100
1000
0100
,
0020
0000
0130
0000
0001
0100
0010
0000
,
1000
0000
0001
1000
0001
1000
0100
1000
,
0002
0000
0103
0000
0010
0100
0001
0000
,
0010
0001
1000
0001
2000
0000
3200
0000
,
0320
0000
0031
0000
1000
0001
0100
0000
,
0010
1000
0100
0001
0100
1000
0010
0100
,
0020
0000
0230
0000
0302
0000
0013
0001
,
1000
0000
0010
1000
0100
0001
0100
1000
,
0020
0000
1030
0000
0100
1000
0010
0000
,
0100
0000
0001
0000
0100
0000
0000
0000
0010
0000
1000
0000
0001
0000
1000
0010
,
1000
0000
2001
0000
3010
0000
0001
0100
,
1000
0000
0100
0000
0010
0000
1000
0000
0100
0000
1000
0000
0001
0000
0010
0001
,
0010
0000
1002
0000
0103
0000
0010
0100
,
0001
0000
0100
0000
0010
0000
1000
0000
0001
0000
0010
0000
0100
0000
1000
0100
,
1000
0000
2001
0000
3100
0000
1000
0100
,
1000
0000
0001
0000
0100
0000
0010
0000
0100
0000
0001
0000
1000
0000
0010
0100
,
0010
0000
1001
0000
0010
0100
0110
0000
,
0001
0100
0101
0000
1000
0100
0010
0001
,
0020
0000
0031
0000
0100
0001
1000
0000
,
0001
0100
0001
1000
0020
0000
0230
0000
,
0320
0000
1030
0000
0100
1000
0001
0000
,
0100
0001
1000
0001
0010
0100
1000
0010
,
0020
0230
0302
1003
,
0001
0000
0100
0010
1000
0100
0001
0100
,
1000
0010
0200
0000
0310
1000
0001
0000
,
1000
0100
1000
0001
0100
0010
1000
0000
,
0001
0100
0001
0100
0001
0100
0001
0100
,
0010
0100
0010
0100
0001
0010
0100
1000
,
0010
0100
0010
0100
0010
0100
0010
0100
,
1000
0100
1000
0100
0010
1000
0001
1000
,
0010
0100
0010
0100
0010
0100
0010
0100
,
0001
0100
0001
0100
0001
0010
0100
1000
,
0010
0100
0010
0100
0010
0100
0010
0100
,
0001
0000
0100
0000
0001
0000
0100
0000
0010
0000
1000
0000
0001
0000
0100
0010
,
0100
0000
0102
0000
1003
0000
1000
0001
,
1000
0000
0010
0000
0100
0000
0001
0000
1000
0000
0001
0000
0100
0000
0010
1000
,
0010
0000
0102
0000
0103
0000
0010
0001
,
0010
0000
0100
0000
1000
0000
0010
0000
0100
0000
0001
0000
1000
0000
0010
1000
,
0010
0000
2001
0000
3100
0000
1000
0010
,
0001
0000
0010
0000
1000
0000
0100
0000
1000
0000
0010
0000
0100
0000
0001
0100
,
0001
0000
1100
0000
0010
0100
0110
0000
,
0001
1000
1001
0000
0010
1000
0100
0010
,
0000
0000
1002
0000
0013
0000
1000
0100
,
1000
0010
0100
0001
0010
1000
0010
0001
,
0000
0000
2001
0000
3100
0000
0010
1000
,
0001
1000
0010
0100
0001
0100
0010
1000
,
0000
0000
0210
0000
0301
0000
0100
0010
,
0100
0001
1000
0010
1000
0001
0010
0100
,
0110
0000
0011
0000
1100
1000
0001
0101
;

//---------------dance-single - ----------------
#NOTES:
     dance-single:
     :
     Easy:
     6:
     0.309,0.264,0.305,0.168,0.000,161.000,29.000,16.000,0.000,0.000,0.000,0.309,0.264,0.305,0.168,0.000,161.000,29.000,16.000,0.000,0.000,0.000:
0000
0000
0000
0000
,
0000
0000
0000
0000
,
0000
0000
0000
0000
,
0000
0000
0000
0000
,
0000
0000
0000
0000
,
0000
0000
0000
0000
,
0000
0000
0000
0000
,
0000
0000
0000
0000
,
0020
0000
1030
0000
,
0001
1000
0100
0010
,
0002
0000
0103
0000
,
0001
1000
0100
0010
,
0200
0000
0310
0000
,
0001
0010
0001
1000
,
0200
0000
1300
0000
,
0010
1000
0001
0100
,
0020
0000
0130
0000
,
0001
0100
0010
0100
,
0002
0000
0013
0000
,
0001
0010
0100
0010
,
0020
0000
0031
0000
,
0100
0010
1000
0100
,
2000
0000
3010
0000
,
1000
0010
0100
0001
,
0000
1001
1001
0000
,
0100
0010
1000
0001
,
0000
1001
1001
0000
,
0010
0001
1000
0100
,
0000
1001
1001
0000
,
0010
1000
0001
0100
,
0000
1001
0000
0110
,
0000
1001
0000
0110
,
0002
0000
0103
0000
,
0010
0100
0001
1000
,
2000
0000
3100
0000
,
1000
0010
0100
0010
,
0020
0000
0130
0000
,
0010
0100
0001
1000
,
2000
0000
3100
0000
,
1000
0010
0100
0001
,
0002
0000
0013
0000
,
0001
0010
0100
0010
,
0020
0000
0130
0000
,
0010
0001
0100
0010
,
0020
0000
0130
0000
,
0010
0100
0001
1000
,
2000
0000
3100
0000
,
1000
0001
0100
0010
,
0000
0110
0110
0000
,
1000
0010
0100
0001
,
0000
0110
0110
0000
,
0001
0010
0100
1000
,
0000
0110
0110
0000
,
1000
0100
0010
0001
,
0000
0110
0000
1001
,
0000
0110
0000
1001
,
0000
1100
1100
0000
,
0100
1000
0100
1000
,
0000
0101
0101
0000
,
0001
0100
0001
0100
,
0000
0110
0110
0000
,
0100
0010
0100
0010
,
0110
0000
0000
0000
1001
0000
0000
1001
;
