#VERSION:0.83;
#TITLE:Back 2 U;
#SUBTITLE:;
#ARTIST:TH3 B3AT CONDUCTOR;
#TITLETRANSLIT:;
#SUBTITLETRANSLIT:;
#ARTISTTRANSLIT:;
#GENRE:;
#ORIGIN:;
#CREDIT:;
#BANNER:Back 2 U.png;
#BACKGROUND:Back 2 U-bg.png;
#PREVIEWVID:;
#JACKET:jacket.png;
#CDIMAGE:;
#DISCIMAGE:;
#LYRICSPATH:;
#CDTITLE:;
#MUSIC:Back 2 U.ogg;
#OFFSET:-0.000000;
#SAMPLESTART:38.392990;
#SAMPLELENGTH:14.694003;
#SELECTABLE:YES;
#BPMS:0.000=100.000;
#STOPS:;
#DELAYS:;
#WARPS:;
#TIMESIGNATURES:0.000=4=4;
#TICKCOUNTS:0.000=4;
#COMBOS:0.000=1;
#SPEEDS:0.000=1.000=0.000=0;
#SCROLLS:0.000=1.000;
#FAKES:;
#LABELS:0.000=Song Start;
#BGCHANGES:;
#KEYSOUNDS:;
#ATTACKS:
;

//---------------dance-single - ----------------
#NOTEDATA:;
#CHARTNAME:;
#STEPSTYPE:dance-single;
#DESCRIPTION:;
#CHARTSTYLE:;
#DIFFICULTY:Hard;
#METER:7;
#RADARVALUES:0.440620,0.496345,0.276467,0.129594,0.082076,357.000000,325.000000,32.000000,15.000000,0.000000,0.000000,0.000000,0.000000,0.000000,0.440620,0.496345,0.276467,0.129594,0.082076,357.000000,325.000000,32.000000,15.000000,0.000000,0.000000,0.000000,0.000000,0.000000;
#CREDIT:Ben Speirs;
#NOTES:
0000
0000
0000
0000
,
0000
0000
0000
0000
,
0000
0000
0000
0000
,
0000
0000
0000
0000
,
1000
0000
0100
0000
1000
0000
0020
0000
0000
0000
0100
0030
0100
0000
0000
0000
,
0001
0100
0001
1000
0010
0000
0000
0000
,
1000
0100
1000
0002
0000
0103
0100
0000
,
0000
0000
0001
1000
0100
0010
0001
0000
,
1100
0100
1000
0010
0100
0001
1000
0000
,
0001
0100
0010
0100
0001
1000
1000
0000
,
0010
1000
0100
0010
0001
0100
0101
0000
,
2010
0000
3200
0000
0310
0001
1000
0000
,
0001
0000
1000
0100
1000
0000
0010
0000
0100
0000
0010
0000
1000
0000
0000
0000
,
0001
0000
0010
0100
0010
0000
0001
0000
0100
0000
0001
0000
1000
0000
0000
0000
,
1000
0000
0001
0010
0001
0000
0100
0000
0001
0000
1000
0000
0010
0000
0000
0000
,
0100
0010
1000
0100
0020
0000
0030
0000
,
0001
0010
0100
0010
0001
0100
1000
0100
,
0001
0010
1000
0010
0001
1000
0001
0001
,
1000
0010
0001
0010
1000
0100
0010
0100
,
1000
0100
0001
0100
0010
0001
0100
0100
,
0001
0100
1000
0100
0010
1000
0100
1000
,
0001
0010
1000
0010
0001
0100
0001
1000
,
0001
0001
0001
0100
0010
0010
0010
1000
,
0100
0010
0100
1000
0010
0100
0001
0000
,
2100
0000
0000
3002
0000
0000
0103
0000
,
0001
1000
0001
0100
0010
1000
0001
0000
,
0012
0000
0000
2003
0000
0000
3100
0000
,
1000
0001
0100
0001
1000
0010
0100
0000
,
1010
1000
0100
1100
0100
0010
0001
1000
,
1001
1000
0010
0210
0000
0001
0301
0000
,
0101
0100
0010
1010
1000
0100
0010
0001
,
0100
0001
0100
0001
0100
0001
0100
0001
0000
0000
1000
0001
1000
0000
0000
0000
,
1100
0100
1000
0001
0101
0100
0001
1000
,
1100
0100
1000
0001
0101
0100
0001
1000
,
0010
0010
0110
1000
0010
0010
0110
1000
,
0002
0000
2003
0000
3100
0010
0002
0000
,
0103
0000
0010
0100
0010
0000
1000
0000
0001
0000
0010
0100
0010
0000
0001
0000
,
1000
0000
0100
1000
0100
0000
1000
0000
0010
0000
0100
0001
0100
0000
0010
0000
,
1000
1000
1100
0100
0010
0010
0011
0001
,
0200
0000
0000
0000
0320
0000
0000
0000
1030
0000
0100
1000
0100
0000
1000
0000
,
0001
0100
0101
0100
0010
1000
1010
1000
,
0001
0010
0001
0000
0011
0000
0001
0000
1000
0010
1000
0000
1010
0000
0001
0000
,
0100
0000
0010
1000
0010
0000
0100
0000
0001
0000
1000
0100
1000
0000
0001
0000
,
0010
0001
0100
0010
1000
0001
0100
1001
,
1100
1100
1001
0000
0001
1000
0010
0100
,
0101
0101
1001
0000
0001
1000
0010
0100
,
0001
0010
0001
0000
0100
0000
0001
0000
1000
0010
1000
0000
0001
0000
1000
0000
,
0100
0010
0001
0100
0010
1000
1010
0101
;

//---------------dance-double - ----------------
#NOTEDATA:;
#CHARTNAME:;
#STEPSTYPE:dance-double;
#DESCRIPTION:;
#CHARTSTYLE:;
#DIFFICULTY:Challenge;
#METER:7;
#RADARVALUES:0.420872,0.475664,0.190071,0.172792,0.086396,341.000000,319.000000,22.000000,20.000000,0.000000,0.000000,0.000000,0.000000,0.000000,0.420872,0.475664,0.190071,0.172792,0.086396,341.000000,319.000000,22.000000,20.000000,0.000000,0.000000,0.000000,0.000000,0.000000;
#CREDIT:Ben Speirs;
#NOTES:
00000000
00000000
00000000
00000000
,
00000000
00000000
00000000
00000000
,
00000000
00000000
00000000
00000000
,
00000000
00000000
00000000
00000000
,
00012000
00000000
00000000
00003200
00000000
00000000
00000310
00001000
,
00000100
00001000
00000100
00010000
00001000
00000000
00000000
00000000
,
00021000
00000000
00000000
00230000
00000000
00000000
10300000
01000000
,
00100000
00000000
00010000
00000000
10000000
00010000
01000000
00000000
,
00010000
10000000
01000000
00100000
00010000
01000000
00001000
00000000
,
00010000
00001000
00100000
00001000
00010000
00100000
10000000
00000000
,
01000000
10000000
00010000
01000000
00100000
00010000
00100000
00000000
,
01000000
00010000
00100000
00000000
00010000
00100000
00001000
00000000
,
00101000
00000000
00100000
00000000
00001000
00000000
00010000
00000000
00000100
00000000
00001000
00000000
00000010
00000100
00000010
00000000
,
00001000
00000000
00000100
00000000
00000010
00000000
00000001
00000000
00001000
00000000
00000010
00000000
00000100
00000010
00000100
00000000
,
00000001
00000010
00000100
00001000
00010000
00100000
01000000
10000000
,
00100000
01000000
00100000
01000000
00010000
00000000
00000000
00000000
,
10000000
00100000
10100000
10000000
01000000
00100000
00010000
10000000
,
00010000
01000000
01010000
01000000
00100000
10000000
01000000
00100000
,
00001000
00001000
00001000
00100000
00010000
00010000
00010000
00100000
,
00002000
00000000
00023000
00000000
00030100
00001000
00000010
00000000
,
00001000
00000100
00001100
00000100
00000010
00000001
00001000
00000001
,
00000100
00000010
00000110
00000010
00001000
00000100
00000010
00000001
,
00001000
00001000
00001000
00000100
00010000
00010000
00010000
00001000
,
00200000
00000000
00320000
00000000
01030000
00001000
00010000
00000000
,
00012000
00000000
00000000
00203000
00000000
01000000
01300000
00000000
,
00100000
00010000
10000000
02000000
00000000
10000000
13000000
00000000
,
10000000
00000000
00100000
00000000
00010000
00000000
00002000
00000000
00000000
00000000
00010000
00003000
00010000
00000000
00000000
00000000
,
00021000
00000000
00000000
00030200
00000000
00000000
00000310
00000000
,
00000001
00000000
00000010
00000100
00000010
00000000
00000001
00000000
00000000
00000100
00000010
00000000
00000100
00000000
00000001
00000000
,
00001000
00000000
00000100
00001000
00000100
00000000
00001000
00000000
00000000
00000001
00000100
00000000
00000010
00000000
00001000
00000000
,
00000100
00010000
00001000
00100000
00001000
00010000
00000100
00001000
,
00000010
00000100
00000010
00000100
00000010
00000100
00000010
00000100
00000000
00000000
00000001
00001000
00000001
00000000
00001000
00000000
,
00000100
00000100
00010100
00010000
00001000
00001000
00101000
00100000
,
00010000
00010000
01010000
01000000
00100000
00100000
10100000
10000000
,
00010000
00010000
00010000
10000000
00001000
00001000
00001000
00010000
,
00000200
00000000
00002300
00000000
00003010
00000100
00000002
00000000
,
00000103
00000100
00000110
00000010
00001000
00001000
00001100
00000100
,
00000010
00000010
00000011
00000001
00001000
00001000
00001001
00000100
,
00010000
00010000
00010000
00001000
00100000
00100000
00100000
00010000
,
01000000
00100000
01000000
00100000
10000000
01000000
00100000
00000000
,
00010000
00000000
00100000
01000000
00100000
00000000
00010000
00000000
01000000
00000000
00001000
00010000
00001000
00000000
00100000
00000000
,
00010000
00000000
10000000
01000000
10000000
00000000
00100000
00000000
01000000
00000000
00010000
10000000
00010000
00000000
10000000
00000000
,
01000000
01000000
01000000
00010000
00001000
00001000
00001000
00000100
,
00000002
00000000
00002003
00000000
00003010
00001000
00000200
00000000
,
00000310
00000000
00000001
00000010
00000001
00000000
00000100
00000000
00000010
00000000
00001000
00000100
00001000
00000000
00000001
00000000
,
00000100
00000000
00000010
00001000
00000010
00000000
00001000
00000000
00000100
00000000
00010000
00001000
00010000
00000000
00000100
00000000
,
00001000
00001100
00010100
00000000
00001000
00011000
00101000
00000000
,
00100000
00000000
00010000
00000000
01000000
00000000
00100000
00000000
10000000
00000000
01000000
10000000
00010000
00000000
10010000
00000000
;

//---------------dance-single - ----------------
#NOTEDATA:;
#CHARTNAME:;
#STEPSTYPE:dance-single;
#DESCRIPTION:;
#CHARTSTYLE:;
#DIFFICULTY:Medium;
#METER:4;
#RADARVALUES:0.241909,0.268854,0.077756,0.172792,0.000000,196.000000,187.000000,9.000000,20.000000,0.000000,0.000000,0.000000,0.000000,0.000000,0.241909,0.268854,0.077756,0.172792,0.000000,196.000000,187.000000,9.000000,20.000000,0.000000,0.000000,0.000000,0.000000,0.000000;
#CREDIT:Ben Speirs;
#NOTES:
0000
0000
0000
0000
,
0000
0000
0000
0000
,
0000
0000
0000
0000
,
0000
0000
0000
0000
,
1000
0000
0000
0001
0000
0100
0000
0000
,
0001
0000
0000
1000
0000
0100
0000
0000
,
1000
0000
0000
0010
0000
0010
0000
0000
,
0000
0000
0000
0000
,
1000
0000
0001
0000
0100
0100
0100
0000
,
0001
0000
1000
0000
0010
0010
0010
0000
,
2000
3100
0020
0031
,
2000
0000
0001
3001
,
1001
0000
0001
0100
0001
0000
1000
0000
,
0010
0000
1000
0100
1000
0000
0001
0000
,
1000
0000
1000
0000
0010
0100
0001
0000
,
0010
0100
1000
0001
1000
0000
0000
0000
,
0001
0100
0001
0000
1000
0100
1000
0000
,
0010
0000
0010
0000
1000
0100
0010
0000
,
0001
0010
0001
0000
1000
0010
1000
0000
,
0100
0010
0001
0000
,
1000
1000
0100
0000
1000
0000
0001
0000
,
0001
0001
0100
0000
0001
0000
1000
0000
,
0010
0100
0010
0100
0010
0100
0010
0000
,
0200
0302
1003
0000
,
1001
0000
0000
0200
0000
0000
0300
0000
,
1001
0000
0000
0020
0000
0000
0030
0000
,
1001
0000
0000
0002
0000
0000
0003
0000
,
1001
0000
0000
2000
0000
0000
3000
0000
,
0100
0100
0010
0010
,
1000
0100
1000
0000
0001
0010
0001
0000
,
0100
0010
1000
0001
,
1000
0100
0010
0001
1000
0000
0000
0000
,
0001
1000
0010
0000
0100
0000
1001
0000
,
1000
0001
0010
0000
0100
0000
1001
0000
,
2000
3100
0002
0103
,
0001
1000
0010
0000
,
1000
0010
0100
0000
0001
0000
1001
0000
,
0001
0010
0100
0000
1000
0000
1001
0000
,
0002
0013
0200
1300
,
0010
0100
0001
0000
,
1000
0100
1000
1000
0100
1000
0100
0000
,
2000
0000
3000
0002
0000
0000
0003
0000
,
0001
0100
0001
0100
0100
0001
0100
0000
,
0001
1000
0010
0000
,
1000
0001
1000
0001
0001
1000
0001
0000
,
0200
0000
0300
0020
0000
0000
0030
0000
,
1000
0001
1000
0001
0001
1000
0001
0000
,
2000
0000
3200
0000
0320
0000
0031
1000
;

//---------------dance-single - ----------------
#NOTEDATA:;
#CHARTNAME:;
#STEPSTYPE:dance-single;
#DESCRIPTION:;
#CHARTSTYLE:;
#DIFFICULTY:Easy;
#METER:2;
#RADARVALUES:0.134531,0.165017,0.034558,0.000000,0.000000,109.000000,105.000000,4.000000,0.000000,0.000000,0.000000,0.000000,0.000000,0.000000,0.134531,0.165017,0.034558,0.000000,0.000000,109.000000,105.000000,4.000000,0.000000,0.000000,0.000000,0.000000,0.000000,0.000000;
#CREDIT:Ben Speirs;
#NOTES:
// measure 0
0000
0000
0000
0000
,  // measure 1
0000
0000
0000
0000
,  // measure 2
0000
0000
0000
0000
,  // measure 3
0000
0000
0000
0000
,  // measure 4
1000
0000
0000
1000
0000
0000
0000
0000
,  // measure 5
0001
0000
0000
0001
0000
0000
0000
0000
,  // measure 6
0100
0000
0000
0100
0000
0000
0000
0000
,  // measure 7
0000
0000
0000
0000
,  // measure 8
0010
0000
0010
0010
,  // measure 9
1000
0000
1000
1000
,  // measure 10
0100
0000
0100
0100
,  // measure 11
0010
0000
0000
0000
,  // measure 12
0001
0000
0001
0001
,  // measure 13
0100
0000
0100
0100
,  // measure 14
0010
0000
0010
0000
,  // measure 15
1000
0001
1000
0000
,  // measure 16
1001
0000
0001
0100
,  // measure 17
0001
0000
0100
0000
,  // measure 18
0001
0000
1000
0100
,  // measure 19
1000
0000
0000
0000
,  // measure 20
1001
0000
1000
0010
,  // measure 21
1000
0000
0001
0001
,  // measure 22
1000
0000
0001
0010
,  // measure 23
0001
0000
0100
0000
,  // measure 24
0001
0000
0000
0001
0000
0000
0000
0000
,  // measure 25
1000
0000
0000
1000
0000
0000
0000
0000
,  // measure 26
0010
0000
0000
0010
0000
0000
0000
0000
,  // measure 27
0100
0000
0000
0100
0000
0000
0000
0000
,  // measure 28
0001
0000
0000
0010
0000
0000
0000
0000
,  // measure 29
0100
0000
0000
1000
0000
0000
0000
0000
,  // measure 30
1000
0000
0000
0010
0000
0000
0000
0000
,  // measure 31
0100
0100
0100
0000
,  // measure 32
1001
0000
0001
0010
,  // measure 33
0100
0000
0010
0000
,  // measure 34
0001
0000
1000
0100
,  // measure 35
0010
0000
0000
0000
,  // measure 36
1001
0000
1000
0010
,  // measure 37
0100
0000
0001
0000
,  // measure 38
1000
0000
0001
0010
,  // measure 39
0100
0000
0000
0000
,  // measure 40
0010
0010
0010
0000
,  // measure 41
0100
0100
0100
0000
,  // measure 42
1000
1000
0001
0001
,  // measure 43
0100
0000
0000
0000
,  // measure 44
0001
0000
1000
0001
,  // measure 45
0100
0000
0001
1000
,  // measure 46
0100
0000
0010
0010
,  // measure 47
0010
0000
0001
0100
;

//---------------dance-single - ----------------
#NOTEDATA:;
#CHARTNAME:;
#STEPSTYPE:dance-single;
#DESCRIPTION:;
#CHARTSTYLE:;
#DIFFICULTY:Beginner;
#METER:1;
#RADARVALUES:0.085162,0.123114,0.043198,0.000000,0.000000,69.000000,64.000000,5.000000,0.000000,0.000000,0.000000,0.000000,0.000000,0.000000,0.085162,0.123114,0.043198,0.000000,0.000000,69.000000,64.000000,5.000000,0.000000,0.000000,0.000000,0.000000,0.000000,0.000000;
#CREDIT:Ben Speirs;
#NOTES:
0000
0000
0000
0000
,
0000
0000
0000
0000
,
0000
0000
0000
0000
,
0000
0000
0000
0000
,
0001
0000
0000
0000
,
1000
0000
0000
0000
,
0010
0000
0000
0000
,
0000
0000
0000
0000
,
1000
0000
0000
0000
,
0100
0000
0000
0000
,
0010
0000
0000
0000
,
0001
0000
0000
0000
,
0100
0000
0000
0010
,
0010
0000
0000
0000
,
1000
0000
0000
0001
,
0001
0000
0000
0000
,
1001
0000
0000
0000
,
1000
0000
1000
0000
,
1000
0000
0000
0000
,
0010
0010
0000
0000
,
1001
0000
0000
0000
,
0001
0000
0001
0000
,
0001
0000
0000
0000
,
0100
0100
0000
0000
,
1001
0000
0000
0000
,
0010
0000
0000
0000
,
1000
0000
0000
0000
,
0100
0000
0000
0000
,
0010
0010
0000
0000
,
0001
0001
0000
0000
,
1000
1000
0000
0000
,
0010
0000
0010
0000
,
1001
0000
0000
0000
,
0001
0000
0001
0000
,
0001
0000
0000
0000
,
0100
0100
0000
0000
,
1001
0000
0000
0000
,
1000
0000
1000
0000
,
1000
0000
0000
0000
,
0010
0010
0000
0000
,
0100
0100
0000
0000
,
0001
0001
0000
0000
,
1000
1000
0000
0000
,
0010
0000
0000
0000
,
1000
1000
0000
0000
,
0100
0100
0000
0000
,
0010
0010
0000
0000
,
0001
0000
0001
0000
;
