#VERSION:0.82;
#TITLE:Cool For the Summer;
#SUBTITLE:;
#ARTIST:Demi Lovato;
#TITLETRANSLIT:;
#SUBTITLETRANSLIT:;
#ARTISTTRANSLIT:;
#GENRE:SUMMERSLAM;
#ORIGIN:;
#CREDIT:;
#BANNER:Cool For the Summer.png;
#BACKGROUND:Cool For the Summer-bg.png;
#PREVIEWVID:;
#JACKET:jacket.png;
#CDIMAGE:;
#DISCIMAGE:;
#LYRICSPATH:;
#CDTITLE:;
#MUSIC:Cool For the Summer.ogg;
#OFFSET:-0.008000;
#SAMPLESTART:50.446026;
#SAMPLELENGTH:13.714000;
#SELECTABLE:YES;
#BPMS:0.000=114.000,
128.000=76.000,
130.000=114.000,
155.000=76.000,
157.000=114.000;
#STOPS:;
#DELAYS:;
#WARPS:;
#TIMESIGNATURES:0.000=4=4;
#TICKCOUNTS:0.000=4;
#COMBOS:0.000=1;
#SPEEDS:0.000=1.000=0.000=0;
#SCROLLS:0.000=1.000;
#FAKES:;
#LABELS:0.000=Song Start;
#BGCHANGES:4.000=Cool For The Summer.avi=1.000=0=0=1=====,
99999=-nosongbg-=1.000=0=0=0 // don't automatically add -songbackground-
;
#KEYSOUNDS:;
#ATTACKS:
;

//---------------dance-single - ----------------
#NOTEDATA:;
#CHARTNAME:;
#STEPSTYPE:dance-single;
#DESCRIPTION:;
#CHARTSTYLE:;
#DIFFICULTY:Hard;
#METER:7;
#RADARVALUES:0.389663,0.393807,0.309468,0.151136,0.000000,315.000000,43.000000,21.000000,0.000000,0.000000,0.000000,0.000000,0.000000,0.389663,0.393807,0.309468,0.151136,0.000000,315.000000,43.000000,21.000000,0.000000,0.000000,0.000000,0.000000,0.000000;
#CREDIT:Ben Speirs;
#NOTES:
// measure 0
0000
0000
0000
0000
,  // measure 1
0000
0000
0000
0000
,  // measure 2
0000
0000
0000
0000
,  // measure 3
0000
0000
0000
0110
,  // measure 4
1000
0010
0100
0001
1000
0000
0001
0010
,  // measure 5
0001
0000
1000
0000
0001
0100
0010
0000
,  // measure 6
1000
0100
0010
0001
1000
0010
0100
0000
,  // measure 7
0001
0000
1000
0200
0000
0000
0310
0000
,  // measure 8
0001
0100
0010
1000
0001
0000
1000
0100
,  // measure 9
1000
0000
0001
0000
1000
0010
0100
0000
,  // measure 10
0001
0010
0100
1000
0001
0100
0010
0000
,  // measure 11
1000
0000
0001
0020
0000
0000
0130
0000
,  // measure 12
2100
0000
3001
0000
0100
0100
0010
0000
,  // measure 13
0102
0000
1003
0000
0100
0100
0010
0000
,  // measure 14
0001
0010
0100
1000
0001
1000
0001
0000
,  // measure 15
1000
0010
0100
0001
1000
0001
1000
0000
,  // measure 16
0020
0000
0100
0130
,  // measure 17
0002
0000
1000
1003
,  // measure 18
0020
0000
0100
0130
,  // measure 19
2000
0000
0001
3001
,  // measure 20
0110
0000
0101
0000
0100
0001
1000
0000
,  // measure 21
1100
0000
1010
0000
0010
1000
0001
0000
,  // measure 22
0101
0000
1001
0000
1000
0001
0010
0000
,  // measure 23
0110
0000
0011
0000
1000
0001
0010
0100
,  // measure 24
1000
0000
0011
0000
1000
0001
0010
0001
,  // measure 25
1000
0000
0010
1000
0001
0000
1001
0000
,  // measure 26
0001
0000
1100
0000
0001
1000
0100
1000
,  // measure 27
0001
0000
0100
0001
1000
0000
1001
0000
,  // measure 28
0110
0000
1001
0000
0100
0010
0000
1000
,  // measure 29
0100
1000
0001
0010
0002
0000
1003
0000
,  // measure 30
0010
0000
0100
0000
0001
1000
0100
0000
,  // measure 31
1000
0001
0100
0000
0101
0000
1010
0000
,  // measure 32
0002
0000
0000
0000
1003
0000
0110
0100
,  // measure 33
0001
1000
0010
0000
1000
0100
0001
0000
,  // measure 34
0010
0001
1000
0001
1000
0000
0010
0100
,  // measure 35
0001
0001
0010
0100
1000
0000
0010
0000
,  // measure 36
0100
0002
0000
0000
1003
0000
0110
0010
,  // measure 37
1000
0001
0100
0000
0001
0010
1000
0000
,  // measure 38
0100
1000
0001
1000
0001
0000
0200
0000
,  // measure 39
0000
0000
0310
1000
0001
0000
1000
0100
,  // measure 40
0010
0001
1100
0110
,  // measure 41
0011
0000
1000
0000
0001
0100
0010
1000
,  // measure 42
0001
0100
0101
0110
,  // measure 43
1010
0000
1000
0010
0100
0001
1000
0100
,  // measure 44
0010
0000
0001
1000
0002
0000
0000
0000
,  // measure 45
0100
0103
2000
0000
,  // measure 46
0100
3100
0002
0000
,  // measure 47
0010
0013
2000
0000
,  // measure 48
0010
3010
1001
1010
,  // measure 49
0010
1000
0001
0000
0011
0000
0101
0000
,  // measure 50
0100
0001
1000
0000
1010
0000
1001
0000
,  // measure 51
0001
1000
0100
0000
0110
0000
1100
0000
,  // measure 52
0001
1000
0100
0010
0001
0000
1100
0000
,  // measure 53
0001
1000
0100
1000
0001
0000
0100
0001
,  // measure 54
1000
1001
1000
0011
,  // measure 55
1000
0001
0010
0001
1000
0000
0010
1000
,  // measure 56
0001
1001
0110
1001
,  // measure 57
0010
0100
0000
0001
0010
0001
1000
0100
,  // measure 58
2000
3001
0100
0010
,  // measure 59
1000
0001
0010
0000
0001
1000
0010
0000
,  // measure 60
1010
0101
2000
3001
,  // measure 61
0100
0010
1000
0001
0020
0000
0130
0000
,  // measure 62
0010
0001
1000
0000
0002
0000
0103
0000
,  // measure 63
0010
0100
0001
0010
0200
0000
1300
0000
,  // measure 64
0010
1000
0100
0001
0000
0000
0000
0000
;

//---------------dance-single - ----------------
#NOTEDATA:;
#CHARTNAME:;
#STEPSTYPE:dance-single;
#DESCRIPTION:;
#CHARTSTYLE:;
#DIFFICULTY:Challenge;
#METER:9;
#RADARVALUES:0.573699,0.671137,0.338256,0.151136,0.320264,490.000000,47.000000,21.000000,0.000000,0.000000,0.000000,0.000000,0.000000,0.573699,0.671137,0.338256,0.151136,0.320264,490.000000,47.000000,21.000000,0.000000,0.000000,0.000000,0.000000,0.000000;
#CREDIT:Ben Speirs;
#NOTES:
// measure 0
0000
0000
0000
0000
,  // measure 1
0000
0000
0000
0000
,  // measure 2
0000
0000
0000
0000
,  // measure 3
0000
0000
0000
1001
,  // measure 4
0010
1000
0100
0010
0002
0000
0103
0010
,  // measure 5
2000
0000
3001
1000
0010
0100
0001
0000
,  // measure 6
0010
0100
0010
0001
0100
0010
2000
0000
,  // measure 7
3001
0000
0100
0020
1000
0000
0130
0000
,  // measure 8
0001
0100
0010
1000
0200
0000
0310
0001
,  // measure 9
2000
0000
3010
1000
0001
0010
0100
0000
,  // measure 10
0010
0001
1000
0010
0100
0001
2000
0000
,  // measure 11
3010
0000
0100
0002
0010
0000
1003
0000
,  // measure 12
1100
1000
0001
0100
0010
0010
0100
0001
,  // measure 13
0010
0010
0100
1000
0001
0000
0100
0000
,  // measure 14
0011
0001
1000
0010
0100
0100
0010
1000
,  // measure 15
0100
0100
0010
0001
1000
0000
0010
0000
,  // measure 16
1001
0000
0000
0000
0000
0000
0000
0000
0010
0000
1000
0100
0010
0001
0000
0000
,  // measure 17
1001
0000
0000
0000
0000
0000
0000
0000
0100
0000
0001
0010
0100
1000
0000
0000
,  // measure 18
1001
0000
0000
0000
0000
0000
0000
0000
0010
0000
1000
0100
0010
0001
0000
0000
,  // measure 19
1001
0000
0000
0000
0000
0000
0100
0000
0100
0000
0001
0010
0100
1000
0000
0000
,  // measure 20
0011
0000
0100
0000
1010
0000
0100
0000
0001
0010
0001
1000
0010
1000
0001
0000
,  // measure 21
1100
0000
0010
0000
0101
0000
0010
0000
1000
0100
1000
0001
0100
0001
1000
0000
,  // measure 22
0110
0000
0001
0000
1010
0000
0100
0000
0001
0100
0001
1000
0100
1000
0001
0000
,  // measure 23
0110
0000
1000
0000
0101
0000
0010
0000
1000
0010
1000
0001
0010
0001
1000
0100
,  // measure 24
0010
0000
0001
0000
1000
0010
0100
0000
0001
0000
0010
0100
1000
0000
0001
0100
,  // measure 25
0010
0000
1000
0000
0100
0000
0010
0000
0001
1000
0001
1000
0001
0000
0000
0000
,  // measure 26
0100
0000
0010
0000
1000
0100
0010
0000
0001
0000
1000
0010
0100
0000
0001
0000
,  // measure 27
0010
0100
1000
0000
0001
0000
0100
0000
0010
1000
0010
1000
0002
0000
0000
0000
,  // measure 28
2003
0000
0000
0000
3020
0000
0000
0000
0130
0001
1000
0000
0100
0000
1000
0000
,  // measure 29
0001
0100
0010
0000
1000
0000
0100
0000
0010
0001
0010
0001
1000
0000
0000
0000
,  // measure 30
0010
1000
0001
0100
0001
1000
0100
0000
,  // measure 31
1000
0000
0100
0000
0010
0000
0001
0000
1001
0000
0001
0010
0100
1000
0000
0000
,  // measure 32
0020
0000
0000
0000
0130
0000
1001
1000
,  // measure 33
0100
0010
0001
0000
0011
0001
1000
0000
,  // measure 34
1010
0010
0100
0001
1000
0000
0100
1000
,  // measure 35
0010
0100
0001
0010
0100
1000
0010
0000
,  // measure 36
1000
0002
0100
0000
1003
0000
1001
0001
,  // measure 37
0010
0100
1000
0000
1100
1000
0001
0000
,  // measure 38
0101
0000
0000
0100
0000
0000
0010
0000
0000
1000
0000
0000
0001
0000
0000
0000
0000
0000
0010
0000
0001
0000
0001
0000
,  // measure 39
0100
0000
0010
0000
0010
0000
1000
0000
0000
0001
0000
0000
0100
0000
0000
0000
0000
0000
0010
0000
0000
2000
0000
0000
,  // measure 40
0001
0000
3100
0000
0011
0010
0001
1000
,  // measure 41
0010
0010
0100
0001
1000
1000
0100
0010
,  // measure 42
0001
1000
0010
0000
1100
0100
1000
0001
,  // measure 43
0100
0100
0010
1000
0001
0001
0010
0100
,  // measure 44
1000
0001
0100
0000
0102
0000
0000
0000
,  // measure 45
1003
0000
0010
1000
0100
0010
0000
0000
2100
0000
0000
0000
0000
0000
0000
0000
,  // measure 46
3010
0000
1000
0010
0100
0001
0000
0000
1002
0000
0000
0000
0000
0000
0000
0000
,  // measure 47
0103
0000
0010
0100
0001
1000
0000
0000
2001
0000
0000
0000
0000
0000
0000
0000
,  // measure 48
3100
0000
1000
0010
0100
0001
0000
0000
1100
0000
0010
0000
0101
0000
0010
0000
,  // measure 49
1000
0100
1000
0001
0100
0001
1000
0000
0011
0000
0100
0000
1010
0000
0100
0000
,  // measure 50
0001
0010
0001
1000
0010
1000
0001
0000
0110
0000
1000
0000
0101
0000
0010
0000
,  // measure 51
1000
0010
1000
0001
0010
0001
1000
0000
0110
0000
0001
0000
1010
0000
0100
0000
,  // measure 52
0001
0100
0001
1000
0100
1000
0001
0010
0100
0000
1000
0000
0001
0100
0010
0000
,  // measure 53
1000
0000
0100
0010
0001
0000
1000
0010
0100
0000
0001
0000
0010
0000
0100
0000
,  // measure 54
1000
0001
1000
0001
1000
0000
0000
0000
0010
0000
0100
0000
0001
0010
0100
0000
,  // measure 55
1000
0000
0001
0100
0010
0000
1000
0000
0100
0010
0001
0000
1000
0000
0010
0000
,  // measure 56
0100
0001
0100
0001
2000
0000
0000
0000
3002
0000
0000
0000
0203
0000
0000
0000
,  // measure 57
0310
1000
0001
0000
0010
0000
0001
0000
1000
0010
0100
0000
0001
0000
0010
0000
,  // measure 58
0100
1000
0100
1000
0001
0000
0000
0000
0100
0000
0001
0000
1000
0000
0010
0000
,  // measure 59
1000
0001
0010
0000
0001
0010
0100
1000
,  // measure 60
1001
0000
1000
0100
0010
0001
0000
0000
1100
0000
0100
0000
0110
0000
0010
0000
,  // measure 61
0001
0010
0100
1000
0010
0100
0001
0000
0101
0000
0100
0000
0110
0000
0010
0000
,  // measure 62
1000
0010
0100
0001
0010
0100
1000
0000
1100
0000
0100
0000
0110
0000
0010
0000
,  // measure 63
0001
0010
0100
1000
0010
0100
0001
0000
0101
0000
0100
0000
0110
0000
1010
0000
,  // measure 64
1001
0000
1000
0100
0010
0001
0000
0000
0000
0000
0000
0000
0000
0000
0000
0000
;

//---------------dance-single - ----------------
#NOTEDATA:;
#CHARTNAME:;
#STEPSTYPE:dance-single;
#DESCRIPTION:;
#CHARTSTYLE:;
#DIFFICULTY:Medium;
#METER:5;
#RADARVALUES:0.284793,0.347477,0.172726,0.273484,0.000000,215.000000,24.000000,38.000000,0.000000,0.000000,0.000000,0.000000,0.000000,0.284793,0.347477,0.172726,0.273484,0.000000,215.000000,24.000000,38.000000,0.000000,0.000000,0.000000,0.000000,0.000000;
#CREDIT:Ben Speirs;
#NOTES:
// measure 0
0000
0000
0000
0000
,  // measure 1
0000
0000
0000
0000
,  // measure 2
0000
0000
0000
0000
,  // measure 3
0000
0000
0000
1001
,  // measure 4
0020
1000
0130
0200
,  // measure 5
0301
0000
0002
0000
1003
0100
1000
0000
,  // measure 6
0001
0000
1000
0000
0010
0100
0001
0000
,  // measure 7
1000
0000
0000
0110
0000
0000
0000
0000
,  // measure 8
0200
0001
0310
0020
,  // measure 9
1030
0000
2000
0000
3001
0010
0001
0000
,  // measure 10
1000
0000
0001
0000
0100
0010
1000
0000
,  // measure 11
0001
0000
0000
0110
0000
0000
0100
0000
,  // measure 12
0001
1000
0100
0010
,  // measure 13
0001
1000
0001
1000
0001
0000
0000
0000
,  // measure 14
0100
0001
0010
0100
,  // measure 15
1000
0001
1000
0001
1000
0000
0000
0000
,  // measure 16
0202
0000
0000
0303
,  // measure 17
2000
0000
0000
3000
,  // measure 18
2200
0000
0000
3300
,  // measure 19
0002
0000
0000
0003
,  // measure 20
0100
0110
0010
1000
,  // measure 21
0001
1001
0100
0010
,  // measure 22
0001
1100
0001
1000
,  // measure 23
0010
0000
0101
0000
1000
0001
1000
0000
,  // measure 24
0000
0000
1001
0000
0000
0010
0000
0100
,  // measure 25
0000
0000
0001
0010
0002
0000
1003
0000
,  // measure 26
0000
0000
1100
0000
0000
0010
0000
1000
,  // measure 27
0000
0000
0100
0010
0200
0000
1300
0000
,  // measure 28
0000
0000
0101
0000
0000
1000
0000
0001
,  // measure 29
0000
0000
0100
0010
2000
0000
3100
0000
,  // measure 30
0000
0000
0000
0000
1000
0001
1000
0000
,  // measure 31
0000
0000
0000
0000
0010
0100
0010
0000
,  // measure 32
2000
0000
3001
0200
,  // measure 33
0010
0301
0002
1003
,  // measure 34
2000
0000
3100
0010
0100
0000
1000
0100
,  // measure 35
1000
0001
0100
0001
1000
0000
0000
0000
,  // measure 36
0000
1001
0000
0000
0000
0000
0020
0000
,  // measure 37
0100
1030
2000
3001
,  // measure 38
0002
0000
0013
0100
0010
0000
0002
0000
,  // measure 39
0000
0000
1003
0000
0010
0000
0000
1001
,  // measure 40
0000
0000
0200
0310
,  // measure 41
0020
0000
1030
0000
2000
0000
3100
0010
,  // measure 42
0001
0000
0020
0031
,  // measure 43
0002
0000
0103
0000
0200
0000
0310
1000
,  // measure 44
0001
0000
2200
0000
,  // measure 45
0000
3300
0002
0000
,  // measure 46
0000
0003
0202
0000
,  // measure 47
0000
0303
2000
0000
,  // measure 48
0000
3000
0010
0110
,  // measure 49
0100
0001
1000
1001
,  // measure 50
0010
0100
1000
0011
,  // measure 51
1000
0001
0100
1010
,  // measure 52
0001
1000
0001
0000
0000
0000
1001
0000
,  // measure 53
0000
0100
0000
0010
0000
0000
1000
0100
,  // measure 54
2000
3001
0000
0011
,  // measure 55
0000
0100
0000
0001
0000
0000
0010
0100
,  // measure 56
0020
0031
0000
1010
,  // measure 57
0000
0001
0000
1000
0000
0000
0010
0100
,  // measure 58
0002
0013
0000
0000
,  // measure 59
0001
1000
0001
0000
0000
0000
0000
0000
,  // measure 60
0100
0010
0100
0000
1001
0000
0100
0000
,  // measure 61
0010
0010
1000
0100
,  // measure 62
0010
0001
1000
0000
0010
0000
1000
0000
,  // measure 63
0100
0100
0010
0001
,  // measure 64
1000
0100
0010
0001
0000
0000
0000
0000
;

//---------------dance-single - ----------------
#NOTEDATA:;
#CHARTNAME:;
#STEPSTYPE:dance-single;
#DESCRIPTION:;
#CHARTSTYLE:;
#DIFFICULTY:Easy;
#METER:3;
#RADARVALUES:0.172726,0.184961,0.050379,0.057575,0.000000,153.000000,7.000000,8.000000,0.000000,0.000000,0.000000,0.000000,0.000000,0.172726,0.184961,0.050379,0.057575,0.000000,153.000000,7.000000,8.000000,0.000000,0.000000,0.000000,0.000000,0.000000;
#CREDIT:Ben Speirs;
#NOTES:
0000
0000
0000
0000
,
0000
0000
0000
0000
,
0000
0000
0000
0000
,
0000
0000
0000
0000
,
1000
0001
0100
0100
,
0010
0000
0100
0000
,
0001
0010
0100
1000
,
0001
0000
1000
0000
,
0010
1000
0001
0001
,
0010
0000
0001
0000
,
0100
0001
0010
0100
,
1000
0000
0010
0000
,
1000
0000
0001
0000
,
0100
0010
0100
0000
,
0001
0000
1000
0000
,
0100
0010
0100
0000
,
2000
0000
0000
3000
,
0200
0000
0000
0300
,
0020
0000
0000
0030
,
0002
0000
0000
0003
,
1001
0000
0100
1000
,
0001
0000
0100
0010
,
1000
0000
0100
0010
,
0001
0000
1000
0001
,
0000
0100
0000
0100
,
0010
1000
0001
0010
,
0000
0010
0000
0010
,
0001
1000
0010
0100
,
0001
1000
0000
1000
,
0000
1000
0100
0010
,
0000
0001
1000
0001
,
0000
0000
0100
0100
,
0000
0000
0000
0010
,
0010
1000
1000
0100
,
0000
0010
0000
0001
,
0010
0100
1000
0001
,
0000
1000
0000
0010
,
0010
0100
0100
0001
,
0000
1000
0000
0100
,
0000
0010
0010
0000
,
0001
0000
1000
0000
,
0001
0000
0100
0010
,
0100
0000
0001
0000
,
1000
0000
0100
0010
,
0100
0000
2000
0000
,
0000
3000
0002
0000
,
0000
0003
0200
0000
,
0000
0300
0020
0000
,
0000
0030
1001
0000
,
0100
0001
1000
0000
,
0100
1000
0010
0000
,
1000
0010
0100
0000
,
0001
1000
0001
0100
,
0000
0100
0010
1000
,
0100
0010
0000
0010
,
0000
0010
0001
1000
,
0010
0100
0000
0001
,
0000
0001
0010
0001
,
1000
0100
0000
0000
,
1000
0001
0000
0000
,
0100
0010
1000
0000
,
1001
0000
0010
0000
,
1001
0000
0001
0000
,
1001
0000
0100
0000
,
1001
0110
0000
0000
;

//---------------dance-single - ----------------
#NOTEDATA:;
#CHARTNAME:;
#STEPSTYPE:dance-single;
#DESCRIPTION:;
#CHARTSTYLE:;
#DIFFICULTY:Beginner;
#METER:1;
#RADARVALUES:0.105898,0.161841,0.035985,0.000000,0.000000,98.000000,5.000000,0.000000,0.000000,0.000000,0.000000,0.000000,0.000000,0.105898,0.161841,0.035985,0.000000,0.000000,98.000000,5.000000,0.000000,0.000000,0.000000,0.000000,0.000000,0.000000;
#CREDIT:Ben Speirs;
#NOTES:
0000
0000
0000
0000
,
0000
0000
0000
0000
,
0000
0000
0000
0000
,
0000
0000
0000
0000
,
1000
0000
0001
0000
,
0100
0000
0100
0000
,
0010
0000
0000
0000
,
1000
0000
0000
0000
,
0001
0000
0001
0000
,
1000
0000
0100
0000
,
0100
0000
0000
0000
,
1000
0000
0000
0000
,
0010
0000
0010
0000
,
1000
0000
0000
0000
,
0001
0000
0001
0000
,
0100
0000
0000
0000
,
1001
0000
0000
0000
,
0010
0000
0000
0000
,
1000
0000
0000
0000
,
0001
0000
0000
0000
,
1001
0000
0000
0010
,
0010
0000
0000
1000
,
1000
0000
0000
0001
,
0001
0000
0100
0000
,
0100
0000
0010
0000
,
1000
0000
0001
0000
,
1000
0000
0100
0000
,
0010
0000
0001
0000
,
1000
0000
0010
0000
,
0010
0000
1000
0000
,
0001
0000
0100
0000
,
0100
0000
0001
0000
,
1000
0000
0000
0000
,
0000
0000
0000
0010
,
0000
0000
0000
1000
,
0000
0000
0000
0001
,
0000
0000
0000
0100
,
0000
0000
0000
0001
,
0000
0000
0000
1000
,
0000
0000
0000
0000
,
0000
0000
0010
0000
,
0010
0000
1000
0000
,
1000
0000
0001
0000
,
0001
0000
0100
0100
,
0100
0000
1001
0000
,
0000
0000
0010
0000
,
0000
0000
1000
0000
,
0000
0000
0001
0000
,
0000
0000
0110
0000
,
0000
0001
0001
0000
,
0000
1000
1000
0000
,
0000
0100
0100
0000
,
0010
0000
0010
0000
,
0001
0000
1000
0000
,
1000
0000
0010
0000
,
1000
0000
0100
0000
,
0100
0000
0010
0000
,
0001
0000
1000
0000
,
0001
0000
0100
0000
,
0010
0000
1000
0000
,
0001
0000
1001
0000
,
0000
0100
0100
0000
,
0000
0001
0001
0000
,
0000
1000
1000
0000
,
0000
0010
0000
0000
;

//---------------dance-double - ----------------
#NOTEDATA:;
#CHARTNAME:;
#STEPSTYPE:dance-double;
#DESCRIPTION:;
#CHARTSTYLE:;
#DIFFICULTY:Challenge;
#METER:9;
#RADARVALUES:0.581924,0.626673,0.143939,0.266287,0.374241,509.000000,20.000000,37.000000,0.000000,0.000000,0.000000,0.000000,0.000000,0.581924,0.626673,0.143939,0.266287,0.374241,509.000000,20.000000,37.000000,0.000000,0.000000,0.000000,0.000000,0.000000;
#CREDIT:Ben Speirs;
#NOTES:
00000000
00000000
00000000
00000000
,
00000000
00000000
00000000
00000000
,
00000000
00000000
00000000
00000000
,
00000000
00000000
00000000
00001001
,
00001000
00000100
00000001
00000100
00002000
00000000
00003001
00000010
,
00002000
00000000
00003010
00000001
00000100
00000010
00002000
00000000
,
00003001
00000100
00001000
00010000
01000000
10000000
00010000
01000000
,
00200000
00000000
10300000
01000000
20000000
00000000
30010000
00000000
,
00010000
00100000
10000000
00100000
00020000
00000000
10030000
01000000
,
00020000
00000000
01030000
10000000
00100000
01000000
00020000
00000000
,
10030000
00100000
00010000
00001000
00000010
00000001
00001000
00000010
,
00000200
00000000
00000301
00000010
00000002
00000000
00001003
00000000
,
00000010
00000010
00000100
00000100
00000001
00000001
00001000
00001000
,
00000100
00000010
00000001
00001000
00000100
00010000
00010100
00000000
,
00001000
00001000
00010000
00010000
00100000
00100000
10000000
01000000
,
00100000
00100000
00010000
00010000
10000000
00100000
01000000
00000000
,
20020000
00000000
00000000
00000000
30030000
00000000
00000000
00000000
00010000
00000000
01000000
00010000
01000000
00010000
00000000
00000000
,
20020000
00000000
00000000
00000000
30030000
00000000
00000000
00000000
10000000
00000000
01000000
10000000
01000000
10000000
00000000
00000000
,
00220000
00000000
00000000
00000000
00330000
00000000
00000000
00000000
10000000
00000000
00100000
10000000
00100000
10000000
00000000
00000000
,
02020000
00000000
00000000
00000000
03030000
00000000
00000000
00000000
10000000
00000000
01000000
10000000
01000000
10000000
00000000
00000000
,
01010000
00000000
00100000
00000000
00011000
00000000
00100000
00000000
00001000
00010000
00100000
00010000
00100000
00010000
00001000
00000000
,
00100000
00000000
00010000
00100000
00001000
00000000
00010000
00000000
00011000
00000000
00001000
00010000
00001000
00010000
00000000
00000000
,
00001010
00000000
00000100
00000000
00011000
00000000
00000100
00000000
00010000
00001000
00000100
00001000
00000100
00001000
00010000
00000000
,
00000100
00000000
00001000
00000100
00010000
00000000
00001000
00000000
00010000
00001000
00010000
00001000
00010000
00001000
00010000
00001000
,
00100000
00010000
01000000
00000000
00100000
00000000
10000000
00010000
10000000
00000000
00010000
01000000
00010000
00000000
10000000
01000000
,
10000000
00000000
00010000
00000000
00100000
00000000
01000000
00000000
10000000
00010000
10000000
00010000
10000000
00000000
00000000
00000000
,
00100000
10000000
01000000
00000000
00100000
00000000
00010000
00100000
00010000
00000000
10000000
01000000
10000000
00000000
00010000
00100000
,
00001000
00010000
00001000
00000100
00000001
00001000
00000200
00000000
,
00001300
00000000
00000010
00000000
00000102
00000000
00000000
00000000
00001003
00000100
00001000
00000000
00000001
00000000
00001000
00000100
,
00001000
00000000
00000001
00000100
00000001
00000000
00001000
00000000
00000010
00000100
00000010
00000100
00000010
00000000
00000000
00000000
,
00000100
00000000
00000001
00000000
00000010
00000000
00000100
00000000
00010000
00000100
00010000
00000100
00010000
00000000
00000000
00000000
,
00001000
00000000
00010000
00000000
00100000
00000000
10000000
00000000
00010000
01000000
00010000
01000000
00100000
10000000
00000000
00000000
,
02020000
00000000
00000000
03000000
10030000
00000000
10000000
00010000
,
01000000
01000000
00200000
00000000
10300000
01000000
00200000
00000000
,
00310000
10000000
00100000
01000000
00010000
00000000
10000000
01000000
,
00010000
01000000
10000000
00010000
01000000
00100000
20000000
00000000
,
30010000
00100000
00002000
00000000
00013000
00000000
00001000
00010000
,
00001000
00000100
00000002
00000000
00001003
00000100
00000020
00000000
,
00000031
00000000
00000000
00001000
00000000
00000000
00000010
00000000
00000000
00000100
00000000
00000000
00000001
00000000
00000000
00000000
00000000
00000000
00001000
00000000
00000100
00000000
00000001
00000000
,
00000100
00000000
00001000
00000000
00000010
00000000
00000101
00000000
00000000
00001000
00000000
00000000
00001000
00000000
00000000
00000000
00000000
00000000
00000100
00000000
00000000
00000010
00000000
00000000
,
00000002
00000000
00000000
00000000
00001003
00000000
00000000
00000000
00000010
00000100
00000010
00000000
00001000
00000000
00001000
00000000
,
00000100
00000010
00000100
00000000
00000010
00000000
00000010
00000000
00000001
00000000
00000010
00000000
00000100
00000000
00001000
00000000
,
00000100
00000000
00010000
00000000
00001000
00000000
01000000
00000000
00010000
01000000
00010000
00000000
10000000
00000000
00010000
00000000
,
00100000
01000000
00100000
00000000
00010000
00000000
10000000
00000000
00100000
00000000
00100000
00000000
01000000
00000000
00010000
00000000
,
10000000
01000000
00020000
00000000
00032000
00000000
00000000
00000000
,
00103000
00000000
00010000
00100000
00010000
00100000
00000000
00000000
00002000
00000000
00000000
00000000
00000000
00000000
00000000
00000000
,
00013000
00000000
00000010
00001000
00000010
00001000
00000000
00000000
00020000
00000000
00000000
00000000
00000000
00000000
00000000
00000000
,
00031000
00000000
01000000
00010000
01000000
00010000
00000000
00000000
00002000
00000000
00000000
00000000
00000000
00000000
00010000
00000000
,
00013000
00000000
00000010
00001000
00000010
00001000
00000000
00000000
00001010
00000000
00000100
00000000
00011000
00000000
00000100
00000000
,
00010000
00001000
00000100
00001000
00000100
00001000
00010000
00000000
00000100
00000000
00001000
00000100
00010000
00000000
00001000
00000000
,
00011000
00000000
00010000
00001000
00010000
00001000
00000000
00000000
01010000
00000000
00100000
00000000
00011000
00000000
00100000
00000000
,
00001000
00010000
00100000
00010000
00100000
00010000
00001000
00000000
00100000
00000000
00010000
00100000
00001000
00000000
00010000
00000000
,
00001000
00010000
00001000
00010000
00001000
00010000
00001000
00010000
00000100
00001000
00000010
00000000
00000100
00000000
00000001
00001000
,
00000001
00000000
00001000
00000010
00001000
00000000
00000001
00000010
00000001
00000000
00001000
00000000
00000100
00000000
00000010
00000000
,
00000001
00001000
00000001
00001000
00000001
00000000
00000000
00000000
00000100
00000001
00000010
00000000
00000100
00000000
00001000
00000100
,
00001000
00000000
00000001
00000010
00000001
00000000
00001000
00000100
00010000
00000000
00001000
00000000
00010000
00000000
00100000
00000000
,
10000000
00010000
00200000
00000000
00310000
01000000
20100000
00000000
,
30010000
00100000
00010000
00000000
10000000
00000000
00010000
00100000
00010000
00000000
10000000
00100000
10000000
00000000
00010000
00000000
,
01000000
00100000
01000000
00100000
01000000
00000000
00000000
00000000
00100000
00000000
10000000
00000000
01000000
00000000
00100000
00000000
,
00001000
00100000
00001000
00100000
00001000
00000000
00000000
00000000
00010000
00000000
00001000
00000000
00000100
00000000
00000001
00000000
,
00001000
00000010
00001000
00000010
00000100
00000001
00000000
00000000
00001000
00000000
00000100
00000000
00000001
00000000
00000100
00000000
,
00001000
00000010
00001000
00000010
00000100
00000001
00001000
00000000
00000001
00000000
00000010
00000000
00001000
00000000
00000010
00000000
,
00000001
00000010
00000001
00000010
00000100
00001000
00000000
00000000
00000100
00000000
00010000
00000000
00001000
00000000
00010000
00000000
,
00001000
00010000
00001000
00010000
00100000
10000000
01000000
00000000
00100000
00000000
00010000
00000000
00100000
00000000
01000000
00000000
,
10000000
00010000
10000000
00010000
10000000
00200000
00000000
00000000
00300000
00000000
00000000
00000000
00000000
00000000
00000000
00000000
;
