#VERSION:0.82;
#TITLE:Cheap Thrills;
#SUBTITLE:(feat. Sean Paul);
#ARTIST:Sia;
#TITLETRANSLIT:;
#SUBTITLETRANSLIT:;
#ARTISTTRANSLIT:;
#GENRE:Dance;
#ORIGIN:;
#CREDIT:;
#BANNER:Cheap Thrills (feat. Sean Paul).png;
#BACKGROUND:Cheap Thrills (feat. Sean Paul)-bg.png;
#PREVIEWVID:;
#JACKET:jacket.png;
#CDIMAGE:;
#DISCIMAGE:;
#LYRICSPATH:;
#CDTITLE:cdtitle.png;
#MUSIC:Cheap Thrills (feat. Sean Paul).ogg;
#OFFSET:-0.140000;
#SAMPLESTART:31.133387;
#SAMPLELENGTH:14.339993;
#SELECTABLE:YES;
#BPMS:0.000=90.000;
#STOPS:;
#DELAYS:;
#WARPS:;
#TIMESIGNATURES:0.000=4=4;
#TICKCOUNTS:0.000=4;
#COMBOS:0.000=1;
#SPEEDS:0.000=1.000=0.000=0;
#SCROLLS:0.000=1.000;
#FAKES:;
#LABELS:0.000=Song Start;
#BGCHANGES:4.000=Cheap Thrills (feat.Sean Paul).avi=1.000=0=0=1=====,
99999=-nosongbg-=1.000=0=0=0 // don't automatically add -songbackground-
;
#KEYSOUNDS:;
#ATTACKS:
;

//---------------dance-single - ----------------
#NOTEDATA:;
#CHARTNAME:;
#STEPSTYPE:dance-single;
#DESCRIPTION:;
#CHARTSTYLE:;
#DIFFICULTY:Hard;
#METER:8;
#RADARVALUES:0.438369,0.481837,0.193079,0.248245,0.179288,381.000000,28.000000,36.000000,0.000000,0.000000,0.000000,0.000000,0.000000,0.438369,0.481837,0.193079,0.248245,0.179288,381.000000,28.000000,36.000000,0.000000,0.000000,0.000000,0.000000,0.000000;
#CREDIT:Ben Speirs;
#NOTES:
0000
0000
0000
0000
,
0000
0000
0000
0000
,
0001
0000
0000
0010
0001
0000
0010
0000
0001
0000
0000
1000
0001
0000
1000
0000
,
0010
0000
0000
1000
0010
0000
1000
0000
0001
0000
0000
0100
0001
0000
0100
0000
,
0010
0000
1000
0000
0001
0000
1000
0000
0010
0100
0010
0000
0200
0000
0000
0000
,
0301
0100
0020
0000
1030
0001
0020
0000
,
0031
0000
1000
0000
0100
0000
1000
0001
1000
0000
0010
0000
0200
0000
0000
0000
,
0301
1000
0020
0000
1030
0001
0020
0000
,
0031
0000
0000
0100
0001
0000
0101
0000
1000
0000
0000
0010
1000
0000
1010
0000
,
0001
0000
0001
0000
1000
0000
1000
0000
0200
0000
0000
0000
1300
0000
0001
0010
,
0001
0000
1000
0000
0010
0000
1000
0100
1000
0000
0001
0000
0100
0000
0010
0000
,
2000
0000
3000
0000
,
0010
1000
0000
0010
0100
0000
0001
0000
0010
0001
0000
1000
0010
0000
0100
0000
,
0001
0000
1000
0001
1000
0000
0001
0000
0010
0000
0100
0000
1001
0000
1000
0001
,
0100
0001
0000
0100
0010
0000
1000
0000
0100
1000
0000
0001
0100
0000
0010
0000
,
1000
0000
0001
1000
0001
0000
1000
0000
0100
0000
0010
0000
1001
0000
0000
0000
,
0011
0010
1000
0010
0001
0100
1000
0100
,
0010
0000
1000
0001
1000
0000
0010
0000
0100
0000
0001
0010
0001
0000
1000
0000
,
0100
0100
0010
0010
0001
0100
0010
1000
,
0001
0000
1000
0010
0100
0000
0010
0000
1000
0000
0001
0010
0100
0000
0010
0000
,
0001
0000
0011
0000
1000
0000
1010
0000
0001
0000
1000
0010
1000
0000
0001
0010
,
0100
1000
0001
0100
0020
0000
0130
0001
,
1000
0000
1100
0000
0001
0000
0101
0000
1000
0000
0001
1000
0001
0000
0100
0010
,
1000
0000
0000
0010
0100
0000
0001
0000
0010
0000
0000
0001
1000
0000
0100
0000
,
2000
0010
0001
3010
,
0002
0000
0010
1000
1000
1000
1003
0000
,
0001
1001
1000
1001
,
0001
0100
1000
0000
1000
0010
0001
0000
,
1000
0010
0100
0001
0010
0100
1000
0001
,
0200
0000
0310
0000
,
0100
0010
1000
0001
0010
0100
1000
0001
,
0020
0000
0031
0000
,
0010
0001
0100
0010
1000
0100
0010
0001
,
0200
1000
0001
0310
,
0100
0010
1000
0100
0010
0001
1000
0010
,
0100
0000
0002
2003
,
3010
0100
0100
0010
0100
0000
0001
0000
1000
0100
0000
0100
0010
0000
0001
1000
,
0001
0010
0100
1100
1001
1100
1001
0000
,
0001
0010
0010
0001
0100
0000
0010
0000
1000
0010
0000
0010
0100
0000
0001
0010
,
0001
1000
0001
0101
1001
0101
1001
0000
,
0001
0010
0100
1000
0010
0001
0010
1000
,
0001
0000
0010
0000
1000
0000
0010
0000
0001
0000
0100
0010
1000
0000
0001
0000
,
1000
0100
0110
1000
0001
0100
0110
0001
,
1000
0000
0001
0010
0001
0000
1000
0010
2000
0000
0000
0000
3001
0000
0100
0000
,
0110
1010
0110
0101
0021
0000
0130
1000
,
0001
0010
0000
0010
0100
0000
1000
0000
0001
0100
0000
0100
0010
0000
1000
0000
,
0010
0100
0100
0010
1000
0000
0001
0000
2000
0000
3200
0000
0320
0000
0032
0000
,
0103
0000
0010
1000
0001
0000
0100
0000
0001
0000
0010
0001
1000
0000
0100
0000
,
2000
0000
0010
0001
3200
0000
0302
0000
,
0203
0000
0000
0010
2300
0001
3010
0000
,
0002
0000
0100
1000
0023
0000
2030
0000
,
3020
0000
0000
0100
0032
1000
0103
0000
,
2000
0000
3010
0010
0200
0000
0302
0000
,
2003
0000
3000
0101
0010
1100
0010
0000
;

//---------------dance-single - ----------------
#NOTEDATA:;
#CHARTNAME:;
#STEPSTYPE:dance-single;
#DESCRIPTION:;
#CHARTSTYLE:;
#DIFFICULTY:Medium;
#METER:5;
#RADARVALUES:0.257111,0.296515,0.013791,0.165497,0.013791,235.000000,2.000000,24.000000,0.000000,0.000000,0.000000,0.000000,0.000000,0.257111,0.296515,0.013791,0.165497,0.013791,235.000000,2.000000,24.000000,0.000000,0.000000,0.000000,0.000000,0.000000;
#CREDIT:Ben Speirs;
#NOTES:
0000
0000
0000
0000
,
0000
0000
0000
0000
,
1000
0010
0100
0001
,
1000
0100
1000
0001
,
0010
0001
0010
0000
0001
0010
0001
0000
,
0100
0100
0100
0000
0001
1000
0100
0000
,
1000
0010
1000
0000
0010
1000
0010
0000
,
0100
0100
0100
0000
0010
1000
0001
0000
,
0100
0000
1001
1000
0000
0000
1001
0001
,
0200
0320
2030
3001
,
1000
1000
0010
0000
0100
0100
0001
0000
,
1000
0000
0000
0000
,
0001
0000
0000
1000
0000
0000
0001
0000
0200
0000
0000
0000
0320
0000
0000
0000
,
1030
0001
1000
0010
0010
0010
0010
0000
,
1000
0000
0000
0001
0000
0000
1000
0000
0020
0000
0000
0000
0230
0000
0000
0000
,
0301
1000
0001
0100
0100
0100
0100
0000
,
0001
0000
0100
0000
0100
0010
1000
0000
,
1000
0001
0010
0000
0002
0000
2003
0000
,
3100
0000
1000
0001
0100
0000
0100
0010
,
1000
0000
0010
1000
0002
0000
2003
0000
,
3010
0010
0100
0000
0001
0000
1000
0000
,
0002
0000
0013
0000
,
0001
0001
0010
0000
0001
0000
1000
0100
,
2000
0000
3010
0000
,
1000
0000
0001
0000
,
0100
0000
0100
0010
,
0100
0000
0001
0000
,
1000
0000
0001
0010
,
0100
0100
1000
0001
,
0200
0000
0300
0000
,
0100
0100
0001
1000
,
0020
0000
0030
0000
,
1000
0100
1000
0001
,
0100
0100
0010
0000
,
0100
0100
0100
0000
0001
0000
1000
0000
,
0010
0000
1000
0001
,
1000
0000
0000
0001
0000
0000
1000
0000
0020
0000
0000
0000
0230
0000
0000
0000
,
0301
1000
0001
0010
0010
0010
0010
0000
,
0001
0000
0000
1000
0000
0000
0001
0000
0200
0000
0000
0000
0320
0000
0000
0000
,
1030
0001
1000
0010
0010
0010
0010
0000
,
1000
0010
1000
0010
0100
0000
0100
0000
,
0001
0000
1000
1000
0100
0000
1000
0000
,
0001
0010
0001
0010
0100
0000
0010
0000
,
0001
0000
0100
0100
0001
0000
1000
0000
,
0010
0010
0100
0100
0010
0000
1000
0000
,
0001
0000
0010
0100
1000
0000
0001
0000
,
0100
0100
0010
0010
0100
0000
0001
0000
,
1000
0000
0100
1000
0001
0000
0010
0000
,
0002
0010
0100
0010
,
2000
3003
1000
0001
,
2000
0010
0001
0010
,
0002
3003
0001
1000
,
0001
0000
0100
0100
0100
0000
0010
0000
,
2000
0000
0000
0010
0010
0010
3010
0000
;

//---------------dance-single - ----------------
#NOTEDATA:;
#CHARTNAME:;
#STEPSTYPE:dance-single;
#DESCRIPTION:;
#CHARTSTYLE:;
#DIFFICULTY:Easy;
#METER:3;
#RADARVALUES:0.164512,0.203854,0.034478,0.075853,0.000000,151.000000,5.000000,11.000000,0.000000,0.000000,0.000000,0.000000,0.000000,0.164512,0.203854,0.034478,0.075853,0.000000,151.000000,5.000000,11.000000,0.000000,0.000000,0.000000,0.000000,0.000000;
#CREDIT:Ben Speirs;
#NOTES:
0000
0000
0000
0000
,
0000
0000
0000
0000
,
0100
0000
0001
0000
,
1000
0000
0010
0000
,
1000
1000
0001
0001
,
0100
0000
0100
0000
,
0001
0001
1000
1000
,
0100
0000
0100
0000
,
0000
0000
1000
1000
0000
0000
0001
0001
,
0000
0100
0010
0000
,
1000
1000
0100
0100
,
0010
0000
0000
0000
,
1001
0000
0001
1000
,
0010
0000
0000
0000
0100
0100
0100
0000
,
0100
0000
0001
1000
,
0100
0000
0000
0000
1000
1000
1000
0000
,
1000
0000
0001
0000
,
0100
0001
1000
0010
,
0100
0000
0001
0000
,
1000
0100
0010
0001
,
1000
0000
0001
0000
,
0100
0010
1000
0001
,
0100
0000
0001
0000
,
1000
0001
0010
0000
,
2002
3003
0001
0000
,
1000
0000
0010
0000
,
0100
0000
0001
0000
,
1000
0000
0100
0000
,
1000
0001
0100
0010
,
2000
3000
0001
0000
,
1000
0100
0010
0001
,
0200
0300
0001
0000
,
1000
0001
0100
0100
,
0020
0030
1000
0000
,
1000
0001
0010
0010
,
0001
0000
0000
0000
,
1001
0000
0100
0001
,
0010
0000
0000
0000
0001
0001
0001
0000
,
1001
0000
1000
0100
,
0010
0000
0000
0000
0100
0100
0100
0000
,
0100
1000
0010
0100
,
0001
1000
0001
0000
,
0100
0001
0010
0100
,
1000
0001
1000
0000
,
0001
0100
0010
1000
,
0001
0010
0001
0000
,
1000
0001
0100
0010
,
1000
0100
1000
0000
,
0002
0003
0010
0010
,
0200
0300
1000
0000
,
2000
3000
0010
0010
,
0200
0300
0001
0000
,
2002
0000
0000
0000
,
3003
0000
0000
0000
0100
0100
0100
0000
;

//---------------dance-single - ----------------
#NOTEDATA:;
#CHARTNAME:;
#STEPSTYPE:dance-single;
#DESCRIPTION:;
#CHARTSTYLE:;
#DIFFICULTY:Beginner;
#METER:2;
#RADARVALUES:0.105406,0.129725,0.020687,0.000000,0.000000,104.000000,3.000000,0.000000,0.000000,0.000000,0.000000,0.000000,0.000000,0.105406,0.129725,0.020687,0.000000,0.000000,104.000000,3.000000,0.000000,0.000000,0.000000,0.000000,0.000000,0.000000;
#CREDIT:Ben Speirs;
#NOTES:
0000
0000
0000
0000
,
0000
0000
0000
0000
,
0001
0000
0001
0000
,
0100
0000
0000
0000
,
0010
0010
0000
0000
,
1000
0000
1000
0000
,
0001
0001
0000
0000
,
0010
0000
0010
0000
,
0000
0100
0000
0100
,
0100
0000
1000
0000
,
0000
0010
0000
0010
,
0010
0000
0000
0000
,
1001
0000
0001
0000
,
1000
0000
0010
0010
,
0010
0000
1000
0000
,
0001
0000
0100
0100
,
0100
0000
0000
0000
,
0001
0001
0001
0000
,
0010
0000
0000
0000
,
0100
0100
0100
0000
,
1000
0000
0000
0000
,
0010
0010
0010
0000
,
1000
0000
0000
0000
,
0001
0000
0001
0000
,
0100
0000
0000
0000
,
0010
0000
0010
0000
,
1000
0000
0000
0000
,
0001
0000
0001
0000
,
0100
0100
0100
0100
,
0100
0000
0000
0000
,
0010
0010
0010
0010
,
0010
0000
0000
0000
,
1000
1000
1000
1000
,
1000
0000
0000
0000
,
0001
0001
0001
0001
,
0001
0000
0000
0000
,
1001
0000
0001
0000
,
0100
0000
0010
0010
,
0010
0000
1000
0000
,
0001
0000
0100
0100
,
0100
0000
0000
0000
,
0001
0001
0001
0000
,
1000
0000
0000
0000
,
0001
0001
0001
0000
,
0010
0000
0000
0000
,
0001
0001
0001
0000
,
1000
0000
0000
0000
,
1000
1000
1000
0000
,
0010
0000
0010
0000
,
0100
0000
0000
0000
,
0001
0000
0001
0000
,
1000
0000
0000
0000
,
0001
0000
0000
0000
,
1000
0000
0000
0110
;

//---------------dance-double - ----------------
#NOTEDATA:;
#CHARTNAME:;
#STEPSTYPE:dance-double;
#DESCRIPTION:;
#CHARTSTYLE:;
#DIFFICULTY:Challenge;
#METER:9;
#RADARVALUES:0.598940,0.593030,0.372368,0.165497,0.558551,530.000000,54.000000,24.000000,0.000000,0.000000,0.000000,0.000000,0.000000,0.598940,0.593030,0.372368,0.165497,0.558551,530.000000,54.000000,24.000000,0.000000,0.000000,0.000000,0.000000,0.000000;
#CREDIT:Ben Speirs;
#NOTES:
00000000
00000000
00000000
00000000
,
00000000
00000000
00000000
00000000
,
10000000
00100000
00000000
00100000
01000000
00000000
00010000
00000000
10000000
01000000
00000000
01000000
00100000
00000000
00010000
00000000
,
01000000
00010000
00000000
00010000
00100000
00000000
00001000
00000000
00010000
00000100
00001000
00000000
00000200
00000000
00000000
00000000
,
00001300
00000000
00000010
00000000
00000100
00000000
00000001
00000010
00000100
00001000
00000010
00000000
00000100
00000000
00000001
00000000
,
00001000
00000100
00010000
00000100
00001000
00000000
00000010
00000000
00000100
00000001
00000100
00000010
00001000
00000000
00000100
00000000
,
00010000
00010000
00001000
00001000
00100000
00010000
01000000
00100000
,
10000000
00100000
01000000
00100000
10000000
00000000
00010000
00000000
10000000
01000000
00100000
01000000
10000000
00000000
00010000
00000000
,
00100000
00010000
00000000
00010000
01000000
00001000
00010000
00000000
00000100
00010000
00000000
00010000
00000100
00001000
00000010
00000000
,
00000100
00000000
00000101
00000000
00000110
00000000
00001000
00000000
00000100
00000000
00000010
00000001
00001000
00000000
00000010
00001000
,
00000100
00000000
00001100
00000000
00010100
00000000
00000100
00010000
00001000
00000000
00011000
00000000
00101000
00000000
00001000
00100000
,
00010000
10000000
00000000
00100000
00000000
01000000
00000000
00010000
00000000
00000000
10000000
00000000
00010000
00000000
01000000
00100000
,
10000000
01000000
10000000
01000000
00100000
00000000
00010000
00000000
10000000
00010000
00000000
00010000
10000000
00100000
01000000
00000000
,
00010000
00000000
01000000
00010000
00100000
00000000
00110000
00000000
00110000
00000000
00011000
00000000
00011000
00000000
00001000
00010000
,
00000100
00001000
00000100
00001000
00000010
00000000
00000100
00000000
00000001
00001000
00000000
00001000
00000010
00000100
00000001
00000000
,
00001000
00000000
00000010
00001000
00000100
00000000
00001100
00000000
00001100
00000000
00011000
00000000
00011000
00000000
00001000
00000000
,
00100000
00010000
00100000
00010000
10000000
00100000
10000000
00100000
01000000
00010000
01000000
00010000
10000000
01000000
10000000
01000000
,
00100000
00110000
11000000
00010000
01010000
10100000
10020000
00000000
,
10030000
00100000
10000000
00100000
01000000
00010000
01000000
00010000
00100000
00001000
00100000
00001000
00010000
00000100
00010000
00000100
,
00001000
00000010
00000000
00000010
00000100
00000000
00000010
00000000
00001000
00000100
00000010
00000000
00000002
00000000
00001003
00000000
,
00000010
00001000
00000010
00001000
00000001
00000100
00000001
00000100
00000001
00001000
00000001
00001000
00000100
00010000
00000100
00010000
,
00001000
00011000
00101000
00010000
00110000
10100000
10020000
10030000
,
00100000
10000000
00100000
10000000
01000000
00100000
01000000
00100000
00010000
01000000
00010000
01000000
00001000
00100000
00001000
00100000
,
00010000
01000000
00100000
10000000
00010000
00000000
10000000
01000000
00000000
00100000
00010000
00000000
10000000
00000000
00010000
00000000
,
01000000
00000000
00000000
00010000
10000000
00000000
00100000
00000000
10000000
00000000
00000000
00010000
00100000
00000000
00010000
00000000
,
10000000
01000000
00010000
00001000
00010000
00001000
00000100
00000001
00001000
00000001
00001000
00000010
00000100
00000001
00001000
00000000
,
00000001
00000000
00000000
00001000
00000100
00000000
00001000
00000000
00000001
00000000
00000000
00000001
00000100
00000000
00000001
00000000
,
00001000
00000100
00001000
00000001
00000100
00001000
00010000
00001000
00010000
00001000
00010000
00100000
10000000
00010000
10000000
00000000
,
00100000
00000000
00000000
10000000
01000000
10000000
00010000
01000000
00100000
00000000
10000000
00000000
00010000
00010000
00000000
00000000
,
10000000
01000000
00000000
01000000
00100000
00010000
01000000
00000000
00010000
00100000
00001000
00000000
00010000
00000100
00001000
00000000
,
00000010
00000000
00000000
00000100
00000010
00001000
00000001
00001000
00000100
00000100
00000010
00000010
00000001
00001000
00000000
00000000
,
00000001
00000100
00000010
00001000
00000001
00000000
00001000
00000000
00000100
00000000
00010000
00000000
00000100
00010000
00001000
00000000
,
00102000
00000000
00100000
00000000
00010000
00000000
00010000
00000000
00100000
00000000
00100000
00000000
00013000
00001000
00100000
00000000
,
00010000
10000000
00100000
01000000
00010000
00100000
00001000
00010000
,
00020100
00000100
00001000
00001000
00000100
00000100
00001000
00001000
,
00030100
00001000
00000100
00001000
00000010
00000000
00000100
00000000
00000002
00000000
00000000
00000000
00002003
00000000
00000000
00000000
,
00003001
00000010
00000100
00001000
00000010
00000000
00000100
00000000
00000001
00001000
00000010
00001000
00000100
00000010
00000001
00000000
,
00001001
00000000
00001000
00000100
00010000
00000000
00010100
00000000
00010100
00000000
00101000
00000000
00101000
00000000
00001000
00100000
,
00010000
10000000
00010000
10000000
00100000
00000000
01000000
00000000
00010000
10000000
00010000
10000000
01000000
00100000
00010000
01000000
,
01100000
00000000
01000000
00100000
10000000
00000000
10100000
00000000
11000000
00000000
01010000
00000000
00120000
00000000
00000000
00000000
,
10030000
01000000
00010000
00000000
01000000
00010000
00001000
00000000
00010000
00001000
00000100
00000000
00001000
00000100
00000001
00001000
,
00000010
00000000
00000100
00000000
00000110
00000000
00001001
00000000
00000010
00000000
00000110
00000000
00001002
00000000
00000010
00000003
,
00000001
00000010
00000100
00000000
00000010
00000100
00001000
00000000
00000100
00010000
00001000
00000000
00010000
00001000
00100000
00000000
,
00010000
10000000
00010000
10000000
00100000
00000000
01000000
00100000
01000000
00000000
01100000
00000000
10020000
00000000
01030000
00000000
,
00010000
01000000
00001000
00010000
00001000
00000000
00010000
00000000
00001000
00010000
00000100
00001000
00000100
00000000
00001000
00000010
,
00000100
00000101
00001010
00000100
00001100
00000011
00001002
00000000
,
00001003
00000010
00000100
00000001
00001000
00000000
00001001
00000000
00000001
00000010
00000100
00001000
00000001
00000000
00001001
00000000
,
00001000
00000100
00010000
00001000
00100000
00000000
00001000
01000000
00000000
00010000
10000000
00000000
00200000
00000000
00000000
00000000
,
02300000
00000000
03010000
00100000
00002000
00000000
00003020
00000000
,
00000032
00000000
00000000
00000103
00000010
00001000
00001001
00000000
,
00000002
00000000
00000100
00001000
00002003
00000000
00003200
00000000
,
00020300
00000000
00000000
00000000
00000000
00000000
00001000
00000000
00100000
00000000
00002000
00030000
00200000
00003000
00000000
00000000
,
00320000
00000000
10030000
01000000
11000000
00000000
01010000
00000000
,
00011000
00000000
00000000
00000100
00010000
00001000
00100100
00000000
;

//---------------dance-single - ----------------
#NOTEDATA:;
#CHARTNAME:;
#STEPSTYPE:dance-single;
#DESCRIPTION:;
#CHARTSTYLE:;
#DIFFICULTY:Challenge;
#METER:9;
#RADARVALUES:0.584164,0.611562,0.379263,0.172392,0.582686,513.000000,55.000000,25.000000,0.000000,0.000000,0.000000,0.000000,0.000000,0.584164,0.611562,0.379263,0.172392,0.582686,513.000000,55.000000,25.000000,0.000000,0.000000,0.000000,0.000000,0.000000;
#CREDIT:Ben Speirs;
#NOTES:
// measure 0
0000
0000
0000
0000
,  // measure 1
0000
0000
0000
0000
,  // measure 2
1000
0010
0000
0010
0100
0000
0001
0000
1000
0100
0000
0100
0010
0000
0001
0000
,  // measure 3
0100
0000
0010
0000
0000
0000
0010
0000
1000
0000
0000
0000
0001
0000
0000
0000
1000
0000
0010
0100
0010
0000
0000
0000
0100
0000
0000
0000
0000
0000
0001
0000
,  // measure 4
0100
0000
0001
1000
0001
0000
1000
0100
1000
0100
0010
0000
0001
0000
1000
0010
,  // measure 5
0100
0000
0001
1000
0001
0000
0100
0010
1000
0000
0100
0000
0010
0000
0001
0100
,  // measure 6
0001
1000
0000
1000
0100
0000
1000
0001
0100
0000
0010
0000
0010
0000
0000
1000
,  // measure 7
0010
0000
1000
0001
1000
0000
0001
0100
0010
0000
1000
0000
0001
0000
0010
0001
,  // measure 8
1000
0000
0100
0000
0000
0000
0100
0000
1000
0000
0010
0100
0010
0000
0000
0000
0100
0000
0001
0000
0000
0000
0001
0000
1000
0000
0010
0100
0010
0000
0000
0000
,  // measure 9
1000
0000
0010
1000
0001
0000
0010
0001
2000
0000
0000
0000
3002
0000
0000
0000
,  // measure 10
0103
0010
0100
0000
0110
0000
0000
0000
0001
0100
0001
0000
0101
0000
0000
0000
,  // measure 11
2020
0000
0000
0000
0000
0000
0030
0000
3001
0000
1001
0000
1001
0000
0100
0010
,  // measure 12
1000
0100
1000
0100
0010
0000
0001
0000
0100
0010
0000
0010
1000
0001
0100
0000
,  // measure 13
1001
0000
1000
0100
0010
0000
1100
0000
0110
0000
0011
0000
1001
0000
0001
1000
,  // measure 14
0001
0010
0001
0010
0100
0000
1000
0000
0010
0100
0000
0100
0001
1000
0010
0000
,  // measure 15
1001
0000
0001
0010
0100
0000
0011
0000
0110
0000
1100
0000
1001
0000
1000
0001
,  // measure 16
0100
0010
0100
0010
1000
0010
1000
0010
1000
0001
1000
0001
0010
0001
0010
0001
,  // measure 17
0100
0110
1010
0100
1100
0110
1002
0000
,  // measure 18
0103
0010
0100
0010
1000
0010
1000
0010
1000
0100
1000
0100
0010
0001
0010
0001
,  // measure 19
0100
0010
0000
0010
1000
0000
0001
0000
1000
0100
0010
0000
2001
0000
0000
0000
,  // measure 20
3010
0100
0010
0100
0001
0100
0001
0100
0001
1000
0001
1000
0100
1000
0100
1000
,  // measure 21
0010
0110
0101
0010
0011
0110
2001
0000
,  // measure 22
3010
0100
0010
0100
0001
0100
0001
0100
0001
0010
0001
0010
0100
1000
0100
1000
,  // measure 23
0010
0100
0001
1000
0010
0000
1000
0100
0000
0010
0001
0000
2001
0000
0000
0000
,  // measure 24
3010
0000
0000
0100
0010
0000
1000
0000
0100
0000
0000
0010
0100
0000
1000
0000
,  // measure 25
0001
0010
0001
1000
0010
1000
0100
0010
0001
0001
1000
1000
0010
1000
0001
0000
,  // measure 26
0100
0000
0000
0001
0100
0000
0010
0000
1000
0000
0000
0100
1000
0000
0001
0000
,  // measure 27
0010
0001
1000
0001
1000
0010
0100
0001
0010
0100
1000
0000
0010
0000
0100
0000
,  // measure 28
0001
0000
0000
1000
0100
1000
0001
0100
0010
0000
1000
0000
0001
0001
0000
0000
,  // measure 29
0100
0010
0000
1000
0010
1000
0001
0000
0010
0001
1000
0000
0100
1000
0001
0000
,  // measure 30
0100
0000
0000
0001
1000
0001
1000
0010
0100
0100
0010
0010
1000
0001
0000
0000
,  // measure 31
1000
0100
1000
0001
0100
0000
0010
0000
0010
0000
0100
0000
0001
0100
0010
0000
,  // measure 32
2000
0000
0000
0000
0100
0000
0000
0000
0001
0000
0000
0000
3010
1000
0001
0000
,  // measure 33
1001
1100
0101
0010
0011
1010
1001
0000
,  // measure 34
0002
0010
0100
1003
,  // measure 35
2002
3003
0020
0230
,  // measure 36
0301
0010
0100
1000
0001
0000
1000
0000
0010
0100
0000
0100
0000
0001
1000
0000
,  // measure 37
0010
0000
1000
0001
0100
0000
0101
0000
1100
0000
0011
0000
1001
0000
0100
0010
,  // measure 38
1000
0100
0010
0001
1000
0000
0001
0000
0100
0010
0000
0010
0000
1000
0001
0000
,  // measure 39
0100
0000
0001
1000
0010
0000
1010
0000
0011
0000
1100
0000
0101
0000
1000
0000
,  // measure 40
0010
0100
0001
1000
0010
0100
0001
0000
1000
0100
0010
0001
1000
0010
0100
0000
,  // measure 41
0101
1100
0010
1000
1100
0101
2001
0000
,  // measure 42
3001
0010
0100
1000
0001
0000
0100
0000
0010
1000
0100
0010
0001
0000
1000
0000
,  // measure 43
0010
0100
0000
0001
1000
0000
0010
0000
1000
0001
0100
0000
2001
0000
0000
0000
,  // measure 44
3001
0100
0010
1000
0100
0010
0001
0100
0010
1000
0100
0010
0001
1000
0010
0000
,  // measure 45
1010
1100
0101
0011
1000
0001
0200
0310
,  // measure 46
0100
0001
0010
0100
1000
0001
0100
0010
1000
0100
1000
0010
0100
0001
0010
0100
,  // measure 47
1000
0001
0100
0010
1000
0000
0001
1000
0000
0010
0100
0000
0001
0000
0000
0000
,  // measure 48
2000
0000
0010
0100
3200
0000
0302
0000
,  // measure 49
0023
0000
0000
1000
1000
1000
1030
0000
,  // measure 50
0002
0000
0100
0010
0023
0000
2030
0000
,  // measure 51
3200
0000
0000
0001
0001
0001
0301
0000
,  // measure 52
1000
0000
0010
1000
0001
0000
0010
0000
,  // measure 53
1001
0000
0000
0001
1000
0110
1001
0000
;
