#TITLE:Comin' Back;
#SUBTITLE:;
#ARTIST:Banya;
#TITLETRANSLIT:Comin';
#SUBTITLETRANSLIT:;
#ARTISTTRANSLIT:;
#CREDIT:Arcilius-Angel;
#BANNER:II.jpg;
#BACKGROUND:III.jpg;
#LYRICSPATH:;
#CDTITLE:I.jpg;
#MUSIC:Comin' Back.mp3;
#OFFSET:-0.060;
#SAMPLESTART:7.980;
#SAMPLELENGTH:12.500;
#SELECTABLE:YES;
#BPMS:0.000=158.020;
#STOPS:;
#BGCHANGES:8.125=II.bmp=1.000=0=0=1
,15.125=III.bmp=1.000=0=0=1
,20.750=II.bmp=1.000=0=0=1
,28.125=III.bmp=1.000=0=0=1
,58.625=II.bmp=1.000=0=0=1
,75.625=III.bmp=1.000=0=0=1
,92.125=II.bmp=1.000=0=0=1
,110.250=II.bmp=1.000=0=0=1
,144.125=III.bmp=1.000=0=0=1
,212.125=II.bmp=1.000=0=0=1
,228.625=III.bmp=1.000=0=0=1
,232.125=II.bmp=1.000=0=0=1
,236.500=III.bmp=1.000=0=0=1
,244.625=II.bmp=1.000=0=0=1
,252.125=III.bmp=1.000=0=0=1
;

//---------------dance-single - Light----------------
#NOTES:
     dance-single:
     Light:
     easy:
     5:
     0.363,0.558,0.473,0.098,0.000:
0000
0000
0000
0000
,
0000
0000
0000
0000
,
1001
0000
0000
0000
,
0110
0000
0000
0000
0000
0001
1000
0000
,
1001
0000
0000
0000
,
0000
1000
0001
0000
0000
0100
0010
0000
,
1000
0000
0001
0000
0010
0100
0010
0000
,
1000
0000
1000
0000
0001
0001
0000
0200
,
0000
0000
0010
0310
0000
0000
0000
1000
,
0001
0000
0100
0010
0000
0000
0001
2000
,
0000
0000
0000
3000
0000
0000
0000
1000
,
0002
0000
0000
0003
0000
0000
0000
0100
,
0020
0000
0030
0000
0000
0000
0000
0001
,
1000
0000
0001
1000
0000
0200
0000
0020
,
0300
0000
0000
0000
0000
0030
0000
0000
,
1100
0000
0101
0000
1000
0100
0000
1000
,
0000
0000
0001
0001
0000
0000
0000
0001
,
1000
0000
0100
0010
0000
0100
0000
0200
,
0000
0000
0000
0300
0000
0000
0000
0010
,
0100
0000
0000
0000
0000
0000
0000
1000
,
0001
0000
0000
0000
0000
0000
0000
0001
,
1000
0000
0100
0010
0000
0001
0000
2000
,
0000
0000
0000
0000
0000
3000
0000
0000
,
0001
1000
0001
0000
0100
0010
0100
0000
,
1100
0000
0101
0000
0010
0010
0010
0000
,
1000
0100
0001
0010
,
1000
0000
0100
0000
0001
0010
1000
0000
,
0000
0000
0000
0000
,
1001
1001
1001
1001
,
0110
0110
0110
0110
,
1000
0001
1000
0001
,
0100
0010
0100
0010
,
1000
0001
0100
0000
,
0001
1000
0100
0000
,
1001
0110
1001
0110
,
1001
0110
1001
0110
,
0001
0000
1000
0000
0001
0100
0000
1000
,
0000
0000
0100
1000
0000
0000
0000
0001
,
1000
0000
1000
0001
0000
0000
0100
0010
,
0000
0000
0000
0000
0000
0000
0000
0010
,
0100
0000
0000
0000
0001
0000
1000
0002
,
0000
0003
0000
0000
1000
0000
1000
0000
,
0001
0000
0100
0000
1000
0000
0000
0020
,
0000
0000
0030
0000
,
1000
0001
1000
0001
,
0100
0010
0100
0010
,
1000
0001
1000
0001
,
1000
0000
1000
0000
1000
0000
0000
1000
,
0001
0000
0000
0000
0000
0000
0000
0001
,
1000
0000
0000
0000
0000
0000
0000
0100
,
0010
0000
0000
0000
,
1000
0100
0001
0100
,
0000
0000
0000
0000
,
1001
1001
1001
1001
,
0110
0110
0110
0110
,
1100
1100
1100
1100
,
0101
0101
0101
0101
,
0011
0011
0011
0011
,
1010
1010
1010
1010
,
0000
0001
1000
0000
0000
1000
0001
0000
,
0000
1000
0001
0100
0010
0010
0010
0010
,
0000
0000
0000
0000
,
1000
0000
0001
0000
0100
0010
0100
0000
,
1001
0000
0000
0000
;

//---------------dance-single - Standard----------------
#NOTES:
     dance-single:
     Standard:
     medium:
     6:
     0.526,0.527,0.699,0.069,0.000:
0000
0000
0000
0000
,
0000
0000
0000
0000
,
1100
0000
0101
0000
1000
0100
1000
0000
,
0101
0000
1100
0000
1001
1000
0100
0000
,
0101
0000
1100
0000
0001
0100
0001
0000
,
1100
0001
0100
0000
0000
1000
0100
0000
,
0001
1000
0010
0100
0001
1000
0100
0000
,
1001
0000
0110
0000
0100
0010
0100
0000
,
0110
0000
1001
0000
1000
0001
1000
0000
,
0011
0000
1100
0000
0001
0010
0001
0000
,
1100
0000
0011
0000
0101
0000
0000
0001
,
1100
0000
0000
0000
0000
0000
0000
1000
,
0101
0000
0000
0000
0000
0000
0000
0100
,
0011
0000
0000
0000
0000
0000
0000
0010
,
1010
0000
0000
0000
0000
2002
0000
3003
,
1100
0000
1100
0000
0001
0010
0001
0000
,
0101
0000
0101
0000
1000
0010
1000
0000
,
1001
0000
1001
0000
0010
0100
0010
0000
,
1100
0000
0011
0000
0101
0000
1010
0100
,
0100
0101
1100
0101
,
1000
0100
1000
0000
1001
0000
0110
0000
,
1000
0100
0010
0001
1100
0000
0101
0000
,
0010
1000
1010
1010
,
0001
1000
0001
1000
0010
0100
0010
0100
,
0000
0000
0000
0000
1000
0001
0100
0000
,
0001
0100
0001
0100
0010
1000
0010
1000
,
0001
0001
0001
0001
1000
0100
0002
0000
,
0000
0000
0003
0000
,
1000
0100
1000
0000
0001
0100
0001
0000
,
1000
0100
0010
0001
0100
0010
0100
0000
,
0001
0100
0001
0000
1000
0100
1000
0000
,
0001
0010
0100
1000
1100
0000
0101
1000
,
0100
0000
0001
0001
0000
0000
0000
0001
,
0100
0000
1000
1000
0000
1001
0000
0000
,
1000
0001
0100
0010
1000
0001
0100
0010
,
1000
0001
0100
0010
1000
0001
0100
0010
,
1000
0100
1000
0000
0001
0100
0001
0000
,
1000
0010
1000
0010
0001
0100
0001
0000
,
0001
0100
0001
0000
1000
0100
1000
0000
,
0001
0010
0001
0010
1100
0000
0101
1000
,
1001
0000
0000
0000
0000
0000
0000
0001
,
0110
0000
0000
0000
0000
0000
0000
1000
,
0110
1100
0101
1001
,
0110
0000
1001
0100
0010
0000
0000
0000
,
1001
0000
1100
0000
0001
0100
0000
1001
,
0000
0000
1000
0100
0000
0000
0000
0001
,
0100
0000
1000
0100
0000
0001
0000
0002
,
0000
0000
0000
0003
0000
0000
0000
1000
,
0100
0000
0101
0000
0000
0000
0000
0001
,
0100
0000
1100
0000
0000
0000
0000
0100
,
0010
0110
0000
0000
,
1001
1100
1001
0101
,
1000
0000
0001
0100
0020
0030
0000
0000
,
1000
0100
1000
0100
0001
0100
0001
0100
,
0000
0010
1000
0010
0001
0010
0001
0010
,
0000
0100
0100
1000
1000
0001
0100
0100
,
1001
0000
0100
0010
1000
0100
0001
0100
,
1001
0000
1001
0100
0010
0000
0100
0000
,
0110
0000
0110
0010
0100
0000
0010
0000
,
0000
1000
1000
0000
0000
0001
0001
0000
,
0000
1000
0001
1000
0010
0100
0100
0010
,
0220
0000
0000
0330
,
1000
0100
0001
0010
1000
0100
0001
0000
,
1001
0000
0000
0000
;

//---------------dance-single - Heavy----------------
#NOTES:
     dance-single:
     Heavy:
     hard:
     9:
     0.640,0.682,0.847,0.059,0.034: // measure 1
0000
0000
0000
0000
,  // measure 2
0000
0000
0000
0000
,  // measure 3
1001
0000
1001
0000
0100
0010
0100
0000
,  // measure 4
1001
0000
1001
0000
1001
0100
0010
0000
,  // measure 5
0110
0000
0110
0000
0100
0010
0100
0000
,  // measure 6
0110
0010
0100
0000
0110
0100
0010
0000
,  // measure 7
0001
0100
1000
0010
0001
0100
1000
0000
,  // measure 8
1100
0001
0010
0100
1100
0001
0010
0100
,  // measure 9
1100
0001
0010
0100
1100
0001
0010
0100
,  // measure 10
1100
0000
0101
0110
0000
0000
1100
0101
,  // measure 11
0000
1000
0001
0100
0010
0000
0000
1010
,  // measure 12
0101
0000
0000
0101
1010
0000
0000
1001
,  // measure 13
0110
0000
0000
0110
1001
0000
0000
1100
,  // measure 14
0101
0000
0000
0101
1100
0000
0000
0110
,  // measure 15
0011
0000
0000
0110
1010
0000
0101
0000
,  // measure 16
1000
0100
1000
0100
1000
0010
1000
0010
,  // measure 17
0100
0001
0100
0001
0100
0010
0100
0010
,  // measure 18
1000
0001
1000
0001
0100
0010
1000
0002
,  // measure 19
0000
0003
0000
0000
0000
0000
0000
1001
,  // measure 20
0110
0000
0000
1100
0101
0000
0000
0101
,  // measure 21
1100
0000
0000
0011
1100
0000
0000
0101
,  // measure 22
1010
0000
0000
0110
1100
0000
0000
0110
,  // measure 23
0101
1010
1100
0011
,  // measure 24
1000
0000
0100
0000
1000
0100
1000
0000
0001
0000
0100
0000
0001
0100
0001
0000
,  // measure 25
0000
0000
0000
0000
1000
0100
0001
0000
,  // measure 26
0001
0000
1000
0000
0001
1000
0001
0000
1000
0000
0001
0000
1000
0001
1000
0000
,  // measure 27
1000
0100
1000
0000
0001
0010
0001
0000
0001
0100
0001
0000
2020
0000
0000
0000
,  // measure 28
0000
0000
3030
0000
,  // measure 29
1000
0001
1000
0001
1000
0100
0001
0000
,  // measure 30
0001
1000
0001
1000
0001
0100
1000
0000
,  // measure 31
0010
0100
0010
0100
0010
1000
0100
0000
,  // measure 32
0010
0100
0010
0100
0010
0001
0100
0000
,  // measure 33
0010
1000
0100
0000
0010
0001
0100
0000
,  // measure 34
0010
1000
0100
0001
1000
0001
1000
0000
,  // measure 35
1001
0110
1001
1100
,  // measure 36
1001
0101
1001
1001
,  // measure 37
1000
0001
1000
0001
0100
0010
0100
0010
,  // measure 38
1000
0100
1000
0100
0001
1000
0100
1000
,  // measure 39
0001
0100
0010
0100
0001
0010
0100
0010
,  // measure 40
1000
0001
0100
0001
1000
0000
1000
0001
,  // measure 41
1000
0000
1000
0001
1000
0000
1000
0001
,  // measure 42
1000
0000
1000
0001
0100
0000
0100
0010
,  // measure 43
0100
0000
0010
0100
0010
0000
0010
1000
,  // measure 44
0100
0000
0001
1000
1000
0000
0001
0000
,  // measure 45
1000
0100
1000
0001
1000
0100
1000
0001
,  // measure 46
1000
0001
1000
0010
1000
0001
1000
0100
,  // measure 47
0001
0010
0100
1000
0001
0010
0100
2000
,  // measure 48
0000
3000
0000
0000
0000
0000
0000
0001
,  // measure 49
1000
0000
1000
0001
1000
0000
1000
0001
,  // measure 50
1000
0000
0100
0010
0001
0000
0001
0010
,  // measure 51
0100
0000
1000
0100
0001
0000
0001
0000
,  // measure 52
0101
0011
1100
1010
,  // measure 53
1001
0000
1001
0010
0200
0300
0000
0000
,  // measure 54
1001
0100
0010
0100
1001
0010
0100
0010
,  // measure 55
1100
0001
0010
0100
1100
0001
0100
0001
,  // measure 56
0101
0001
0100
0001
0101
0100
0010
0100
,  // measure 57
0110
1000
1000
0001
0001
0100
0100
0010
,  // measure 58
0000
1000
0100
0001
0100
1000
0100
0001
,  // measure 59
0000
0001
0100
1000
0100
0001
0100
1000
,  // measure 60
0000
1001
0110
0000
0000
0110
1001
0000
,  // measure 61
0000
1000
0001
1000
0100
0100
0010
0100
,  // measure 62
0020
0000
0030
0000
,  // measure 63
1100
0101
0011
1010
1001
0110
1001
0000
,  // measure 64
1001
0000
0000
0000
;
