#VERSION:0.82;
#TITLE:Juicy Wiggle;
#SUBTITLE:;
#ARTIST:Redfoo;
#TITLETRANSLIT:;
#SUBTITLETRANSLIT:;
#ARTISTTRANSLIT:;
#GENRE:Got buns hon?;
#ORIGIN:;
#CREDIT:;
#BANNER:Juicy Wiggle.png;
#BACKGROUND:Juicy Wiggle-bg.png;
#PREVIEWVID:;
#JACKET:jacket.png;
#CDIMAGE:;
#DISCIMAGE:;
#LYRICSPATH:;
#CDTITLE:;
#MUSIC:Juicy Wiggle.ogg;
#OFFSET:-0.003700;
#SAMPLESTART:86.230408;
#SAMPLELENGTH:13.714000;
#SELECTABLE:YES;
#BPMS:0.000=128.000,
83.500=64.000,
85.750=512.000,
88.000=128.000,
182.000=512.000,
184.000=128.000;
#STOPS:85.750=0.195,
118.500=0.469,
182.000=0.234,
214.500=0.469;
#DELAYS:;
#WARPS:;
#TIMESIGNATURES:0.000=4=4;
#TICKCOUNTS:0.000=4;
#COMBOS:0.000=1;
#SPEEDS:0.000=1.000=0.000=0;
#SCROLLS:0.000=1.000;
#FAKES:;
#LABELS:0.000=Song Start;
#BGCHANGES:4.000=Juicy Wiggle.avi=1.000=0=0=1=====,
99999=-nosongbg-=1.000=0=0=0 // don't automatically add -songbackground-
;
#KEYSOUNDS:;
#ATTACKS:
;

//---------------dance-single - ----------------
#NOTEDATA:;
#CHARTNAME:;
#STEPSTYPE:dance-single;
#DESCRIPTION:;
#CHARTSTYLE:;
#DIFFICULTY:Hard;
#METER:9;
#RADARVALUES:0.624246,0.778778,0.118958,0.150680,0.376700,517.000000,15.000000,19.000000,0.000000,0.000000,0.000000,0.000000,0.000000,0.624246,0.778778,0.118958,0.150680,0.376700,517.000000,15.000000,19.000000,0.000000,0.000000,0.000000,0.000000,0.000000;
#CREDIT:Ben Speirs;
#NOTES:
0000
0000
0000
0000
,
0000
0000
0000
0000
,
0000
0000
0000
0000
,
0000
0000
0000
0000
0001
0010
0100
1000
,
0101
0000
1000
1000
0100
1000
0001
0100
,
0000
0100
0100
0010
1000
1000
0100
1000
,
0001
0000
1000
0000
0100
0100
0010
0001
,
0000
1000
0001
0000
1000
0100
0010
0001
,
1010
0000
0001
0001
0010
0001
1000
0010
,
0000
0010
0010
0100
0001
0001
0010
0001
,
1000
0000
0001
0000
0010
0010
0100
1000
,
0000
0000
0001
0000
1000
0000
0000
0000
0001
0000
0100
0010
0100
0000
0001
0000
,
1001
0000
1000
0100
0010
0001
1000
0001
,
0100
0100
0100
0100
0010
0100
0001
0010
,
0001
0000
1000
0100
0001
0000
1000
0100
,
0001
0000
1000
0001
1000
0010
0100
0001
,
2000
0000
3010
0100
0002
0000
0013
0100
,
2000
0000
3002
0000
0103
0100
0010
0000
,
0100
0001
0010
0100
1000
1000
0001
0001
,
0100
0000
0001
0100
1000
0100
0001
0000
,
1000
0001
1000
0001
1000
0001
1000
0001
1000
0001
1000
0001
1000
0001
0010
0010
,
0100
0100
1000
0001
1000
0001
0000
0200
0300
0000
0000
0000
0000
0000
0000
0000
,
1001
0000
1000
0000
0010
0000
0010
0000
0100
0000
0001
1000
0001
0000
0100
0000
,
0010
0000
0010
0000
1000
0000
0001
0000
0100
0000
0001
0000
1000
0100
1000
0100
,
0010
0000
0010
0000
0001
0000
1000
0000
0010
0000
1000
0100
1000
0000
0010
0000
,
0010
0000
0100
0000
0001
0100
0001
0000
1000
0100
1000
0000
0001
0010
0100
1000
,
0001
0000
0001
0000
1000
0000
1000
0000
0010
0000
0100
0001
0100
0000
0010
0000
,
0010
1000
0010
0100
0001
1000
0200
0310
,
0200
0000
0301
0000
0200
0000
1300
0001
1000
0000
0010
0100
0001
0000
0100
0000
,
1000
0000
0001
0000
0010
1000
0010
0000
1010
0000
1002
0000
0103
0000
0010
0000
,
1000
0100
1000
0000
0010
0000
1000
0000
0100
0000
0010
0000
0001
0000
1000
0000
,
0010
0100
0010
0000
1000
0000
0100
0000
0010
0001
0010
0001
1000
0000
1000
0000
,
0001
0000
0001
0000
0100
0000
0001
1000
0001
0000
1000
0000
0100
0000
0010
0000
,
0001
0100
0001
0000
1000
0100
1000
0000
0001
0010
0100
1000
0010
0000
0010
0000
,
0100
0000
0001
0000
1000
0000
0010
0100
0010
0000
1000
0000
0100
0000
0010
0000
,
0001
0000
1000
0000
0010
0000
1000
0000
0001
0100
0002
0000
1000
0000
1003
0000
,
1000
0100
2000
0000
0001
0000
3001
0000
1000
0000
0010
0100
0010
0000
1000
0000
,
0002
0000
1003
0000
1100
0100
1000
0100
,
1000
0100
1000
0100
1001
0001
1000
0001
,
1000
0001
1000
0001
0011
0010
0001
0010
,
0001
0010
0001
0010
1001
1000
0001
1000
,
0001
0000
1000
0000
0001
0000
1000
0000
0010
0100
0010
0100
0010
0100
0010
0000
,
0100
0001
0100
0001
0100
0001
0100
0000
0010
1000
0010
1000
0010
1000
0010
0000
,
1000
0100
1000
0100
1000
0100
1000
0000
0001
0010
0001
0010
0100
1000
0100
1000
,
0001
0100
0001
0100
0010
1000
0010
1000
0002
0000
0000
0000
2003
0000
0000
0000
,
0010
0010
3010
0000
0101
0000
0000
0000
,
1100
0000
1000
0000
0001
0000
0100
0000
0001
0000
1000
0100
1000
0000
0010
0000
,
0100
0000
0000
0000
0000
0000
0001
0000
0000
0000
0000
0000
1000
0000
0100
0000
0010
0000
0001
0000
0000
0000
0000
0000
1000
0000
0000
0000
0000
0000
0010
0000
0000
0000
0000
0000
0100
0000
0000
0001
0000
0000
0100
0000
0000
0001
0000
0000
,
1000
0000
0100
0000
0100
0000
0010
0000
0010
0000
0001
1000
0001
0000
0100
0000
,
0010
0000
0010
0000
1000
0100
0010
0001
0010
0100
1000
0010
0100
0001
0100
0001
,
1000
0000
0010
0000
0100
0000
0001
0000
1000
0000
0001
0100
0001
0000
1000
0100
,
0000
0100
0010
0000
0001
0000
1000
0010
0000
0010
0100
0000
0020
0000
0130
0000
,
0020
0000
1030
0000
0020
0000
1030
0001
1000
0000
0010
0100
0001
0000
0100
0000
,
1000
0000
0001
0000
0010
1000
0010
0000
1010
0000
1001
0000
0110
0000
0100
0000
,
0100
0001
0100
0000
0100
0000
0100
0000
0010
0000
0010
1000
0000
1000
0100
0000
,
0000
1000
0001
0000
1000
0000
0100
0000
0010
0001
0010
0001
0100
0000
0010
0000
,
1000
0000
0001
0000
0100
0000
0010
1000
0010
0000
0100
0000
0100
0000
0001
0000
,
1000
0100
1000
0000
0001
0100
0001
0000
1000
0010
1000
0010
0100
0000
0100
0000
,
0010
0000
1000
0000
0100
0000
0100
0000
0010
0001
0010
0001
0100
0000
0100
0000
,
0010
0000
1000
0000
0001
0000
0001
0000
0100
0010
0100
0000
0001
0100
0001
0000
,
1000
0100
1000
0000
0001
0100
0001
0000
1000
0000
0100
0000
0010
0000
0001
0000
,
2000
0020
0000
3030
0000
0000
0000
0000
;

//---------------dance-single - ----------------
#NOTEDATA:;
#CHARTNAME:;
#STEPSTYPE:dance-single;
#DESCRIPTION:;
#CHARTSTYLE:;
#DIFFICULTY:Medium;
#METER:6;
#RADARVALUES:0.415786,0.438063,0.277568,0.166541,0.003965,311.000000,35.000000,21.000000,0.000000,0.000000,0.000000,0.000000,0.000000,0.415786,0.438063,0.277568,0.166541,0.003965,311.000000,35.000000,21.000000,0.000000,0.000000,0.000000,0.000000,0.000000;
#CREDIT:Ben Speirs;
#NOTES:
0000
0000
0000
0000
,
0000
0000
0000
0000
,
0000
0000
0000
0000
,
0000
0000
0000
0000
,
1000
0001
0100
0100
,
0010
0000
1000
0000
0100
0010
0100
0010
,
0001
1000
0010
0010
,
1000
0000
0001
0000
1000
0100
0010
0001
,
1000
0000
0001
0000
0100
0010
0100
0000
,
0001
0000
1000
0000
0100
0010
0100
0000
,
1100
0100
0110
0010
,
0011
0000
0001
0000
0001
1000
0001
0000
,
1100
0000
1000
1000
0100
1000
0001
0000
,
0101
0000
0001
0001
0100
0001
1000
0000
,
1010
0011
0101
1100
,
0001
1000
0001
1000
0200
0000
0310
0000
,
0001
0000
1000
0100
1000
0000
0001
1000
,
0020
0000
0230
0000
0301
0001
0000
0000
,
0001
0100
0010
1000
0001
0000
1000
0100
,
1000
0101
1100
0000
,
0001
1000
0010
0100
0001
0010
0100
2002
,
0000
0000
0000
0000
0003
0000
3000
0001
0000
0000
0000
0000
0000
0000
0000
0000
,
1000
0100
0001
0100
1000
0000
0100
1000
,
0010
0000
1000
0010
0100
0001
1000
0000
,
0001
0010
1000
0010
0001
0000
0010
0001
,
0100
0000
0001
0100
0010
0000
1000
0000
,
0101
0000
1100
0000
0001
0000
1000
0100
,
0010
0001
1000
0000
0001
0000
0100
0010
,
0100
0010
0100
0010
0100
0000
0001
0000
,
1000
0000
0010
0100
0001
1000
0101
0000
,
1000
0100
1000
0000
0011
0000
1100
0000
,
0010
0010
0010
0000
1000
0000
0001
1000
,
0010
1000
0001
0000
0100
0000
0100
0000
,
0010
0100
0001
0000
0101
0000
1100
0000
,
0001
0000
1100
0000
0101
0000
1000
0001
,
1000
0100
1000
0000
0011
0000
1010
0000
,
0010
1000
0001
0000
1000
0100
0010
0001
,
1000
0010
2002
3003
,
0001
1000
0001
0000
2200
0000
3300
0000
,
1000
0100
1000
0000
0022
0000
0033
0000
,
0001
0010
0001
0000
2002
0000
3003
0000
,
1000
0001
1000
0000
0010
0100
0010
0100
,
0001
0100
0101
0000
0001
1000
0001
1000
,
0100
1000
1100
0000
1000
0100
1000
0100
,
0010
0001
0010
0001
2000
0000
0002
0000
,
0000
3003
0110
0000
,
1000
0010
0100
0010
1000
0000
0001
0010
,
0100
0010
0001
0000
1000
0000
0010
0000
,
0100
0010
0100
0010
1000
0000
0100
1000
,
0100
0000
1000
0001
1000
0000
0010
0000
,
0010
0000
0100
0000
0100
0000
0001
0100
,
0010
1000
0100
0010
0001
0000
1000
0100
,
1000
0000
0001
0010
0001
0000
1100
0000
,
0101
0000
1000
0100
0010
0001
1010
0000
,
0011
0000
1010
0000
0001
0100
0010
1000
,
0100
0010
0001
0000
1000
0100
1000
0000
,
0001
0100
0001
0000
2000
0000
3020
0000
,
0230
0000
0302
0000
1003
0100
1000
0000
,
0001
0010
0001
0000
1000
0010
1000
0000
,
0001
0100
0001
0000
1000
0100
0010
0001
,
0100
0010
1000
0100
0010
0001
1000
0010
,
0200
0002
0000
0303
0000
0000
0000
0000
;

//---------------dance-single - ----------------
#NOTEDATA:;
#CHARTNAME:;
#STEPSTYPE:dance-single;
#DESCRIPTION:;
#CHARTSTYLE:;
#DIFFICULTY:Easy;
#METER:4;
#RADARVALUES:0.185801,0.243368,0.063444,0.079305,0.000000,146.000000,8.000000,10.000000,0.000000,0.000000,0.000000,0.000000,0.000000,0.185801,0.243368,0.063444,0.079305,0.000000,146.000000,8.000000,10.000000,0.000000,0.000000,0.000000,0.000000,0.000000;
#CREDIT:Ben Speirs;
#NOTES:
0000
0000
0000
0000
,
0000
0000
0000
0000
,
0000
0000
0000
0000
,
0000
0000
0000
0000
,
1000
0000
0010
0000
,
0010
0000
0100
0100
,
0001
0000
0010
0000
,
0010
0000
0001
1000
,
0001
0000
1000
0000
,
0010
0100
0010
0010
,
1000
0000
0100
0000
,
1000
0001
1000
0000
,
0020
0030
0010
0010
,
2000
3000
1000
1000
,
0001
0000
0001
0000
,
0010
0100
1000
0000
,
0001
0001
0001
0000
,
1000
1000
1000
0000
,
0001
0100
0010
1000
,
0100
0100
0100
0000
,
2000
0000
0000
0000
3002
0000
0000
0003
,
0000
0000
0000
0000
,
1001
0000
0010
1000
,
0100
0100
0010
0001
,
0000
1000
0001
1000
,
1000
0010
0100
0100
,
0000
0001
0001
1000
,
1000
0100
0000
1000
,
0000
0010
0000
1000
,
0001
0100
0100
0000
,
0000
1001
0000
0010
,
1000
0100
0100
0000
,
0010
0000
0001
0000
,
1000
1000
0000
1001
,
0000
0010
0010
1000
,
1000
0001
0100
0000
,
0100
0000
0001
1000
,
0001
0000
2000
0000
,
0000
3000
0200
0000
,
0000
0300
0020
0000
,
0000
0030
0002
0000
,
0000
0003
1000
1000
,
0100
0100
0010
0010
,
0001
0001
1000
0100
,
0010
0001
0000
0000
,
0000
0000
1001
0000
,
1001
0000
0010
0000
,
1000
0100
0000
0010
,
0010
0010
0000
0001
,
0000
1000
0001
1000
,
1000
0000
0010
0010
,
0000
0100
0100
0100
,
0000
0100
0000
0001
,
0000
1000
0100
0000
,
0000
1000
1000
0000
,
0001
0000
0100
0010
,
1000
0000
0100
0010
,
0001
0000
1000
0000
,
1000
0000
0001
0000
,
0001
0000
1001
0000
,
0110
0000
2002
0000
,
0000
0000
0000
3003
0000
0000
0000
0000
;

//---------------dance-single - ----------------
#NOTEDATA:;
#CHARTNAME:;
#STEPSTYPE:dance-single;
#DESCRIPTION:;
#CHARTSTYLE:;
#DIFFICULTY:Beginner;
#METER:2;
#RADARVALUES:0.108762,0.167929,0.079305,0.000000,0.000000,86.000000,10.000000,0.000000,0.000000,0.000000,0.000000,0.000000,0.000000,0.108762,0.167929,0.079305,0.000000,0.000000,86.000000,10.000000,0.000000,0.000000,0.000000,0.000000,0.000000,0.000000;
#CREDIT:;
#NOTES:
0000
0000
0000
0000
,
0000
0000
0000
0000
,
0000
0000
0000
0000
,
0000
0000
0000
0000
,
0100
0000
0000
0000
,
0001
0000
0000
0000
,
1000
0000
0000
0000
,
0100
0000
0000
0000
,
1000
0000
0000
0000
,
0001
0000
0000
0000
,
0100
0000
0000
0000
,
0010
0000
0000
0000
,
1000
0000
1000
0000
,
0001
0000
0001
0000
,
0100
0000
0100
0000
,
0100
0000
0000
0000
,
0010
0000
0010
0000
,
1000
0000
1000
0000
,
0001
0000
0001
0000
,
0001
0000
0000
0000
,
1001
0000
0000
0000
,
0000
0000
0000
0000
,
0000
0000
0000
0000
,
0000
0100
0100
0100
,
0000
0000
0000
1000
,
0000
1000
0000
0000
,
0010
0010
0000
0010
,
0000
0000
0000
1000
,
0000
1000
0000
0001
,
0001
0001
0001
0000
,
0000
0000
1000
0000
,
1000
0000
0100
0100
,
0000
0000
0100
0100
,
0000
0000
1000
0000
,
0001
0000
0100
0000
,
0100
0000
0010
0010
,
0010
0000
1000
0000
,
0001
0000
1001
0000
,
0000
0000
0110
0000
,
0000
0000
1001
0000
,
0000
0000
0110
0000
,
0000
0000
1001
0000
,
0000
0000
0110
0000
,
0000
0000
1001
0000
,
0000
0000
1001
0000
,
0000
0000
0100
0000
,
0000
0000
0000
0000
,
0100
0000
0000
1000
,
0000
0000
0000
0001
,
0000
0001
0001
0001
,
0000
0000
0000
0100
,
0000
0000
0000
0010
,
0000
0010
0000
0010
,
0000
1000
1000
0000
,
0000
0000
0001
0000
,
0000
0000
1000
0000
,
1000
0000
1000
0000
,
0000
0000
0100
0100
,
0100
0000
0100
0100
,
0100
0000
1000
0000
,
0001
0000
1001
0000
;

//---------------dance-double - ----------------
#NOTEDATA:;
#CHARTNAME:;
#STEPSTYPE:dance-double;
#DESCRIPTION:;
#CHARTSTYLE:;
#DIFFICULTY:Challenge;
#METER:9;
#RADARVALUES:0.584593,0.632757,0.158611,0.055514,0.309291,489.000000,20.000000,7.000000,0.000000,0.000000,0.000000,0.000000,0.000000,0.584593,0.632757,0.158611,0.055514,0.309291,489.000000,20.000000,7.000000,0.000000,0.000000,0.000000,0.000000,0.000000;
#CREDIT:Ben Speirs;
#NOTES:
// measure 0
00000000
00000000
00000000
00000000
,  // measure 1
00000000
00000000
00000000
00000000
,  // measure 2
00000000
00000000
00000000
00000000
,  // measure 3
00000000
00000000
00000000
00000000
,  // measure 4
01000000
00000000
00010000
00010000
10000000
10000000
01000000
00000000
,  // measure 5
10000000
00000000
00100000
00000000
01000000
01000000
00100000
00100000
,  // measure 6
10000000
00000000
01000000
10000000
00100000
00100000
01000000
00000000
,  // measure 7
00010000
00000000
10000000
01000000
00010000
00001000
00000100
00000001
,  // measure 8
00000010
00000000
00000100
00000100
00000010
00000010
00000001
00001000
,  // measure 9
00000001
00000000
00000100
00000010
00001000
00000010
00000100
00000000
,  // measure 10
00000101
00000000
00001100
00000000
00000001
00000001
00000001
00000000
,  // measure 11
00001000
00000000
00000010
00000000
00010000
00000000
00000000
00000000
00001000
00000000
00010000
00001000
00010000
00001000
00010000
00000000
,  // measure 12
00011000
00000000
00110000
00100000
00010000
01000000
00100000
10000000
,  // measure 13
00010000
01000000
00010000
00000000
10000000
00000000
00100000
00000000
01000000
00000000
00010000
00000000
10000000
00000000
00000000
00000000
,  // measure 14
10000000
00000000
01010000
01000000
01000000
00000000
00011000
00010000
,  // measure 15
00010000
00000000
00001100
00000100
00000100
00000000
00001000
00001000
,  // measure 16
00000020
00000000
00000230
00000000
00000302
00000000
00000013
00000100
,  // measure 17
00001000
00001100
00012000
00103000
,  // measure 18
00010000
00010000
00100000
01000000
10000000
10000000
00100000
01000000
,  // measure 19
01010000
00000000
10000000
10000000
00010000
00010000
01000000
00000000
,  // measure 20
00010000
10000000
00010000
10000000
00010000
10000000
00010000
10000000
00001000
01000000
00001000
01000000
00001000
01000000
00001000
00010000
,  // measure 21
00000100
00000010
00000001
00001000
00000010
00000100
00000000
00000010
00000000
00000000
00000000
00000000
00000000
00000000
00000000
00000000
,  // measure 22
00001001
00000000
00001000
00000000
00000010
00000000
00000100
00000000
00000001
00000000
00001000
00000100
00001000
00000000
00000001
00000000
,  // measure 23
00000010
00000000
00000100
00000000
00001000
00000000
00001000
00000000
00000010
00000000
00001000
00000000
00000001
00000010
00000100
00001000
,  // measure 24
00000010
00000000
00000010
00000000
00000100
00000000
00000100
00000000
00001000
00000000
00010000
00001000
00010000
00000000
00001000
00000000
,  // measure 25
00100000
00000000
00010000
00000000
01000000
00100000
01000000
00000000
00010000
10000000
00010000
00000000
10000000
01000000
00100000
00010000
,  // measure 26
10000000
00000000
10000000
00000000
00100000
00000000
01000000
00000000
00010000
00000000
10000000
01000000
10000000
00000000
00100000
00000000
,  // measure 27
00100000
00000000
10000000
00000000
00010000
01000000
00010000
00000000
10000000
00000000
10000000
00000000
00010000
00000000
01000000
00000000
,  // measure 28
00001000
00000000
01000000
00000000
00010000
00000000
01000000
00100000
01000000
00000000
00010000
10000000
00010000
00000000
01000000
00000000
,  // measure 29
00001000
00000000
00010000
00000000
00000100
00001000
00000100
00000000
00001000
00000000
00000001
00000000
00011000
00000000
00010000
00000000
,  // measure 30
00000010
00001000
00000010
00000000
00000100
00000000
00000100
00000000
00000001
00000000
00000010
00000000
00000100
00000000
00001000
00000000
,  // measure 31
00000010
00001000
00000010
00000000
00000100
00000000
00000001
00000000
00001000
00000100
00000010
00000001
00001000
00000000
00001000
00000000
,  // measure 32
00000001
00000000
00000001
00000000
00001000
00000000
00000010
00000100
00000010
00000000
00001000
00000000
00000100
00000000
00010000
00000000
,  // measure 33
00001000
00010000
00001000
00000000
00010000
00000000
00011000
00000000
00001000
00010000
01000000
10000000
00100000
00000000
00100000
00000000
,  // measure 34
01000000
00000000
00010000
00000000
10000000
00000000
00100000
01000000
00100000
00000000
10000000
00000000
01000000
00000000
00010000
00000000
,  // measure 35
01000000
00000000
10000000
00000000
00100000
00000000
00010000
00000000
00100000
10000000
00100000
00000000
10000000
01000000
10000000
00000000
,  // measure 36
01000000
00010000
01000000
00000000
00010000
00001000
00010000
00000000
00001000
00000100
00001000
00000000
00000100
00000000
00000001
00000100
,  // measure 37
00000002
00000000
00001003
00000000
00000001
00000100
00000001
00000100
,  // measure 38
00000001
00000100
00000001
00000100
00001000
00000100
00001000
00000100
,  // measure 39
00001000
00000100
00001000
00000100
00001000
00010000
00001000
00010000
,  // measure 40
00001000
00010000
00001000
00010000
00100000
00010000
00100000
00010000
,  // measure 41
00100000
00010000
00100000
00000000
10000000
10000000
00010000
00010000
,  // measure 42
10000000
10000000
11000000
00000000
00010000
00010000
10000000
10000000
,  // measure 43
00010000
00000000
00010000
00000000
01010000
00000000
00000000
00000000
00010000
01000000
00010000
01000000
00001000
00010000
00001000
00010000
,  // measure 44
00000100
00001000
00000100
00001000
00000001
00000100
00000001
00000100
00000000
00000000
00000000
00000000
00000000
00000000
00000000
00000000
,  // measure 45
00001001
00000000
00011000
01000000
00100000
00000000
00000000
00000000
,  // measure 46
10010000
00000000
00010000
00000000
01000000
00000000
00100000
00000000
10000000
00000000
00010000
00100000
00010000
00000000
10000000
00000000
,  // measure 47
01000000
00000000
00100000
00000000
00010000
00000000
00010000
00000000
01000000
00000000
00010000
00000000
10000000
01000000
00100000
00010000
,  // measure 48
01000000
00000000
01000000
00000000
00100000
00000000
00100000
00000000
00010000
00000000
00001000
00010000
00001000
00000000
00010000
00000000
,  // measure 49
00000100
00000000
00001000
00000000
00000010
00000100
00000010
00000000
00001000
00000001
00001000
00000000
00000001
00000010
00000100
00001000
,  // measure 50
00000001
00000000
00000001
00000000
00000100
00000000
00000010
00000000
00001000
00000000
00000001
00000010
00000001
00000000
00000100
00000000
,  // measure 51
00000100
00000000
00000001
00000000
00001000
00000010
00001000
00000000
00000001
00000000
00000001
00000000
00001000
00000000
00000010
00000000
,  // measure 52
00010000
00000000
00000010
00000000
00001000
00000000
00000010
00000100
00000010
00000000
00001000
00000001
00001000
00000000
00000010
00000000
,  // measure 53
00010000
00000000
00001000
00000000
00100000
00010000
00100000
00000000
00010000
00000000
10000000
00000000
00011000
00000000
00001000
00000000
,  // measure 54
01000000
00010000
01000000
00000000
00100000
00000000
00100000
00000000
10000000
00000000
01000000
00000000
00100000
00000000
00010000
00000000
,  // measure 55
01000000
00010000
01000000
00000000
00100000
00000000
10000000
00000000
00010000
00100000
01000000
10000000
00010000
00000000
00010000
00000000
,  // measure 56
10000000
00000000
10000000
00000000
00010000
00000000
01000000
00100000
01000000
00000000
00010000
00000000
00100000
00000000
00001000
00000000
,  // measure 57
00010000
00001000
00010000
00000000
00001000
00000000
00011000
00000000
00010000
00001000
00000010
00000001
00000100
00000000
00000100
00000000
,  // measure 58
00000010
00000000
00001000
00000000
00000001
00000000
00000100
00000010
00000100
00000000
00000001
00000000
00000010
00000000
00001000
00000000
,  // measure 59
00000010
00000000
00000001
00000000
00000100
00000000
00001000
00000000
00000100
00000001
00000100
00000000
00000001
00000010
00000001
00000000
,  // measure 60
00000010
00001000
00000010
00000000
00001000
00010000
00001000
00010000
00100000
00000000
10000000
00000000
01000000
00000000
00100000
00000000
,  // measure 61
00020000
02000000
00000000
03030000
00000000
00000000
00000000
00000000
;
