#VERSION:0.82;
#TITLE:Sugar;
#SUBTITLE:;
#ARTIST:Maroon 5;
#TITLETRANSLIT:;
#SUBTITLETRANSLIT:;
#ARTISTTRANSLIT:;
#GENRE:Wedding Music (Obviously);
#ORIGIN:;
#CREDIT:;
#BANNER:Sugar.png;
#BACKGROUND:Sugar-bg.png;
#PREVIEWVID:;
#JACKET:jacket.png;
#CDIMAGE:;
#DISCIMAGE:;
#LYRICSPATH:;
#CDTITLE:;
#MUSIC:Sugar.ogg;
#OFFSET:-0.060000;
#SAMPLESTART:71.533981;
#SAMPLELENGTH:13.714000;
#SELECTABLE:YES;
#BPMS:0.000=120.000;
#STOPS:;
#DELAYS:;
#WARPS:;
#TIMESIGNATURES:0.000=4=4;
#TICKCOUNTS:0.000=4;
#COMBOS:0.000=1;
#SPEEDS:0.000=1.000=0.000=0;
#SCROLLS:0.000=1.000;
#FAKES:;
#LABELS:0.000=Song Start;
#BGCHANGES:4.000=Sugar.avi=1.000=0=0=1=====,
99999=-nosongbg-=1.000=0=0=0 // don't automatically add -songbackground-
;
#KEYSOUNDS:;
#ATTACKS:
;

//---------------dance-single - ----------------
#NOTEDATA:;
#CHARTNAME:;
#STEPSTYPE:dance-single;
#DESCRIPTION:;
#CHARTSTYLE:;
#DIFFICULTY:Hard;
#METER:7;
#RADARVALUES:0.438606,0.442671,0.229386,0.185273,0.000000,301.000000,26.000000,21.000000,0.000000,0.000000,0.000000,0.000000,0.000000,0.438606,0.442671,0.229386,0.185273,0.000000,301.000000,26.000000,21.000000,0.000000,0.000000,0.000000,0.000000,0.000000;
#CREDIT:Ben Speirs;
#NOTES:
0000
0000
0000
0000
,
0000
0000
0000
0000
,
0000
0000
0000
0000
,
0000
0000
0000
0000
,
1000
0000
0100
1000
0001
0001
0000
0000
,
0100
0000
0001
1000
0100
0000
0000
0000
,
1000
0000
0001
0010
0001
0000
1000
0010
,
0000
1000
0001
0010
0001
0000
1000
0000
,
0001
0000
0010
0001
1000
1000
0000
0000
,
0010
0000
1000
0001
0010
0000
0000
0000
,
0001
0000
1000
0100
1000
0000
0001
0100
,
0000
0001
1000
0100
1000
0000
0001
0000
,
0100
0010
1000
0100
0010
0001
0010
0001
,
0000
0100
0001
0010
0100
1000
0100
1000
,
0000
0010
1000
0001
1000
0100
0010
0001
,
0200
0000
0000
0310
0000
0100
0110
0000
,
0010
0100
0001
0010
0100
1000
0100
1000
,
0000
0010
1000
0100
0010
0001
0010
0001
,
0000
0100
0001
1000
0001
0010
0100
1000
,
0020
0000
0000
0130
0000
0010
0110
0000
,
1002
0000
0103
0001
1000
0000
0110
0000
,
2001
0000
3100
1000
0001
0000
0100
0010
,
0000
0010
1000
0100
0010
0002
0000
1003
,
0010
0010
0100
0010
0000
1000
1010
0000
,
0101
0000
0100
0001
0010
0000
0011
0000
,
1100
0000
0100
1000
0010
0000
1000
0001
,
0000
0001
0100
0010
1000
0002
0000
0013
,
0100
0100
1000
0100
0000
1000
0001
0100
,
0000
0001
1000
0001
1000
0001
0000
0010
,
0001
1000
1100
0000
0011
0000
0000
0010
,
0000
0100
1000
0100
1000
0100
0000
1000
,
0001
0100
0010
1000
0001
0000
1001
0000
,
2100
0000
3001
1000
0100
0000
1001
0000
,
0102
0000
1003
0001
0100
0000
0001
0010
,
0000
0010
0100
1000
0010
0200
0000
0301
,
1000
1000
0010
1000
0001
0010
0002
0000
,
2003
0000
3100
0010
0100
0010
0002
0000
,
2003
0000
3010
0100
0010
0100
0001
0020
,
0000
0130
1000
1000
0001
0100
0010
1000
,
0001
0000
1000
0100
1000
0001
0020
0000
,
0230
0000
1300
0001
1000
0001
0200
0000
,
0320
0000
1030
0001
1000
0001
0010
0200
,
0000
0310
0001
0001
1000
0010
0100
0001
,
1000
0010
0000
1000
0000
0001
0100
0010
,
1000
0100
0001
0100
1000
1000
0000
0100
,
1000
0010
1010
0000
0101
0000
0000
0000
,
0001
0100
1000
0100
0001
0001
0000
0100
,
0001
0010
0011
0000
1000
0001
1001
0000
,
0110
0000
1000
0010
0001
0000
1001
0000
,
0110
0000
0001
0100
1000
0000
0010
0100
,
0000
0001
0010
0100
1000
0010
0000
0100
,
0000
0001
0001
0001
0000
1000
1000
1000
,
0020
1030
0000
1001
,
0200
0301
0000
1001
,
0010
0010
0100
0010
0000
0000
0110
0000
,
1000
1000
0100
0001
0000
0000
1001
0000
;

//---------------dance-single - ----------------
#NOTEDATA:;
#CHARTNAME:;
#STEPSTYPE:dance-single;
#DESCRIPTION:;
#CHARTSTYLE:;
#DIFFICULTY:Medium;
#METER:5;
#RADARVALUES:0.330215,0.393485,0.255854,0.211741,0.000000,209.000000,29.000000,24.000000,0.000000,0.000000,0.000000,0.000000,0.000000,0.330215,0.393485,0.255854,0.211741,0.000000,209.000000,29.000000,24.000000,0.000000,0.000000,0.000000,0.000000,0.000000;
#CREDIT:Ben Speirs;
#NOTES:
0000
0000
0000
0000
,
0000
0000
0000
0000
,
0000
0000
0000
0000
,
0000
0000
0000
0000
,
0001
1000
0010
0000
,
1000
0001
0010
0000
,
0001
1000
0010
0010
,
1000
0000
0001
1000
0010
0000
0000
0000
,
1000
0001
0100
0000
,
0001
1000
0100
0000
,
1000
0001
0100
0100
,
0001
0000
1000
0001
0100
0000
0000
0000
,
0100
0000
0010
0000
1000
0100
1000
0000
,
0010
0000
0100
0000
0001
0010
0001
0000
,
0100
0000
0010
0000
1000
0100
0010
0002
,
0000
0003
0000
1001
,
0010
0000
0100
0000
0001
0010
0001
0000
,
0100
0000
0010
0000
1000
0100
1000
0000
,
0010
0000
0100
0000
0001
0010
0100
2000
,
0000
0000
3000
0000
0000
0001
0001
0000
,
2200
0000
3300
0000
0000
1000
1000
0000
,
0202
0000
0303
0000
0000
0000
0001
1000
,
0100
0000
1000
0001
0100
0000
0000
0000
,
0010
0010
1000
0001
0000
1000
1000
0000
,
0202
0000
0303
0000
0000
0001
0001
0000
,
2200
0000
3300
0000
0000
0000
1000
0001
,
0010
0000
0001
1000
0010
0000
0000
0000
,
0100
0100
0001
1000
0000
0000
0001
0000
,
0100
0000
0010
0000
1000
0100
0010
0000
,
0001
0011
2200
3300
,
0001
0000
1000
0000
0010
1000
0001
0000
,
0100
0000
0101
0000
0000
1000
1000
0000
,
0220
0000
0330
0000
0000
0001
0001
0000
,
0220
0000
0330
0000
0000
0000
1000
1000
,
0000
0000
0001
0000
1000
0100
0010
0000
,
0001
0001
1000
0001
0000
0000
0100
0000
,
1020
0130
0001
1000
,
0012
1003
0100
1000
,
0001
0100
0001
0000
1000
0100
1000
0000
,
0020
0000
0030
0000
0000
1000
1000
0000
,
0102
1003
0001
0010
,
2100
0000
3001
0000
1000
0000
0010
0010
,
0000
0000
1000
0000
0001
0100
0001
0000
,
1000
1000
0100
0010
0000
0000
0001
0000
,
1100
0000
0101
0000
1000
1000
0000
0000
,
0101
1100
0002
0003
,
0011
0000
1010
0000
0001
0001
0000
0000
,
1000
0010
1000
0000
0001
0000
0110
0000
,
1002
0103
0000
0110
,
2001
0000
3100
0000
0000
0000
0010
0001
,
1000
0000
0010
1000
0001
0000
0000
0000
,
0100
0100
0010
0100
0000
0000
0001
0000
,
0100
0100
0000
0100
0000
0000
0101
0000
,
1000
1000
0000
1000
0000
0000
1100
0000
,
0010
0010
0000
0010
0000
0000
1010
0000
,
0001
0001
0000
1001
0000
0000
0110
0000
;

//---------------dance-single - ----------------
#NOTEDATA:;
#CHARTNAME:;
#STEPSTYPE:dance-single;
#DESCRIPTION:;
#CHARTSTYLE:;
#DIFFICULTY:Easy;
#METER:3;
#RADARVALUES:0.199137,0.270521,0.114693,0.000000,0.000000,145.000000,13.000000,0.000000,0.000000,0.000000,0.000000,0.000000,0.000000,0.199137,0.270521,0.114693,0.000000,0.000000,145.000000,13.000000,0.000000,0.000000,0.000000,0.000000,0.000000,0.000000;
#CREDIT:Ben Speirs;
#NOTES:
0000
0000
0000
0000
,
0000
0000
0000
0000
,
0000
0000
0000
0000
,
0000
0000
0000
0000
,
1000
0001
0100
0000
,
0001
1000
0100
0000
,
1000
0001
0100
0100
,
0001
1000
0100
0000
,
1000
0001
0010
0000
,
0001
1000
0010
0000
,
1000
0001
0010
0010
,
0001
1000
0010
0000
,
1000
1000
0100
0000
,
0001
0001
0100
0000
,
1000
1000
0010
0000
,
0001
0001
0010
0000
,
1000
1000
0100
0000
,
0001
0001
0100
0000
,
1000
1000
0010
0000
,
0001
0001
0010
0110
,
0110
0000
0000
1001
,
1001
0000
0000
0000
,
0100
0010
1000
0001
,
0100
0000
0000
1001
,
1001
0000
0000
0110
,
0110
0000
0000
0000
,
0010
0001
0100
0010
,
1000
0000
0000
0000
,
0001
0001
0010
0000
,
0001
0100
0010
0000
,
1000
1000
0100
0000
,
1000
0010
0000
1001
,
1001
0000
0000
0110
,
0110
0000
0000
0000
,
0010
0001
1000
0010
,
0100
0000
0000
0001
,
0001
0100
0000
0010
,
0010
1000
0000
0100
,
1000
0001
1000
0010
,
0100
0000
0000
0001
,
0001
1000
0000
0100
,
0100
0010
0000
0010
,
0001
1000
0010
0100
,
0001
0000
0000
0000
,
1000
1000
0001
0001
,
1000
0001
1000
0000
,
0001
0001
1000
1000
,
0001
1000
0001
0100
,
0100
0000
1000
0100
,
0100
0000
0000
0000
,
0010
0001
0100
0010
,
1000
0000
0000
0000
,
0001
0000
0000
0001
0000
0000
0000
0000
,
1000
0000
0000
1000
0000
0000
0000
0000
,
0010
0000
0000
0010
0000
0000
0000
0000
,
0100
0000
0000
0100
0000
0000
1001
0000
;

//---------------dance-single - ----------------
#NOTEDATA:;
#CHARTNAME:;
#STEPSTYPE:dance-single;
#DESCRIPTION:;
#CHARTSTYLE:;
#DIFFICULTY:Beginner;
#METER:1;
#RADARVALUES:0.128557,0.172150,0.008823,0.000000,0.000000,101.000000,1.000000,0.000000,0.000000,0.000000,0.000000,0.000000,0.000000,0.128557,0.172150,0.008823,0.000000,0.000000,101.000000,1.000000,0.000000,0.000000,0.000000,0.000000,0.000000,0.000000;
#CREDIT:Ben Speirs;
#NOTES:
0000
0000
0000
0000
,
0000
0000
0000
0000
,
0000
0000
0000
0000
,
0000
0000
0000
0000
,
0000
0001
0001
0000
,
0000
1000
1000
0000
,
0000
0010
0010
0000
,
0000
0100
0100
0000
,
0000
0001
0001
0000
,
0000
1000
1000
0000
,
0000
0100
0100
0000
,
0000
0010
0010
0000
,
0001
0000
0001
0000
,
1000
0000
1000
0000
,
0010
0000
0010
0000
,
0100
0000
0000
0000
,
0010
0000
0010
0000
,
1000
0000
1000
0000
,
0001
0000
0001
0000
,
0100
0000
0000
0001
,
0001
0000
0000
1000
,
1000
0000
0000
0000
,
0010
0000
0010
0000
,
0010
0000
0000
1000
,
1000
0000
0000
0001
,
0001
0000
0000
0000
,
0010
0000
0010
0000
,
0010
0000
0000
0000
,
0100
0100
0100
0000
,
0100
0000
1000
0000
,
0010
0010
0010
0000
,
0010
0000
0000
1000
,
1000
0000
0000
0001
,
0001
0000
0000
0000
,
0010
0000
0010
0000
,
0010
0000
0000
0001
,
0001
0000
0000
1000
,
1000
0000
0000
0000
,
0100
0100
0100
0100
,
0100
0000
0000
1000
,
1000
0000
0000
0001
,
0001
0000
0000
0000
,
0100
0100
0100
0100
,
0100
0000
0000
0000
,
0001
0001
0001
0000
,
0001
0000
0010
0000
,
0010
0010
0010
0000
,
0010
0000
0000
0001
,
0001
0000
0000
1000
,
1000
0000
0000
0000
,
0010
0010
0010
0010
,
0010
0000
0000
0000
,
1000
0000
0000
0000
,
0001
0000
0000
0000
,
0010
0000
0000
0000
,
0100
0000
0000
0110
;

//---------------dance-double - ----------------
#NOTEDATA:;
#CHARTNAME:;
#STEPSTYPE:dance-double;
#DESCRIPTION:;
#CHARTSTYLE:;
#DIFFICULTY:Challenge;
#METER:6;
#RADARVALUES:0.408358,0.442671,0.273499,0.211741,0.000000,269.000000,31.000000,24.000000,0.000000,0.000000,0.000000,0.000000,0.000000,0.408358,0.442671,0.273499,0.211741,0.000000,269.000000,31.000000,24.000000,0.000000,0.000000,0.000000,0.000000,0.000000;
#CREDIT:Ben Speirs;
#NOTES:
// measure 0
00000000
00000000
00000000
00000000
,  // measure 1
00000000
00000000
00000000
00000000
,  // measure 2
00000000
00000000
00000000
00000000
,  // measure 3
00000000
00000000
00000000
00000000
,  // measure 4
00000001
00000100
00000001
00000001
00001000
00000000
00000000
00000000
,  // measure 5
00001000
00000100
00001000
00001000
00000001
00000000
00000000
00000000
,  // measure 6
00001000
00000000
00000100
00010000
00000100
00000000
00010000
00001000
,  // measure 7
00010000
00000000
00001000
00100000
00010000
00000000
00000000
00000000
,  // measure 8
10000000
01000000
10000000
10000000
00010000
00000000
00000000
00000000
,  // measure 9
00010000
01000000
00010000
00010000
10000000
00000000
00000000
00000000
,  // measure 10
00010000
00000000
01000000
00010000
01000000
00000000
00010000
00100000
,  // measure 11
00010000
00000000
00100000
00001000
00010000
00000000
00000000
00000000
,  // measure 12
00000100
00001000
00000100
00001000
00000020
00000000
00000230
00000000
,  // measure 13
00000301
00001000
00000001
00001000
00000020
00000000
00002030
00000000
,  // measure 14
00003100
00010000
00000100
00010000
00002000
00000000
00203000
00000000
,  // measure 15
00310000
00000000
10000000
00000000
00100000
01000000
00010000
00000000
,  // measure 16
10000000
01000000
10000000
01000000
00200000
00000000
00320000
00000000
,  // measure 17
10030000
00100000
10000000
00100000
02000000
00000000
03020000
00000000
,  // measure 18
00130000
00001000
00100000
00001000
00020000
00000000
00030200
00000000
,  // measure 19
00001300
00000000
00000010
00000100
00000010
00000000
00001010
00000000
,  // measure 20
00000102
00001003
00000001
00000011
,  // measure 21
00002100
00000000
00003001
00000000
00001000
00000000
00000010
00000100
,  // measure 22
00000001
00000000
00000100
00000010
00001000
00000000
00000100
00010000
,  // measure 23
00001000
00100000
00010000
01010000
,  // measure 24
21000000
30010000
10000000
10100000
,  // measure 25
00120000
00000000
10030000
00000000
00010000
01000000
00100000
10000000
,  // measure 26
01000000
00000000
00100000
00010000
01000000
00000000
00100000
10000000
,  // measure 27
01000000
00100000
00010000
10000000
,  // measure 28
00100000
10000000
00010000
00000000
10010000
00000000
10000000
00000000
,  // measure 29
01000000
00100000
00010000
00100000
00001000
00000000
00010000
00000000
,  // measure 30
00000100
00001000
00000010
00000000
00000100
00000001
00000010
00000000
,  // measure 31
00000001
00000001
00000001
00000000
00001000
00000000
00001010
00000000
,  // measure 32
00000202
00000000
00000303
00000000
00000001
00001000
00000100
00000000
,  // measure 33
00002200
00000000
00003300
00000000
00000100
00001000
00000010
00000010
,  // measure 34
00000100
00000000
00000010
00000100
00000001
00000000
00000100
00000001
,  // measure 35
00001000
00000000
00000100
00000000
00001000
00000100
00010000
00000000
,  // measure 36
00012000
00000000
00103000
00010000
00100000
00000000
00110000
00000000
,  // measure 37
20010000
00000000
30100000
10000000
00100000
00000000
10000000
01000000
,  // measure 38
00100000
00010000
01000000
00100000
10000000
00010000
00000000
21000000
,  // measure 39
00000000
00000000
30010000
00000000
10000000
00100000
01000000
00000000
,  // measure 40
01010000
00000000
00100000
00010000
01000000
00000000
01010000
00000000
,  // measure 41
11000000
00000000
00100000
10000000
01000000
00000000
10000000
00000000
,  // measure 42
00010000
00100000
00010000
01000000
00001000
00010000
00000000
00002100
,  // measure 43
00000000
00000001
00000000
00000001
00000000
00003001
00000000
00001000
,  // measure 44
00000001
00000100
00000001
00001000
00000010
00000010
00000000
00000100
,  // measure 45
00000001
00000101
00001010
00000001
,  // measure 46
00001000
00000100
00001000
00000000
00000100
00010000
00000000
00001000
,  // measure 47
00010000
00001000
00100000
00000000
00010000
00000000
11000000
00000000
,  // measure 48
01010000
00000000
00100000
00100000
00100000
00000000
01010000
00000000
,  // measure 49
11000000
00000000
00100000
00100000
00100000
00000000
10000000
00000000
,  // measure 50
00010000
00100000
00010000
01000000
00001000
00010000
00000000
00000100
,  // measure 51
00000000
00000010
00000010
00000010
00000000
00000001
00000001
00000001
,  // measure 52
00000000
00000101
00000000
00001010
,  // measure 53
00000000
00010100
00000000
00011000
,  // measure 54
00100000
00100000
00010000
01000000
00000000
00000000
10100000
00000000
,  // measure 55
00010000
00010000
01000000
00001000
00000000
00000000
00100000
00000000
;
