#VERSION:0.82;
#TITLE:Can't Deny My Love;
#SUBTITLE:;
#ARTIST:Brandon Flowers;
#TITLETRANSLIT:;
#SUBTITLETRANSLIT:;
#ARTISTTRANSLIT:;
#GENRE:Denial Rock;
#ORIGIN:;
#CREDIT:;
#BANNER:Can't Deny My Love.png;
#BACKGROUND:Can't Deny My Love-bg.png;
#PREVIEWVID:;
#JACKET:jacket.png;
#CDIMAGE:;
#DISCIMAGE:;
#LYRICSPATH:;
#CDTITLE:;
#MUSIC:Can't Deny My Love.ogg;
#OFFSET:0.010000;
#SAMPLESTART:105.124344;
#SAMPLELENGTH:13.714000;
#SELECTABLE:YES;
#BPMS:0.000=109.000,
80.000=110.000;
#STOPS:;
#DELAYS:;
#WARPS:;
#TIMESIGNATURES:0.000=4=4;
#TICKCOUNTS:0.000=4;
#COMBOS:0.000=1;
#SPEEDS:0.000=1.000=0.000=0;
#SCROLLS:0.000=1.000;
#FAKES:;
#LABELS:0.000=Song Start;
#BGCHANGES:4.000=Can't Deny My Love.avi=1.000=0=0=1=====,
99999=-nosongbg-=1.000=0=0=0 // don't automatically add -songbackground-
;
#KEYSOUNDS:;
#ATTACKS:
;

//---------------dance-single - ----------------
#NOTEDATA:;
#CHARTNAME:;
#STEPSTYPE:dance-single;
#DESCRIPTION:;
#CHARTSTYLE:;
#DIFFICULTY:Hard;
#METER:9;
#RADARVALUES:0.533797,0.561905,0.201588,0.107994,0.568767,476.000000,28.000000,15.000000,0.000000,0.000000,0.000000,0.000000,0.000000,0.533797,0.561905,0.201588,0.107994,0.568767,476.000000,28.000000,15.000000,0.000000,0.000000,0.000000,0.000000,0.000000;
#CREDIT:Ben Speirs;
#NOTES:
// measure 0
0000
0000
0000
0000
,  // measure 1
0000
0000
0000
0000
,  // measure 2
0000
0000
0000
0000
,  // measure 3
0000
0000
0000
0000
,  // measure 4
1000
0000
0000
1000
0100
0000
0000
0100
0010
0000
0000
0001
1000
0000
0001
0000
,  // measure 5
0100
0010
0000
0000
1000
0000
0010
0100
0000
0000
0001
0000
1000
0000
0001
0000
,  // measure 6
0100
0000
0000
0000
0010
1000
0000
0000
0100
0000
0100
0000
0010
0001
0000
0001
,  // measure 7
1000
0000
0000
0010
0000
0100
0000
0010
1000
0000
0000
0000
0101
0000
0100
0010
,  // measure 8
1000
0000
0000
0001
0000
0000
0200
0000
0000
0000
0310
0000
0100
0000
0001
0000
,  // measure 9
1000
0000
0000
0100
0000
0000
0020
0000
0000
0000
0031
0000
1000
0000
0010
0000
,  // measure 10
0100
0000
0000
0001
1000
0000
0000
0010
0200
0000
0000
0000
0301
0000
0000
0000
,  // measure 11
1000
0000
0000
0100
0010
0000
0000
0001
1000
0001
0000
0000
0100
0000
0000
0000
,  // measure 12
0010
0000
1000
0100
1000
0000
0002
0000
0000
0000
0103
0000
0010
0000
1000
0000
,  // measure 13
0001
0100
0000
0010
0000
1000
0000
0100
0010
0000
0000
0000
0001
0000
0000
0000
,  // measure 14
1000
0000
0100
1000
0000
0100
1000
0000
0002
0000
0000
0000
1003
0000
0000
0000
,  // measure 15
0001
0000
0100
0001
0000
0100
0001
0000
2000
0000
0000
0000
3001
0000
0000
0000
,  // measure 16
0100
0001
0000
1000
0000
0100
0000
0010
0000
0001
0000
1000
0000
0010
0000
0100
,  // measure 17
0002
0000
0003
0000
,  // measure 18
0100
0000
0100
0010
0000
0010
1000
0000
0100
0000
0010
0000
0001
0000
0000
0000
,  // measure 19
0100
0000
0100
0001
0000
0001
1000
0000
0100
0000
0010
0000
0001
0000
0000
0000
,  // measure 20
1100
0000
0000
1000
0001
0000
0100
0010
0000
0010
1000
0000
0100
0010
0100
0000
,  // measure 21
1000
0000
0001
0100
0001
0000
1000
0100
1000
0000
0001
0010
0001
0000
1000
0001
,  // measure 22
1000
0000
0010
0100
0000
0000
1001
0000
1000
0100
0010
0001
0000
0000
1000
0001
,  // measure 23
1000
0000
0010
0100
0000
0000
1001
0000
0001
0010
0100
1000
0000
0001
0000
1000
,  // measure 24
0010
0000
0100
0000
0001
0000
1000
0100
0010
0000
0001
0100
0010
0000
0000
0000
,  // measure 25
1000
0000
0001
0000
0100
0000
0010
1000
0010
0000
0100
0001
0100
0000
0001
1000
,  // measure 26
0001
0000
0100
0010
0000
0000
1001
0000
0001
0010
0100
1000
0000
0000
0001
1000
,  // measure 27
0001
0000
0100
0010
0000
0000
1001
0000
1000
0100
0010
0001
0000
1000
0000
0001
,  // measure 28
0100
0000
0010
0000
1000
0000
0000
0001
0000
0000
0100
0000
0010
0000
0100
0000
,  // measure 29
0001
0000
1000
0000
0100
0010
0000
0010
0000
0000
0001
0000
1000
0000
0010
0000
,  // measure 30
0101
0000
0000
0000
0010
1000
0000
0001
0000
0000
0010
0000
0100
0000
1000
0000
,  // measure 31
0011
0000
0000
0000
1000
0000
0001
0100
0000
0100
0010
0000
1000
0000
0001
0000
,  // measure 32
0110
0000
0000
0000
0001
0000
0010
0100
1000
0000
0001
0000
0100
0000
0000
0000
,  // measure 33
0010
1000
0000
0001
0000
1000
0010
0000
0100
0000
0001
0000
1000
0000
0000
0000
,  // measure 34
0001
0100
0000
0000
0000
0000
0001
0100
0000
0000
0000
0000
0101
0000
0001
0100
,  // measure 35
0010
1000
0000
0100
0000
0010
0000
0001
1000
0000
0000
0000
1100
0000
0000
0000
,  // measure 36
0001
0000
1000
0000
0010
0000
0100
0000
0001
0000
0010
0000
0100
1000
0100
0000
,  // measure 37
1000
0001
0000
1000
0000
0010
0100
0000
0001
0000
0000
0000
0101
0000
0000
0000
,  // measure 38
1000
0010
0000
0000
0000
0000
1000
0010
0000
0000
0000
0000
1010
0000
1000
0010
,  // measure 39
0100
0001
0000
0010
0000
0100
0000
1000
0001
0000
0000
0000
0011
0000
0000
0000
,  // measure 40
1000
0000
0001
0000
0100
0000
0010
0000
1000
0000
0100
0000
0010
0001
0010
0000
,  // measure 41
0001
1000
0000
0001
0000
0100
0010
0000
1000
0000
0000
1010
0000
0000
0001
0000
,  // measure 42
0102
0000
0000
0000
1003
0000
0100
1000
0000
0001
0100
0000
0001
0000
1000
0000
,  // measure 43
2010
0000
0000
0000
3001
0000
0010
0001
0000
1000
0010
0000
0100
0000
0001
0000
,  // measure 44
0101
0000
0000
0000
1000
0000
0100
0000
0100
0000
0000
0010
0000
0000
0001
0000
,  // measure 45
1100
0000
0000
0000
0001
0000
1000
0000
0010
0000
0000
0100
0000
0000
0001
0000
,  // measure 46
2001
0000
0000
0000
3100
0000
0010
0001
0000
0000
1000
0000
0010
0100
0010
0000
,  // measure 47
1000
0001
0010
0100
1000
0000
0000
0000
,  // measure 48
0101
0000
0100
0020
0000
0000
1030
0100
0000
0100
0010
0000
0001
0000
1000
0000
,  // measure 49
0010
0100
0010
1000
0000
0000
0001
0010
0001
0000
1000
0100
1000
0000
0001
0000
,  // measure 50
0101
0000
0100
0010
0000
0000
0101
0000
0100
0010
1000
0001
0000
0000
0010
0100
,  // measure 51
1000
0000
0001
0100
0000
0000
1100
0000
1000
0100
0010
0001
0000
1000
0000
0010
,  // measure 52
0200
0000
0000
0000
0301
0000
1000
0100
1000
0000
0001
0100
0001
0000
1000
0000
,  // measure 53
0100
0000
0010
0000
0001
0000
1000
0010
1000
0000
0001
0010
0000
0000
0001
0000
,  // measure 54
1010
0000
0010
0100
0000
0000
1010
0000
0010
0100
0001
1000
0000
0000
0100
0010
,  // measure 55
0001
0000
1000
0010
0000
0000
0011
0000
0001
0010
0100
1000
0000
0001
0000
0100
,  // measure 56
0010
0000
1000
0000
0100
0000
0100
0020
0000
0000
0031
0000
1000
0000
0010
0000
,  // measure 57
0100
0000
0001
0000
1000
0000
1000
0200
0000
0000
0310
0000
0001
0000
1000
0000
,  // measure 58
0010
0000
0100
0000
0001
0000
0000
1000
0000
0000
0010
0000
0000
0000
0101
0000
,  // measure 59
0100
0000
0010
0000
1000
0000
0100
0010
0000
0010
0001
0000
1000
0100
1000
0000
,  // measure 60
0002
0000
0000
0000
0103
0000
0010
1000
0000
1000
0100
0000
0010
0000
0001
0000
,  // measure 61
1000
0010
0000
0010
0000
0010
0100
0001
0000
0000
1000
0000
0010
0000
0100
0000
,  // measure 62
0001
0100
0001
1000
0100
1000
0001
0010
0000
0000
0000
0000
0000
0000
0000
0000
;

//---------------dance-double - ----------------
#NOTEDATA:;
#CHARTNAME:;
#STEPSTYPE:dance-double;
#DESCRIPTION:;
#CHARTSTYLE:;
#DIFFICULTY:Challenge;
#METER:8;
#RADARVALUES:0.495742,0.561905,0.122393,0.295183,0.424775,424.000000,17.000000,41.000000,0.000000,0.000000,0.000000,0.000000,0.000000,0.495742,0.561905,0.122393,0.295183,0.424775,424.000000,17.000000,41.000000,0.000000,0.000000,0.000000,0.000000,0.000000;
#CREDIT:Ben Speirs;
#NOTES:
00000000
00000000
00000000
00000000
,
00000000
00000000
00000000
00000000
,
00000000
00000000
00000000
00000000
,
00000000
00000000
00000000
00000000
,
10000000
00000000
00010000
00000000
01000000
00000000
00000000
01000000
00100000
00000000
00000000
00100000
10000000
00000000
00000000
00000000
,
00010000
00100000
01000000
10000000
00100000
01000000
00010000
00100000
,
00001000
00000000
00000000
00000000
00100000
00000000
00001000
00000000
00010000
00000000
00000100
00000000
00010000
00001000
00010000
00000000
,
00000200
00000000
00001300
00000010
00000100
00000001
00001000
00000000
,
00000001
00000000
00000000
00000001
00000000
00000000
00000200
00000000
00000000
00000000
00000310
00000000
00001000
00000000
00000010
00000000
,
00000100
00000000
00000000
00000100
00000000
00000000
00000020
00000000
00000000
00000000
00001030
00000000
00000100
00000000
00001000
00000000
,
00000001
00000000
00000000
00001000
00000100
00000000
00000000
00010000
00002000
00000000
00000000
00000000
00103000
00000000
00000000
00000000
,
00001000
00000000
00000000
00100000
00010000
00000000
00000000
10000000
00200000
00000000
00000000
00000000
01300000
00000000
00000000
00000000
,
00010000
00000000
00000000
00010000
00000000
00000000
20000000
00000000
00000000
00000000
30100000
00000000
01000000
00000000
00100000
00000000
,
10000000
00000000
00000000
10000000
00000000
00000000
01000000
00000000
00200000
00000000
00000000
00000000
00310000
00000000
00000000
00000000
,
11000000
00000000
01000000
00100000
00000000
00100000
00010000
00000000
20000000
00000000
00000000
00000000
30010000
00000000
00000000
00000000
,
01010000
00000000
01000000
00100000
00000000
00100000
10000000
00000000
00020000
00000000
00000000
00000000
10030000
00000000
00000000
00000000
,
01000000
00100000
00000000
00100000
00000000
00010000
00000000
00010000
00000000
00100000
00000000
00001000
00000000
00010000
00000000
00000100
,
00002000
00000000
00003000
00000000
,
00000101
00000000
00000100
00000010
00000000
00000010
00001000
00000000
00000002
00000000
00000000
00000000
00001003
00000000
00000000
00000000
,
00001100
00000000
00000100
00000010
00000000
00000010
00000001
00000000
00002000
00000000
00000000
00000000
00003001
00000000
00000000
00000000
,
00010100
00000000
00000000
00001000
00010000
00000000
00000100
00001000
00000000
00001000
00000010
00000000
00000100
00000000
00000001
00000000
,
00001000
00000000
00000000
00000100
00000010
00000000
00000001
00001000
00000001
00000000
00000100
00000010
00001000
00000000
00000001
00000000
,
00001001
00000000
00000001
00000100
00000000
00000000
00001001
00000000
00000001
00000100
00000010
00001000
00000000
00000000
00000001
00001000
,
00000001
00000000
00001000
00000100
00000000
00000000
00001001
00000000
00001000
00000100
00000010
00000001
00000000
00001000
00000000
00000010
,
00000200
00000000
00000000
00000000
00000301
00000000
00001000
00000100
00001000
00000000
00000100
00010000
00000100
00000000
00010000
00000000
,
00002000
00000000
00000000
00000000
00103000
00000000
00001000
00010000
00001000
00000000
01000000
00020000
00000000
00000000
10030000
00100000
,
10000000
00000000
00010000
02000000
00000000
00000000
03100000
00000000
10000000
01000000
10000000
00020000
00000000
00000000
00130000
01000000
,
00100000
00000000
00010000
20000000
00000000
00000000
30100000
00000000
01000000
00010000
01000000
00100000
00000000
10000000
00000000
01000000
,
00200000
00000000
00000000
00000000
00310000
00000000
00000000
10000000
00000000
00000000
00100000
00000000
01000000
00000000
00100000
00000000
,
10000000
00000000
00000000
00000000
01000000
00100000
00000000
00100000
00000000
00000000
00010000
00000000
10000000
00000000
01000000
00000000
,
00100000
00000000
00000000
00000000
00010000
00000000
00000000
00010000
00000000
00000000
00100000
00000000
00000000
00000000
00001000
00000000
,
00010000
00000000
00000000
00000000
00000100
00000000
00000000
00000100
00000000
00000000
00010000
00000000
00001000
00000000
00100000
00000000
,
00001000
00010000
00000000
00000000
00011000
00000000
00000000
00001000
00000000
00000000
00010000
00000000
00000100
00000000
00001000
00000000
,
00000010
00000100
00000000
00000100
00000000
00000100
00000010
00000000
00000000
00001000
00000010
00000000
00001000
00000000
00000001
00000000
,
00000200
00000310
00002000
00003100
,
00000020
00000000
00000031
00000010
00000100
00001000
00000010
00000100
,
00002000
00000000
00003100
00000001
00001000
00000100
00010000
00001000
,
00200000
00000000
00310000
00000000
10000000
00100000
01000000
00000000
,
01010000
00000000
00000000
01000000
00100000
00000000
00000000
00100000
20000000
00000000
00000000
00000000
30010000
00000000
00000000
00000000
,
10000000
01000000
00100000
00010000
01000000
00100000
01000000
00010000
,
00200000
00000000
00301000
00010000
00100000
10000000
01000000
00100000
,
00020000
00000000
00000000
00000000
00030000
00000000
10000000
00000000
01000000
00000000
00000000
00100000
00000000
00000000
00001000
00000000
,
00020000
00000000
00000000
00030200
00000000
00000000
00001300
00000010
,
00000200
00000000
00000000
00000302
00000000
00000000
00001003
00000100
,
00010000
00000000
00000000
00001000
00100000
00000000
00000000
00001000
00100000
00000000
00000000
00000000
00011000
00000000
00000000
00000000
,
00000100
00000000
00000000
00010000
00001000
00000000
00000000
00010000
00001000
00000000
00000000
00000000
00010100
00000000
00000000
00000000
,
00002000
00000000
00003010
00000100
00000001
00000010
00000100
00001000
,
00000002
00000000
00001003
00000100
00020000
00000000
00030000
00000000
,
00101000
00000000
00000000
00010000
00001000
00000000
00100000
00010000
00000000
00010000
01000000
00000000
00100000
00000000
10000000
00000000
,
00010000
00000000
00000000
00100000
01000000
00000000
10000000
00010000
10000000
00000000
00100000
01000000
00010000
00000000
10000000
00000000
,
10010000
00000000
10000000
00100000
00000000
00000000
10010000
00000000
10000000
00100000
01000000
00010000
00000000
00000000
10000000
00010000
,
10000000
00000000
00010000
00100000
00000000
00000000
10010000
00000000
00010000
00100000
01000000
10000000
00000000
00010000
00000000
01000000
,
00200000
00000000
00000000
00000000
10300000
00000000
00010000
00100000
00010000
00000000
00100000
00001000
00100000
00000000
00001000
00000000
,
00020000
00000000
00000000
00000000
00030100
00000000
00010000
00001000
00010000
00000000
00000010
00002000
00000000
00000000
00003001
00000100
,
00000001
00000000
00001000
00000020
00000000
00000000
00000130
00000000
00000001
00000010
00000001
00002000
00000000
00000000
00003100
00000010
,
00000100
00000000
00001000
00000002
00000000
00000000
00000103
00000000
00000010
00001000
00000010
00000100
00000000
00000001
00000000
00000010
,
00000200
00000000
00000000
00000000
00001300
00000000
00000000
00000001
00000000
00000000
00000100
00000000
00000010
00000000
00000100
00000000
,
00000001
00000000
00000000
00000000
00000010
00000100
00000000
00000100
00000000
00000000
00001000
00000000
00000001
00000000
00000010
00000000
,
00000100
00000000
00000000
00000000
00001000
00000000
00000000
00001000
00000000
00000000
00000100
00000000
00000000
00000000
00010000
00000000
,
00001000
00000000
00000000
00000000
00100000
00000000
00000000
00100000
00000000
00000000
00001000
00000000
00010000
00000000
00000100
00000000
,
00010000
00001000
00000000
00000000
00011000
00000000
00000000
00010000
00000000
00000000
00001000
00000000
00100000
00000000
00010000
00000000
,
01000000
00100000
00000000
00100000
00000000
00100000
01000000
00000000
00000000
00010000
01000000
00000000
00010000
00000000
10000000
00000000
,
00100000
01000000
00100000
01000000
00100000
01000000
00010000
10000000
00000000
00000000
00000000
00000000
00000000
00000000
00000000
00000000
;

//---------------dance-single - ----------------
#NOTEDATA:;
#CHARTNAME:;
#STEPSTYPE:dance-single;
#DESCRIPTION:;
#CHARTSTYLE:;
#DIFFICULTY:Medium;
#METER:5;
#RADARVALUES:0.345580,0.404166,0.187189,0.381578,0.000000,257.000000,26.000000,53.000000,0.000000,0.000000,0.000000,0.000000,0.000000,0.345580,0.404166,0.187189,0.381578,0.000000,257.000000,26.000000,53.000000,0.000000,0.000000,0.000000,0.000000,0.000000;
#CREDIT:Ben Speirs;
#NOTES:
0000
0000
0000
0000
,
0000
0000
0000
0000
,
0000
0000
0000
0000
,
0000
0000
0000
0000
,
1000
0000
0010
0100
0002
0000
1003
0000
,
0001
0000
1000
0100
0010
0000
0001
1000
,
0020
0000
0230
0000
0302
0000
1003
0100
,
2000
0000
3000
0000
0001
1000
0010
0000
,
0101
0000
0100
0010
0100
0000
0001
0000
,
2000
0000
3100
0010
0002
0000
0003
0000
,
2000
0000
3001
0100
0002
0000
0003
0000
,
2000
0000
3010
0100
0020
0000
0030
0000
,
0201
0320
2030
3001
,
1000
0100
0010
0001
0200
0000
0300
0000
,
0020
0000
1000
1030
,
0002
0000
0010
0013
,
0001
0000
1000
0000
0010
0000
0100
0010
,
2000
0000
3000
0000
,
0200
0010
0310
0110
,
0002
0100
0103
0101
,
2001
0000
3000
0000
0010
0100
0001
0000
,
2001
0000
3000
0000
0100
0010
0001
0000
,
1000
0100
1000
0001
1000
0000
1100
0000
,
0001
0100
0001
1000
0001
0000
0101
0000
,
2002
0000
3003
0000
0010
1000
0010
0010
,
0200
0302
1003
0000
,
0021
0000
0230
0000
1300
0001
1000
0000
,
0010
0100
0010
0100
0010
1000
0001
0010
,
0200
1300
0000
0001
,
1000
0000
0010
0100
0010
0000
1000
0000
,
0200
0000
0310
0000
0010
0000
0001
1000
,
0020
0000
0130
0000
0100
0001
1000
0001
,
0000
1100
0101
1001
,
0010
0000
1000
0001
0100
0000
1001
0000
,
0020
0000
0000
1000
,
0230
0000
0000
0301
,
1000
0000
0001
0000
0010
0001
1000
0000
,
0010
1000
0001
0000
0100
0000
0000
0000
,
0002
0000
0000
0100
,
2003
0000
0000
3100
,
0001
0000
1000
0000
0010
1000
0001
0000
,
0010
0000
0000
0000
0001
1000
0001
1000
,
0200
0010
0310
0001
,
2000
0010
3010
0000
,
0101
0000
1000
0100
2000
0000
3000
0000
,
0101
0000
1000
0100
2000
0000
3000
0000
,
0020
0000
2030
0000
3001
0010
0100
1000
,
0020
0100
0130
0000
,
1002
0000
0003
0000
0100
0010
1000
0000
,
1002
0000
0003
0000
0010
0100
1000
0000
,
0001
0010
0001
1000
0001
0000
0011
0000
,
1000
0010
1000
0001
1000
0000
1010
0000
,
2002
0000
3003
0000
0100
0001
0100
0100
,
0020
2030
3001
0000
,
1200
0000
0320
0000
0031
1000
0001
0000
,
0100
0010
0100
0010
0100
0001
1000
0100
,
0020
0031
0000
1000
,
0001
0000
0100
0010
0100
0000
0001
0000
,
0020
0000
0130
0000
0100
0000
1000
0001
,
0200
0000
0310
0000
0010
1000
0001
1000
,
0000
0011
1010
1001
,
0100
0000
0001
1000
0010
0000
1001
0000
,
0100
0001
0100
0010
0000
0000
0000
0000
;

//---------------dance-single - ----------------
#NOTEDATA:;
#CHARTNAME:;
#STEPSTYPE:dance-single;
#DESCRIPTION:;
#CHARTSTYLE:;
#DIFFICULTY:Easy;
#METER:3;
#RADARVALUES:0.190275,0.224087,0.043197,0.115193,0.000000,163.000000,6.000000,16.000000,0.000000,0.000000,0.000000,0.000000,0.000000,0.190275,0.224087,0.043197,0.115193,0.000000,163.000000,6.000000,16.000000,0.000000,0.000000,0.000000,0.000000,0.000000;
#CREDIT:Ben Speirs;
#NOTES:
0000
0000
0000
0000
,
0000
0000
0000
0000
,
0000
0000
0000
0000
,
0000
0000
0000
0000
,
0100
0100
0010
0000
,
1000
1000
0100
0000
,
1000
0010
0100
0001
,
1000
0000
0001
0000
,
0010
0010
0001
0000
,
1000
1000
0010
0000
,
0100
0100
0100
0001
,
0010
0010
0010
0000
,
0001
0001
1000
0000
,
1000
1000
0010
0000
,
0200
0300
0100
0100
,
0020
0030
0010
0010
,
2000
3000
0002
0003
,
0200
0000
0300
0000
,
0002
0003
0001
0001
,
0020
0030
0010
0000
,
1001
0000
1000
0100
,
0010
0000
0001
0000
,
0100
0100
0010
0010
,
0100
0100
0010
0010
,
1001
0000
0001
0010
,
0100
0000
1000
0001
,
0100
0100
0010
0010
,
0100
0100
0010
0010
,
1001
0000
1000
0000
,
0010
0000
0100
0100
,
0001
0000
1000
0001
,
1000
0000
0010
0010
,
0100
0000
0001
0000
,
1000
0100
0010
0000
,
0002
0000
0003
0000
,
2000
0000
3000
0000
,
0010
0000
0010
0000
,
1000
0100
0010
0000
,
0200
0000
0000
0300
,
2000
0000
0000
3000
,
0010
0010
0100
0100
,
0001
0000
1000
0000
,
0010
0010
0010
0000
,
0100
0100
0100
0000
,
0002
0003
2000
3000
,
0020
0030
0200
0300
,
0001
0001
0100
0100
,
0020
0000
0000
0030
,
1001
0000
0001
0010
,
0100
0000
1000
0000
,
0010
0010
0100
0100
,
0010
0010
0100
0100
,
1001
0000
1000
0100
,
0010
0000
0001
1000
,
0010
0010
0100
0100
,
0010
0010
0100
0100
,
1001
0000
0001
0000
,
0100
0000
0010
0010
,
1000
0000
0001
1000
,
0001
0000
0100
0100
,
0010
0000
1000
0000
,
0001
0010
0100
0000
,
1000
0001
0000
0000
;

//---------------dance-single - ----------------
#NOTEDATA:;
#CHARTNAME:;
#STEPSTYPE:dance-single;
#DESCRIPTION:;
#CHARTSTYLE:;
#DIFFICULTY:Beginner;
#METER:1;
#RADARVALUES:0.111079,0.156231,0.050397,0.000000,0.000000,101.000000,7.000000,0.000000,0.000000,0.000000,0.000000,0.000000,0.000000,0.111079,0.156231,0.050397,0.000000,0.000000,101.000000,7.000000,0.000000,0.000000,0.000000,0.000000,0.000000,0.000000;
#CREDIT:Ben Speirs;
#NOTES:
0000
0000
0000
0000
,
0000
0000
0000
0000
,
0000
0000
0000
0000
,
0000
0000
0000
0000
,
0100
0000
0000
0000
,
0010
0000
0010
0000
,
1000
0000
0000
0000
,
0001
0000
0000
0000
,
0100
0000
0100
0000
,
0010
0000
0010
0000
,
1000
1000
0000
0000
,
0001
0001
0000
0000
,
0100
0000
0100
0000
,
0010
0000
0010
0000
,
1000
0000
0000
0000
,
0001
0000
0000
0000
,
0010
0000
0010
0000
,
0010
0000
0000
0000
,
0001
0000
0000
0000
,
1000
0000
0000
0000
,
0110
0000
0000
0000
,
0010
0000
0010
0000
,
0001
0001
0000
0001
,
0001
0000
1000
0000
,
1001
0000
0000
0000
,
0100
0000
0100
0000
,
0010
0010
0000
0010
,
0010
0000
1000
1000
,
1000
0000
0000
0000
,
0001
0000
1000
0000
,
0010
0000
0000
0000
,
0100
0000
0100
0000
,
1001
0000
0000
0000
,
0001
0000
1000
0000
,
0010
0000
0000
0100
,
0100
0000
0000
0000
,
0001
0000
1000
0000
,
0010
0000
0010
0000
,
1000
0000
0000
0001
,
0001
0000
0000
0000
,
0100
0000
0100
0000
,
0001
0000
1000
0000
,
0010
0010
0000
0000
,
1000
1000
0000
0000
,
0001
0000
0001
0000
,
1000
0000
1000
0000
,
0010
0010
0000
0000
,
0100
0000
0000
0000
,
0110
0000
0000
0000
,
1000
0000
1000
0000
,
0010
0010
0000
0010
,
0010
0000
0100
0000
,
1001
0000
0000
0000
,
0001
0000
0000
0000
,
0010
0010
0000
0010
,
0010
0000
0100
0000
,
1001
0000
0000
0000
,
1000
0000
0001
0000
,
0100
0000
0000
0000
,
0010
0010
0010
0000
,
0110
0000
0000
0000
,
1000
0000
0001
0000
,
0100
0000
0000
0000
;
