#VERSION:0.83;
#TITLE:Break Your Heart;
#SUBTITLE:;
#ARTIST:Taio Cruz;
#TITLETRANSLIT:;
#SUBTITLETRANSLIT:;
#ARTISTTRANSLIT:;
#GENRE:;
#ORIGIN:;
#CREDIT:;
#BANNER:Break Your Heart.png;
#BACKGROUND:Break Your Heart-bg.png;
#PREVIEWVID:;
#JACKET:jacket.png;
#CDIMAGE:;
#DISCIMAGE:;
#LYRICSPATH:;
#CDTITLE:;
#MUSIC:Break Your Heart.ogg;
#OFFSET:-0.792000;
#SAMPLESTART:110.941223;
#SAMPLELENGTH:13.994001;
#SELECTABLE:YES;
#BPMS:0.000=122.000;
#STOPS:;
#DELAYS:;
#WARPS:;
#TIMESIGNATURES:0.000=4=4;
#TICKCOUNTS:0.000=4;
#COMBOS:0.000=1;
#SPEEDS:0.000=1.000=0.000=0;
#SCROLLS:0.000=1.000;
#FAKES:;
#LABELS:0.000=Song Start;
#BGCHANGES:7.500=Break Your Heart.avi=1.000=0=0=1=====,
99999=-nosongbg-=1.000=0=0=0 // don't automatically add -songbackground-
;
#KEYSOUNDS:;
#ATTACKS:
;

//---------------dance-single - ----------------
#NOTEDATA:;
#CHARTNAME:;
#STEPSTYPE:dance-single;
#DESCRIPTION:;
#CHARTSTYLE:;
#DIFFICULTY:Hard;
#METER:7;
#RADARVALUES:0.368155,0.399553,0.133419,0.308969,0.077242,367.000000,348.000000,19.000000,44.000000,0.000000,0.000000,0.000000,0.000000,0.000000,0.368155,0.399553,0.133419,0.308969,0.077242,367.000000,348.000000,19.000000,44.000000,0.000000,0.000000,0.000000,0.000000,0.000000;
#CREDIT:Ben Speirs;
#NOTES:
0000
0000
0000
0000
,
0000
0000
0000
0000
,
0000
0000
0000
0000
,
0000
0000
0000
0000
,
0000
1000
0000
0010
,
0000
1000
0000
0001
,
0000
0010
0000
0001
,
0000
0000
0100
0000
0010
1000
1100
0000
,
0001
1000
0001
0000
0100
0000
0100
0010
,
1000
0000
0001
0000
1000
0100
0010
0001
,
2000
0000
3100
0000
1000
0001
1000
0000
,
0001
1000
0010
0000
0100
0100
0001
0000
,
1000
0001
1000
0000
0010
0000
0010
0100
,
0001
0000
1000
0000
0001
0010
0100
1000
,
0002
0000
0013
0000
0001
1000
0001
0000
,
1000
0001
0100
0000
0010
1000
0001
1000
,
0200
0000
0310
0001
0200
0000
0310
1000
,
0200
0000
0310
0000
0010
0001
1000
0001
,
0020
0000
0130
1000
0020
0000
0130
0001
,
0020
0000
0130
0000
0010
0100
0010
0100
,
2000
0000
3100
1000
0002
0000
0103
0001
,
2000
0000
3100
0000
1000
0001
1000
0010
,
0010
0010
0100
0000
0001
1000
0001
0100
,
0100
0100
0010
0000
0110
0000
1001
0000
,
1000
0000
0000
0010
0000
0000
0100
0000
0100
0000
0000
0001
0000
0000
0010
0000
,
0200
0000
1300
0000
0100
1000
0010
0000
,
1000
0000
0000
0001
0000
0000
0100
0000
0100
0000
0000
0001
0000
0000
0010
0000
,
0020
0000
0130
0000
0010
0001
1000
0001
,
0100
0000
0000
0100
0000
0000
0010
0000
1000
0000
0000
1000
0000
0000
0001
0000
,
0200
0000
0310
0000
0100
0001
1000
0001
,
0010
0000
0000
0010
0000
0000
0100
0000
1000
0000
0000
1000
0000
0000
0001
0000
,
0200
0000
0310
0000
0100
0001
0010
0100
,
2000
0000
3100
0010
0002
0000
0103
0001
,
2000
0000
3010
0000
1000
0100
0010
0001
,
0200
0000
0310
0100
0002
0000
0013
0001
,
2000
0000
3100
0000
1000
0010
0100
0001
,
2000
0000
3100
0020
0001
0000
0130
2000
,
0001
0000
3100
0000
1000
0010
0100
0001
,
0020
0000
0130
0010
0002
0000
0103
0020
,
1000
0000
0130
0000
0010
0100
0001
0000
,
2000
0000
3100
0000
,
0000
0000
1000
0100
0000
1000
0001
0000
1001
0000
0000
0000
0000
0000
0000
0000
,
0001
0100
0001
0000
1010
0000
0000
0000
,
0000
0000
0001
0100
0000
0001
1000
0000
0001
0000
0010
0000
0100
0000
1000
0000
,
0002
0000
0103
0000
,
0000
0000
0001
0100
0000
0001
1000
0000
1001
0000
0001
0000
0000
0000
0000
0000
,
1000
0100
1000
0000
0011
0000
0000
0000
,
0100
0100
0100
0000
,
0110
1001
0000
1100
,
0000
0101
0000
1010
,
0000
1001
0000
0011
,
0000
0101
0000
1100
,
0020
0130
0200
0301
,
0002
0000
0013
0000
0010
0100
0010
0000
,
0200
1300
2000
3010
,
0020
0000
0130
0000
0001
1000
1001
0000
,
0101
0000
0000
0100
0000
0000
0010
0000
0010
0000
0000
1000
0000
0000
0100
0000
,
0200
0000
0310
0000
0010
0001
1000
0000
,
1000
0000
0000
0100
0000
0000
0010
0000
0010
0000
0000
0001
0000
0000
0100
0000
,
0200
0000
0310
0000
0100
0001
1000
0000
,
0001
0000
0000
0100
0000
0000
0010
0000
0010
0000
0000
1000
0000
0000
0100
0000
,
0200
0000
0310
0000
0100
0010
0001
0000
,
0010
0000
0000
0001
0000
0000
0100
0000
0100
0000
0000
0001
0000
0000
1000
0000
,
2000
0000
3100
0000
1000
0100
0010
0001
,
0100
0010
0100
0010
1000
0010
1000
0100
,
2000
0000
3100
0000
1000
0001
0100
0000
,
0001
0100
0001
1000
0001
1000
0001
1000
,
0200
0000
0310
0000
0010
0001
1000
0000
,
0100
1000
0100
0010
0100
0010
0100
0010
,
0002
0000
0103
0000
0001
0100
0010
1000
,
0100
0000
0000
0010
0000
0000
0000
2002
,
0000
3003
0000
0000
0000
0000
0000
0000
;

//---------------dance-single - ----------------
#NOTEDATA:;
#CHARTNAME:;
#STEPSTYPE:dance-single;
#DESCRIPTION:;
#CHARTSTYLE:;
#DIFFICULTY:Challenge;
#METER:9;
#RADARVALUES:0.568784,0.574358,0.175551,0.210661,0.305458,567.000000,542.000000,25.000000,30.000000,0.000000,0.000000,0.000000,0.000000,0.000000,0.568784,0.574358,0.175551,0.210661,0.305458,567.000000,542.000000,25.000000,30.000000,0.000000,0.000000,0.000000,0.000000,0.000000;
#CREDIT:Ben Speirs;
#NOTES:
0000
0000
0000
0000
,
0000
0000
0000
0000
,
0000
0000
0000
0000
,
0000
0000
0000
0000
,
2000
0000
3001
0200
1000
0000
0310
2000
,
0100
0000
3001
0000
0000
1000
0100
0010
,
0002
0000
1003
0020
0001
0000
0130
0002
,
0010
0000
1003
0000
0001
0010
0100
1000
,
0001
0100
0001
0000
1000
0000
0010
0000
0100
0000
0001
0000
0100
0000
0100
0000
,
1000
0100
0010
0100
0001
0010
0100
1000
,
0010
0100
0010
0100
0010
0000
0100
0000
0001
0000
0010
0000
0001
0000
0001
0000
,
1000
0000
0001
0000
1000
0000
0001
0000
1000
0200
0000
0000
0310
0000
0001
0000
,
1000
0010
1000
0000
0001
0000
1000
0000
0010
0000
0001
0000
0010
0000
0010
0000
,
0100
0010
1000
0010
0100
0001
0010
0100
,
1000
0001
1000
0001
1000
0000
0001
0000
0100
0000
0010
0000
0100
0000
0100
0000
,
0001
0000
1001
0000
0000
0000
0000
0000
1000
0200
0000
0000
0310
0000
0001
0000
,
1100
0000
0010
1000
0101
0000
0100
0010
,
1001
0000
0000
0000
0001
0000
1000
0000
0010
0100
0001
0000
0010
0000
0100
0000
,
1000
0100
0011
0000
1000
0010
0101
0000
,
0001
0000
0100
0000
1010
0000
0000
0000
0001
0100
0010
0000
1000
0000
0001
0000
,
0010
0100
1001
0000
1000
0100
0011
0000
,
0001
0000
0100
0000
1010
0000
0000
0000
0010
0100
0010
0000
0100
0000
0001
0000
,
0010
0100
1000
0010
0100
0001
0010
0100
,
2000
0000
0000
0000
0100
0000
0000
0000
3001
0200
0000
0000
0310
0000
0010
0000
,
0100
0000
0001
0100
0010
0000
1000
0000
0100
0000
1000
0100
0010
0000
0001
0000
,
2000
0000
3100
1000
0010
0100
0001
0010
,
0100
0000
1000
0100
0010
0000
0001
0000
1000
0000
0010
0100
0001
0000
0010
0000
,
0200
0000
0000
0000
1300
0000
0001
0000
0100
0010
0000
0100
0010
0000
0100
0000
,
0001
0000
0010
0100
1000
0000
0001
0000
1000
0000
0010
0100
0001
0000
1000
0000
,
0002
0000
0013
0001
0100
0010
0100
0001
,
1000
0000
0100
0010
0001
0000
1000
0000
0001
0000
0100
0010
1000
0000
0001
0000
,
2000
0000
0000
0000
3100
0000
1000
0000
0010
0100
0000
0010
0100
0000
0001
0000
,
0010
0000
0100
0000
0010
0001
0010
0000
0100
0000
1000
0000
0010
0100
0010
0000
,
1000
0000
0001
0000
1000
0100
1000
0000
0010
0000
0100
0000
0001
0000
0010
0000
,
0100
0000
1000
0000
0001
0010
0001
0000
0100
0000
0001
0000
1000
0010
1000
0000
,
0100
0000
1000
0000
0010
0100
0010
0000
0100
0000
0001
0000
0010
0000
0100
0000
,
1000
0000
0001
0000
1000
0100
0010
0000
0001
0000
1000
0000
0010
1000
0001
0000
,
1000
0000
0001
0000
0100
0001
0010
0000
0100
0000
0010
0000
0001
0000
0100
0000
,
0010
0000
1000
0000
0010
1000
0100
0000
1000
0000
0001
0000
0100
0001
0010
0000
,
0001
0000
1000
0100
1000
0100
0000
0000
0010
0001
0010
0001
0000
0000
1000
0001
,
2000
0000
3100
0000
0000
0000
1000
0001
1000
0000
0100
0000
0010
0000
0001
0100
,
0001
0000
0010
0100
0000
0100
1000
0000
0010
0100
0010
0000
2000
0000
0000
0000
,
3002
0000
0103
0000
0000
0000
0001
1000
0001
0000
0100
0000
0010
0000
1000
0100
,
1000
0000
0010
0100
0010
0000
0100
0000
0001
0000
1000
0100
0020
0000
0000
0000
,
0032
0000
1003
0000
0000
0000
1000
0100
1000
0000
0010
0000
0100
0000
0001
0000
,
1000
0001
1000
0000
0001
0000
0100
0000
0010
0000
1000
0010
2000
0000
0000
0000
,
3002
0000
0103
0000
0000
0000
0010
0100
0001
0000
1000
0000
0200
0000
0000
0000
,
0320
0000
0031
0000
0000
0000
0000
0000
1000
0001
0000
0000
1001
0000
0000
0000
,
0101
1000
0100
1001
,
0100
1000
0100
1001
,
0010
0110
1000
0010
,
0100
0110
0100
0001
,
1000
0000
0000
1000
0100
0000
0010
0000
0001
0000
0000
0001
0100
0000
0010
0000
,
1000
0000
0001
0000
0100
0010
0100
0000
,
0001
0000
0000
0001
0010
0000
0100
0000
1000
0000
0000
1000
0100
0000
0010
0000
,
0001
0000
1000
0000
0010
0100
1001
0000
,
1100
0000
1000
0100
0010
0100
1000
0000
0101
0000
0001
0100
0010
0100
0001
0000
,
2000
0000
3100
1000
0010
0100
0001
1000
,
1010
0000
1000
0010
0100
0010
1000
0000
0011
0000
0001
0010
0100
0010
0001
0000
,
0200
0000
0310
0100
0001
0010
0100
1000
,
0101
0000
0001
0100
0010
0100
0001
0000
1100
0000
1000
0100
0010
0100
1000
0000
,
0002
0000
0103
0010
1000
0001
0010
0100
,
1001
0000
1000
0001
0100
0001
1000
0000
1001
0000
0001
1000
0100
1000
0001
0000
,
0200
0000
0310
0100
0001
0010
0100
1000
,
0010
0100
0001
0010
0100
1000
0010
0100
,
0001
0000
1000
0100
1000
0100
1000
0000
0001
0100
0001
0100
0001
0000
1000
0000
,
0001
0100
0010
1000
0100
0010
0001
1000
,
0001
0000
1000
0010
1000
0010
1000
0000
0001
0010
0001
0010
0001
0000
1000
0000
,
0001
0100
0010
1000
0100
0010
0001
1000
,
0010
0000
1000
0100
1000
0100
1000
0000
0001
0100
0001
0100
0001
0000
1000
0001
,
0200
0000
0000
2000
0000
3000
0000
0002
,
0000
0303
0000
0000
0000
0000
0000
0000
;

//---------------dance-double - ----------------
#NOTEDATA:;
#CHARTNAME:;
#STEPSTYPE:dance-double;
#DESCRIPTION:;
#CHARTSTYLE:;
#DIFFICULTY:Challenge;
#METER:8;
#RADARVALUES:0.454426,0.524414,0.119374,0.224705,0.157996,453.000000,436.000000,17.000000,32.000000,0.000000,0.000000,0.000000,0.000000,0.000000,0.454426,0.524414,0.119374,0.224705,0.157996,453.000000,436.000000,17.000000,32.000000,0.000000,0.000000,0.000000,0.000000,0.000000;
#CREDIT:Ben Speirs;
#NOTES:
00000000
00000000
00000000
00000000
,
00000000
00000000
00000000
00000000
,
00000000
00000000
00000000
00000000
,
00000000
00000000
00000000
00000000
,
00000000
00010000
00000000
00100000
,
00000000
10000000
00000000
01000000
,
00000000
00010000
00000000
00001000
,
00000000
00000000
00000010
00000000
00000001
00001000
00000001
00000000
,
00000101
00000000
00000100
00000000
00000010
00001000
00000100
00000000
,
00001000
00000100
00000010
00000000
00000001
00000100
00001000
00010000
,
00200000
00000000
10300000
00000000
00010000
10000000
00010000
00000000
,
10000000
01000000
00010000
00000000
01000000
00100000
00010000
00000000
,
00101000
00100000
00001000
00000000
00010100
00000000
00001010
00000000
,
00000100
00000010
00001000
00000001
00000010
00000010
00000100
00000100
,
00002000
00000000
00003001
00000000
00001000
00000100
00000010
00000000
,
00000001
00000000
00001000
00000000
00000010
00000000
00000000
00000000
00000100
00000020
00000000
00000000
00001030
00000000
00000100
00000000
,
00020000
00000000
00031000
00100000
00020000
00000000
01030000
00100000
,
20000000
00000000
00000000
00000000
30010000
00000000
00000000
00000000
10000000
00010000
10000000
00000000
01000000
00000000
00100000
00000000
,
00020000
00000000
01030000
00010000
00200000
00000000
00301000
00100000
,
00000200
00000000
00000000
00000000
00001300
00000000
00000000
00000000
00000010
00001000
00000010
00000000
00001000
00000000
00000001
00000000
,
00000200
00000000
00000310
00001000
00000200
00000000
00000310
00000001
,
00002000
00000000
00000000
00000000
00003001
00000000
00000000
00000000
00001000
00000100
00001000
00000000
00000100
00000000
00010000
00000000
,
00001000
00000000
00100000
00000000
00010000
00000000
00000000
00000000
00100000
00010000
00100000
00000000
00010000
00000000
10000000
00000000
,
00200000
00000000
00000000
00000000
01300000
00000000
00000000
00000000
00100000
01000000
00000000
00000000
10010000
00000000
00000000
00000000
,
11000000
00000000
00000000
10000000
01000000
00000000
00100000
00000000
00010000
00000000
00000000
00010000
01000000
00000000
00001000
00000000
,
00020000
00000000
00030100
00001000
00000010
00000100
00000001
00000010
,
00000100
00000000
00000000
00000100
00001000
00000000
00000010
00000000
00000100
00000000
00000000
00000100
00000010
00000000
00001000
00000000
,
00000200
00000000
00000310
00000001
00001000
00000010
00000100
00000001
,
00001000
00000000
00000000
00001000
00000100
00000000
00010000
00000000
00001000
00000000
00000000
00001000
00100000
00000000
00010000
00000000
,
02000000
00000000
03100000
01000000
00010000
00100000
01000000
10000000
,
00010000
00000000
00000000
00010000
01000000
00000000
00001000
00000000
00010000
00000000
00000000
00010000
00000100
00000000
00001000
00000000
,
00000020
00000000
00000130
00000010
00001000
00000100
00000010
00000001
,
00000200
00000000
00000310
00020000
00001000
00000000
00031000
00100000
,
00020000
00000000
01030000
00100000
10000000
01000000
00100000
00010000
,
20000000
00000000
30100000
02000000
00010000
00000000
03010000
00100000
,
00002000
00000000
00013000
00000000
00001000
00010000
00000100
00001000
,
00000010
00000100
00001000
00000100
00000010
00000100
00000001
00000010
,
00000100
00000010
00001000
00000010
00000100
00001000
00000010
00000100
,
00000001
00001000
00000100
00010000
00001000
00100000
00001000
00010000
,
00100000
10000000
10000000
00010000
01000000
01000000
00100000
10000000
,
02000000
00000000
03100000
00000000
00000000
00000000
00010000
10000000
00010000
00000000
10000000
00000000
00100000
00000000
01000000
00000000
,
00010000
00000000
10000000
01000000
00000000
01000000
00100000
00000000
00010000
00000000
01000000
00000000
00200000
00000000
00000000
00000000
,
00320000
00000000
00031000
00000000
00000000
00000000
00010000
00000100
00010000
00000000
00000100
00000000
00001000
00000000
00000010
00000000
,
00000100
00000000
00000001
00001000
00000000
00000001
00001000
00000000
00000001
00000000
00000100
00000000
00000020
00000000
00000000
00000000
,
00001030
00000000
00000100
00000000
00000000
00000000
00000010
00000001
00000010
00000000
00000001
00000000
00001000
00000000
00000010
00000000
,
00000100
00000000
00000001
00001000
00000000
00001000
00000100
00000000
00001000
00000000
00000100
00000000
00010000
00000000
00000000
00000000
,
00002000
00000000
00103000
00000000
00000000
00000000
00100000
01000000
00100000
00000000
00010000
00000000
20000000
00000000
00000000
00000000
,
30200000
01300000
00000000
00010000
01000000
00000000
10010000
00000000
,
00000000
11000000
00000000
01010000
,
00000000
00001100
00000000
00000101
,
00000000
00000011
00000000
00001010
,
00000000
00110000
00000000
10100000
,
10000000
00000000
00000000
10000000
00000000
00000000
10000000
00000000
00010000
00000000
00000000
00010000
00000000
00000000
00010000
00000000
,
01000000
00000000
00000000
00000000
00010000
01000000
00001000
00010000
,
00000100
00000000
00000000
00000100
00000000
00000000
00000100
00000000
00000010
00000000
00000000
00000010
00000000
00000000
00000010
00000000
,
00000001
00001000
00001010
00000101
,
00001000
00000000
00000000
00001000
00000100
00000000
00000010
00000000
00000001
00000000
00000000
00000001
00000100
00000000
00000010
00000000
,
00001000
00000000
00000001
00000100
00001000
00010000
00100000
10000000
,
00010000
00000000
00000000
00010000
00100000
00000000
01000000
00000000
10000000
00000000
00000000
10000000
00100000
00000000
01000000
00000000
,
00010000
00000000
10000000
01000000
00010000
00001000
00000010
00000001
,
00001000
00000000
00000000
00001000
00000100
00000000
00000010
00000000
00000001
00000000
00000000
00000001
00000100
00000000
00000010
00000000
,
00001000
00000000
00000001
00000010
00001000
00010000
01000000
10000000
,
00010000
00000000
00000000
00010000
01000000
00000000
00100000
00000000
10000000
00000000
00000000
10000000
01000000
00000000
00100000
00000000
,
00010000
00000000
10000000
00100000
01000000
00010000
00100000
01000000
,
10000000
01000000
10000000
00000000
00100000
00000000
01000000
00010000
01000000
00000000
00100000
00000000
10000000
00000000
00010000
10000000
,
00010000
10000000
01000000
00100000
00010000
00001000
00000100
00000010
,
00000001
00001000
00000001
00000000
00000100
00000000
00000010
00001000
00000010
00000000
00000100
00000000
00000001
00001000
00000001
00000000
,
00000100
00000010
00001000
00000100
00000010
00000001
00000100
00001000
,
00010000
00000000
00001000
00000000
00100000
00010000
00100000
00000000
00001000
00000000
00010000
00000000
00000100
00001000
00000100
00000000
,
00010000
00000000
00001000
00000000
00100000
00000000
00010000
00000000
01000000
00000000
00100000
00000000
10000000
01000000
10000000
00000000
,
00020000
00000000
00000000
01000000
00000000
00000000
00000000
00200000
,
00000000
00330000
00000000
00000000
00000000
00000000
00000000
00000000
;

//---------------dance-single - ----------------
#NOTEDATA:;
#CHARTNAME:;
#STEPSTYPE:dance-single;
#DESCRIPTION:;
#CHARTSTYLE:;
#DIFFICULTY:Medium;
#METER:5;
#RADARVALUES:0.246774,0.298612,0.049154,0.168529,0.000000,246.000000,239.000000,7.000000,24.000000,0.000000,0.000000,0.000000,0.000000,0.000000,0.246774,0.298612,0.049154,0.168529,0.000000,246.000000,239.000000,7.000000,24.000000,0.000000,0.000000,0.000000,0.000000,0.000000;
#CREDIT:Ben Speirs;
#NOTES:
0000
0000
0000
0000
,
0000
0000
0000
0000
,
0000
0000
0000
0000
,
0000
0000
0000
0000
,
0000
0010
0000
1000
,
0000
0001
0000
0100
,
0000
0001
0000
1000
,
0000
0100
0000
0010
,
0001
0001
1000
1000
,
0010
0100
0001
0000
,
0100
0100
0010
0010
,
1000
0100
0010
0000
,
0001
0100
0001
0000
1000
0000
1000
0000
,
0100
0010
0001
0000
,
1000
1000
0010
1000
,
0100
0010
0001
0000
,
2000
3000
0002
0003
,
0200
0000
0300
0000
0001
0010
0100
1000
,
0020
0030
2000
3000
,
0002
0000
0003
0000
1000
0100
0010
0001
,
0200
0300
0002
0003
,
2000
3000
0010
0010
,
1000
0100
1000
0000
0010
0000
0010
0000
,
0100
0001
0100
0000
0000
0000
0000
0000
,
1001
1000
0100
0100
,
0010
0000
0001
0000
1000
0010
1000
0000
,
0001
0001
1000
1000
,
0200
0300
0010
0001
,
0100
0100
0010
0010
,
1000
0000
0001
0000
1000
0100
1000
0000
,
0001
0001
0100
0100
,
0020
0030
1000
0100
,
1100
0100
0010
0001
,
1000
0000
0010
0000
0100
0001
0100
0000
,
0101
0100
0010
1000
,
0100
0100
0010
0000
,
1100
0100
1000
0010
,
0100
0001
0100
0000
0001
0000
1000
0000
,
0010
0010
0100
0001
,
1000
1000
0100
0000
,
2000
3000
0100
0000
,
1000
0001
1000
0000
0001
0100
0001
0000
,
1000
0000
0001
0000
,
0100
0010
0100
0000
0010
0100
0010
0000
,
1000
0000
0001
0000
,
1000
0100
1000
0000
0001
0100
0001
0000
,
1000
0000
0000
0000
0010
0100
0010
0000
,
0100
0000
0001
1000
,
0020
0030
0200
0300
,
0002
0003
1000
0001
,
2000
3000
0200
0300
,
0020
0030
0001
1000
,
0020
0030
0200
0300
,
0002
0003
0100
0001
,
2000
3000
0002
0003
,
0200
0300
0000
1001
,
1100
0000
0001
0000
0100
0000
0010
1000
,
0100
0000
1000
0001
,
0010
0000
0001
0000
0100
0000
0010
0100
,
0001
0000
0100
0001
,
1000
0000
0010
1000
0100
0000
1000
0100
,
0010
0000
0100
1000
,
0010
0000
1000
0010
0100
0000
0001
0100
,
0010
0000
0100
0001
,
1000
0100
0010
0001
,
0100
0010
0100
0000
,
0010
0100
0001
0010
,
0100
1000
0001
0000
,
1000
0010
0100
0001
,
0010
0000
0100
0000
1000
0001
1000
0001
,
0100
0000
0000
0010
0000
0000
0000
1001
;

//---------------dance-single - ----------------
#NOTEDATA:;
#CHARTNAME:;
#STEPSTYPE:dance-single;
#DESCRIPTION:;
#CHARTSTYLE:;
#DIFFICULTY:Easy;
#METER:3;
#RADARVALUES:0.162510,0.174190,0.021066,0.077242,0.000000,162.000000,159.000000,3.000000,11.000000,0.000000,0.000000,0.000000,0.000000,0.000000,0.162510,0.174190,0.021066,0.077242,0.000000,162.000000,159.000000,3.000000,11.000000,0.000000,0.000000,0.000000,0.000000,0.000000;
#CREDIT:Ben Speirs;
#NOTES:
// measure 0
0000
0000
0000
0000
,  // measure 1
0000
0000
0000
0000
,  // measure 2
0000
0000
0000
0000
,  // measure 3
0000
0000
0000
0000
,  // measure 4
0000
0001
0000
1000
,  // measure 5
0000
0010
0000
0000
,  // measure 6
0000
1000
0000
0001
,  // measure 7
0000
0100
0000
0000
,  // measure 8
0001
0001
0000
0000
,  // measure 9
0100
0000
0010
0000
,  // measure 10
1000
1000
0000
0000
,  // measure 11
0010
0000
1000
0000
,  // measure 12
0100
0100
0000
0000
0000
0000
0000
0000
,  // measure 13
0010
0000
0010
0000
,  // measure 14
0001
0001
0100
0000
,  // measure 15
0010
0000
1000
0000
,  // measure 16
0002
0003
2000
3000
,  // measure 17
0020
0030
1000
0100
,  // measure 18
0020
0030
0002
0003
,  // measure 19
2000
3000
0001
1000
,  // measure 20
0020
0030
0200
0300
,  // measure 21
0002
0003
0100
0001
,  // measure 22
1000
1000
0000
0000
,  // measure 23
0001
0001
0000
0000
,  // measure 24
1001
0000
1000
0000
,  // measure 25
0010
0000
0100
0001
,  // measure 26
1000
0000
0001
0000
,  // measure 27
0100
0000
0001
1000
,  // measure 28
0100
0000
1000
0000
,  // measure 29
0010
0000
0010
1000
,  // measure 30
0100
0000
1000
0000
,  // measure 31
0001
0000
0000
0000
,  // measure 32
1001
0000
0001
0000
,  // measure 33
0100
0000
0100
0000
,  // measure 34
0010
0000
0010
0000
,  // measure 35
1000
0100
1000
0000
,  // measure 36
0001
0000
1000
0000
,  // measure 37
0010
0100
0010
0000
,  // measure 38
1000
0000
0001
0000
,  // measure 39
1000
0100
1000
0000
,  // measure 40
2002
3003
0001
0000
,  // measure 41
0100
0010
1000
0000
,  // measure 42
0001
0000
1000
0000
,  // measure 43
0100
0010
0001
0000
,  // measure 44
0100
0000
0010
0000
,  // measure 45
1000
0100
1000
0000
,  // measure 46
0010
0000
0100
0001
,  // measure 47
1000
0000
0000
0000
,  // measure 48
0000
0001
0000
0001
,  // measure 49
0000
1000
0000
1000
,  // measure 50
0000
0001
0000
0001
,  // measure 51
0000
1000
0000
1000
,  // measure 52
0010
0010
0100
0100
,  // measure 53
0010
0000
1000
0000
,  // measure 54
0001
0001
1000
1000
,  // measure 55
0001
0000
0100
0000
,  // measure 56
0001
0010
0100
1000
,  // measure 57
0001
0000
0000
0000
,  // measure 58
1000
0100
0010
0001
,  // measure 59
1000
0000
0000
0000
,  // measure 60
0001
0100
0010
1000
,  // measure 61
0001
0000
0000
0000
,  // measure 62
1000
0010
0100
0001
,  // measure 63
1000
0000
0000
0000
,  // measure 64
0100
0000
0100
0000
,  // measure 65
0100
0100
0010
0010
,  // measure 66
0001
0000
0001
0000
,  // measure 67
0001
0001
1000
1000
,  // measure 68
0010
0000
0010
0000
,  // measure 69
0010
0010
1000
1000
,  // measure 70
0100
0000
0000
0100
0000
0000
0000
0100
;

//---------------dance-single - ----------------
#NOTEDATA:;
#CHARTNAME:;
#STEPSTYPE:dance-single;
#DESCRIPTION:;
#CHARTSTYLE:;
#DIFFICULTY:Beginner;
#METER:1;
#RADARVALUES:0.100315,0.147463,0.028088,0.000000,0.000000,100.000000,96.000000,4.000000,0.000000,0.000000,0.000000,0.000000,0.000000,0.000000,0.100315,0.147463,0.028088,0.000000,0.000000,100.000000,96.000000,4.000000,0.000000,0.000000,0.000000,0.000000,0.000000,0.000000;
#CREDIT:Ben Speirs;
#NOTES:
// measure 0
0000
0000
0000
0000
,  // measure 1
0000
0000
0000
0000
,  // measure 2
0000
0000
0000
0000
,  // measure 3
0000
0000
0000
0000
,  // measure 4
0000
1000
0000
1000
,  // measure 5
0000
0000
0000
0000
,  // measure 6
0000
0001
0000
0001
,  // measure 7
0000
0000
0000
0000
,  // measure 8
0100
0000
0100
0000
,  // measure 9
0100
0000
0000
0000
,  // measure 10
0010
0000
0010
0000
,  // measure 11
0010
0000
0000
0000
,  // measure 12
1000
0000
1000
0000
,  // measure 13
1000
0000
0000
0000
,  // measure 14
0001
0000
0001
0000
,  // measure 15
0001
0000
0000
0000
,  // measure 16
0100
0000
0000
0000
,  // measure 17
0001
0000
0001
0000
,  // measure 18
0001
0000
0000
0000
,  // measure 19
1000
0000
1000
0000
,  // measure 20
1000
0000
0000
0000
,  // measure 21
0010
0000
0000
0000
,  // measure 22
0100
0100
0000
0000
,  // measure 23
0100
0100
0000
0000
,  // measure 24
1001
0000
0000
0000
,  // measure 25
0001
0000
0001
0000
,  // measure 26
0001
0000
0000
0000
,  // measure 27
0100
0000
0100
0000
,  // measure 28
0100
0000
0000
0000
,  // measure 29
0010
0000
0000
0000
,  // measure 30
1000
0000
1000
0000
,  // measure 31
1000
0000
0000
0000
,  // measure 32
0001
0000
1001
0000
,  // measure 33
1000
0000
0000
0000
,  // measure 34
1000
0000
1001
0000
,  // measure 35
0001
0000
0000
0000
,  // measure 36
0100
0000
0100
0000
,  // measure 37
0100
0000
0000
0000
,  // measure 38
0010
0000
0010
0000
,  // measure 39
0010
0000
0000
0000
,  // measure 40
1000
0000
0000
0000
,  // measure 41
0100
0100
0100
0000
,  // measure 42
0100
0000
0000
0000
,  // measure 43
0001
0000
0000
0000
,  // measure 44
1000
0000
0000
0000
,  // measure 45
0001
0001
0001
0000
,  // measure 46
0001
0000
0000
0000
,  // measure 47
0100
0000
0000
0000
,  // measure 48
0010
0000
0010
0000
,  // measure 49
0010
0000
0000
0000
,  // measure 50
0010
0000
0010
0000
,  // measure 51
0010
0000
0000
0000
,  // measure 52
1000
0000
1000
0000
,  // measure 53
1000
0000
0000
0000
,  // measure 54
1000
0000
1000
0000
,  // measure 55
1000
0000
0000
0000
,  // measure 56
0001
0000
0000
0000
,  // measure 57
0100
0000
0100
0000
,  // measure 58
0100
0000
0000
0000
,  // measure 59
0001
0000
0001
0000
,  // measure 60
0001
0000
0000
0000
,  // measure 61
1000
0000
1000
0000
,  // measure 62
1000
0000
0000
0000
,  // measure 63
0010
0000
0000
0000
,  // measure 64
0100
0000
0100
0000
,  // measure 65
0100
0000
0000
0000
,  // measure 66
0001
0000
0001
0000
,  // measure 67
0001
0000
0000
0000
,  // measure 68
1000
0000
1000
0000
,  // measure 69
1000
0000
0000
0000
,  // measure 70
1001
0000
0000
0000
;
