#TITLE:The Edge Of Glory;
#ARTIST:Lady Gaga;
#FILE:The Edge Of Glory.mp3;
#BPM:128.000;
#GAP:90;
#SAMPLESTART:51.480;
#SAMPLELENGTH:16.360;
#FREEZE:436.000=-10.000;
#SINGLE:BEGINNER:1:
00000000
00000000
00000000
00000000
80000000
80000000
20000000
20000000
60000000
60000000
40000000
40000000
80008000
80000000
20002000
20000000
60006000
60000000
20002000
20000000
B0000000
20000000
40000000
80808080
80000000
40000000
60000000
B0000000
20200000
20000000
60000000
40000000
80800000
80000000
20000000
60000000
40400000
60600000
20200000
80800000
20000000
60000000
40000000
20000000
40004000
40004000
40000000
00000000
80008000
80008000
80000000
00000000
20002000
20002000
20000000
00000000
60006000
60006000
60000000
00000000
A0000000
;
#SINGLE:ANOTHER:6:
00000000
00000000
00000000
00000000
80206040
40606000
4!40001000
6!60003000
80406040
40202000
40004000
40004000
B0602080
80406040
2!20401080
2!20603020
30802060
40208060
4!40108!80A0
6!60B02040
82604060
82408040
84204060
86208020
6!60203082
8!8020A060
401080A0
646!600026
A0602040
80402060
88602080
44204060
A0408060
20608040
22408020
66806040
A!8020A!2060
3!6040B!4020
1!2080A!8060
9!60006000
A0406080
20408020
88406080
22806040
10108020
A0A08040
B0B08060
90904060
A!20A08040
B!40B08020
3!60308040
1!40108040
3!60B08020
7!40B02080
A!20302080
B!40108460
30106040
B0308040
70106020
30106040
A!A0000A00
;
#SINGLE:MANIAC:10:
00000000
00000000
B!B0000000
000000B0
20642040
84648026!6
0020B064!4
0020B000
80426040
80268028
20004000
80006000
30624020
82846042!2
8060A062!2
8040A020
64246086
42482082
60204080
60204!4074
62304210
84642460
28A06230
84642860
4!40201046
2!2080A082
6!60B!401!2080
A63!3020B0
10308260
86242840
84246824
6!60304286
90702840
24868260
26864286
4!40706824
08420426
02840624
0826082B!B
00B06242
A0306240
84246820
88662846
42860284!4
0746!60382!2
0382!20A64!4
07462820
62420842!2
0168!80948!8
0762!20346!6
03826420
86282640
80304620
80B04280
60104820
62428468
20A06840
60104260
20A04868
42462846
2!2808080A
;
#SINGLE:BASIC:3:
00000000
00000000
00000000
00000000
80002000
60004000
20402000
40604000
80004000
20008000
60206000
40604000
B0002000
80802000
60008000
20402040
20004000
80802000
60004000
80208020
A0006000
40002040
80004000
60002060
80806000
40402000
40006000
20800000
A000A000
40006000
B000B000
20004000
80208020
60206000
40204020
40804000
8!80804!4040
2!20204!4040
6!60608!8080
B!B0B00000
80004000
60004000
20208080
20000000
B0002000
60002000
40002000
60002000
B0008000
40008000
60008000
40008000
B0004020
40008020
80002060
20008000
B0002060
20008020
80004080
40006040
20000000
;
