#VERSION:0.83;
#TITLE:Nobody Speak;
#SUBTITLE:;
#ARTIST:DJ Shadow feat. Run The Jewels;
#TITLETRANSLIT:;
#SUBTITLETRANSLIT:;
#ARTISTTRANSLIT:;
#GENRE:;
#ORIGIN:;
#CREDIT:;
#BANNER:Nobody Speak.png;
#BACKGROUND:Nobody Speak-bg.png;
#PREVIEWVID:;
#JACKET:jacket.png;
#CDIMAGE:;
#DISCIMAGE:;
#LYRICSPATH:;
#CDTITLE:;
#MUSIC:Nobody Speak.ogg;
#OFFSET:0.020000;
#SAMPLESTART:93.353249;
#SAMPLELENGTH:14.694003;
#SELECTABLE:YES;
#BPMS:0.000=160.000;
#STOPS:297.000=0.563;
#DELAYS:;
#WARPS:;
#TIMESIGNATURES:0.000=4=4;
#TICKCOUNTS:0.000=4;
#COMBOS:0.000=1;
#SPEEDS:0.000=1.000=0.000=0;
#SCROLLS:0.000=1.000;
#FAKES:;
#LABELS:0.000=Song Start;
#BGCHANGES:3.667=Nobody Speak.avi=1.000=0=0=1=====,
99999=-nosongbg-=1.000=0=0=0 // don't automatically add -songbackground-
;
#KEYSOUNDS:;
#ATTACKS:
;

//---------------dance-single - ----------------
#NOTEDATA:;
#CHARTNAME:;
#STEPSTYPE:dance-single;
#DESCRIPTION:;
#CHARTSTYLE:;
#DIFFICULTY:Hard;
#METER:8;
#RADARVALUES:0.521612,0.612872,0.221538,0.082051,0.000000,445.000000,418.000000,27.000000,10.000000,0.000000,0.000000,0.000000,0.000000,0.000000,0.521612,0.612872,0.221538,0.082051,0.000000,445.000000,418.000000,27.000000,10.000000,0.000000,0.000000,0.000000,0.000000,0.000000;
#CREDIT:Ben Speirs;
#NOTES:
0000
0000
0000
0000
,
0000
0000
0000
0000
,
0000
0000
0000
0000
,
0000
0000
0000
0000
,
0000
0000
0000
0000
0010
1000
0100
0000
,
1000
0001
1000
0000
0100
0000
1000
0001
,
1000
0001
0100
0000
0001
0010
0100
0000
,
0010
0000
0001
1000
0001
1000
0100
0000
,
0010
0001
0100
0000
0001
1000
0001
0000
,
1000
0100
1000
0100
1000
0001
1000
0000
,
0001
0100
0001
0000
1000
0000
0010
1000
,
0100
0100
0010
0001
0010
0000
0010
0001
,
0100
0100
0010
1000
0010
0000
1100
0000
,
0001
0000
1000
0000
0010
0100
0001
0000
,
0010
0100
1000
0000
0001
1000
0001
0000
,
0100
0000
0010
0000
1000
0100
0010
0000
,
0001
1000
0010
0000
0100
0001
2001
0000
,
3100
0000
1000
0000
0010
1000
0100
0000
,
0010
0001
0100
0000
0001
0000
0100
0100
,
0010
1000
0001
1000
0001
0000
0010
0010
,
0001
1000
0001
1000
0100
0000
1010
0000
,
0100
1000
0001
0100
,
0010
0100
0001
0000
0010
0100
1000
0000
,
0001
1000
0010
0100
,
0100
0000
0001
0000
0100
0010
1000
0000
,
0001
0000
1000
0000
0100
0010
0001
0000
,
0010
0100
1000
0000
0001
1000
0001
0001
,
0100
0010
0100
0001
0010
0100
1000
1000
,
0100
1000
0010
0100
0001
1000
0000
0000
,
0000
0000
0000
0000
,
0000
0000
0000
0000
,
0000
0000
0000
0000
,
0000
0000
0000
0000
,
0000
0000
0101
1001
,
0010
0000
1000
0100
1000
0001
0100
0010
,
0100
0002
0010
0013
0110
0000
0011
0000
,
1001
1000
0100
1000
0001
0100
0010
1000
,
0001
2000
0100
3100
0110
0000
0011
0000
,
0010
0001
1000
0001
0100
0010
0010
0100
,
0001
0010
0200
0000
1300
0001
1000
0100
,
0010
0001
1000
0001
1000
0010
0100
0001
,
0010
0100
1000
0000
1100
0000
0101
0000
,
1001
0000
0001
0010
0100
0000
1000
0010
,
0100
0010
1010
0011
,
0101
1100
1001
0110
,
2002
0000
3003
0000
0001
0100
1000
0000
,
0100
1000
0100
0000
0010
0100
1000
0100
,
0001
1000
0001
0000
1000
0100
0010
0001
,
0010
0100
1000
0001
0100
0010
1000
0010
,
0100
0001
1000
0000
0001
0100
0010
0000
,
1010
0000
1100
0000
1000
0100
0010
0000
,
0011
0000
0101
0000
0100
0001
0010
0000
,
0100
1000
0010
0000
0100
0010
0100
0010
,
1000
0001
0010
0100
2000
0000
0100
0000
,
3001
0000
1000
0100
1000
0001
0100
0010
,
1000
0000
0001
0100
0002
0000
0100
0000
,
0013
0000
0001
2000
0100
0000
0010
0000
,
3001
0000
1001
0000
,
0000
0000
0000
0000
,
0000
0000
0000
0000
,
0000
0000
0000
0000
,
0000
0000
0000
0000
,
0000
0000
0001
0010
0100
0010
0001
0100
,
0010
0100
1000
0100
0010
1000
0100
1000
,
0010
0100
0001
0010
0100
0010
0001
0100
,
0010
1000
0100
1000
0010
0100
0001
0100
,
0010
1000
0101
0010
1000
0001
0010
0100
,
0010
0001
0100
0010
1000
0100
1000
0010
,
0100
0001
0010
0100
0010
0001
1000
0010
,
1000
0001
0010
0100
1000
0001
0100
0010
,
1000
0010
1100
1000
0010
0100
0001
0010
,
0100
0010
0001
0100
0010
1000
0001
1000
,
0010
0100
0001
0010
0100
0010
0001
1000
,
0010
0100
0001
1000
0010
1000
0001
0010
,
0100
1000
0001
1000
0010
0100
0100
0001
,
0010
0100
0100
0010
0001
1000
0001
0100
,
0010
1000
0001
1000
0100
0010
0001
1000
,
0001
1000
0010
0100
0001
0010
0100
2000
,
0000
0100
0000
0100
0000
3100
0000
0000
;

//---------------dance-single - ----------------
#NOTEDATA:;
#CHARTNAME:;
#STEPSTYPE:dance-single;
#DESCRIPTION:;
#CHARTSTYLE:;
#DIFFICULTY:Challenge;
#METER:10;
#RADARVALUES:0.613040,0.806410,0.246154,0.090256,0.397949,523.000000,493.000000,30.000000,11.000000,0.000000,0.000000,0.000000,0.000000,0.000000,0.613040,0.806410,0.246154,0.090256,0.397949,523.000000,493.000000,30.000000,11.000000,0.000000,0.000000,0.000000,0.000000,0.000000;
#CREDIT:Ben Speirs;
#NOTES:
0000
0000
0000
0000
,
0000
0000
0000
0000
,
0000
0000
0000
0000
,
0000
0000
0000
0000
,
0000
0000
0000
0000
0100
0001
0010
0000
,
0001
1000
0001
0001
0010
0000
0001
1000
,
0001
1000
0010
0000
1000
0100
0010
0000
,
0100
0100
1000
0001
1000
0001
0010
0000
,
0100
1000
0010
0000
1000
0001
1000
0000
,
0001
0010
0001
0010
0001
1000
0001
0000
,
1000
0010
1000
0000
0001
0001
0100
0001
,
0010
0010
0100
1000
0100
0000
0100
1000
,
0010
0010
0100
0001
0100
0000
0011
0000
,
2000
0100
3001
0001
0100
0010
1000
1000
,
0100
0010
0001
0000
1000
0001
1000
0000
,
0010
0010
0100
0100
0001
0010
0100
0000
,
1000
0001
0101
0000
0010
1000
1002
0010
,
0013
0001
0001
0100
0100
0001
0010
0000
,
0100
1000
0010
0000
1000
1000
0010
0010
,
0100
0001
1000
0001
1000
0000
0100
0100
,
1000
0001
1000
0001
0010
0000
0101
0000
,
0010
0010
0001
0001
2000
0000
3010
0000
,
0100
0010
1000
0000
0100
0010
0001
0000
,
1000
1000
0001
0001
0100
0100
0010
0000
,
1000
0001
1000
0000
0010
0100
0001
0000
,
1000
1000
0001
0001
0010
0100
1000
0000
,
0100
0010
0001
0000
1000
0001
1000
1000
,
0010
0100
0010
1000
0100
0010
0001
0001
,
0010
0001
0100
0010
1000
0001
0000
0000
,
0000
0000
0000
0000
,
0000
0000
0000
0000
,
0000
0000
0000
0000
,
0000
0000
0000
0000
,
0000
0000
1010
1001
,
0100
0000
0001
0010
0001
1000
0010
0100
,
0010
2000
0100
3100
0110
0000
1100
0000
,
1001
0001
0010
0001
1000
0010
0100
0001
,
1000
0002
0010
0013
0110
0000
1100
0000
,
0100
1000
0001
1000
0010
0100
0100
0010
,
1000
0100
0020
0000
0031
1000
0001
0010
,
0100
1000
0001
1000
0001
0100
0010
1000
,
0100
0010
0001
0000
0011
0000
1010
0000
,
1001
0000
1000
0100
0010
0010
0001
0100
,
0010
0010
0100
0000
0101
0000
1100
0000
,
1010
0011
1001
0110
,
2002
0000
3003
0000
1000
0010
0001
0000
,
0010
0001
0010
0000
0100
0010
0001
0010
,
1000
0001
1000
0000
0001
0010
0100
1000
,
0100
0010
0001
1000
0010
0100
0001
0100
,
0010
1000
0001
0000
1000
0010
0100
0000
,
0101
0001
0011
0000
0001
0010
0100
0000
,
1100
1000
1010
0000
0010
1000
0100
0000
,
0010
0001
0100
0000
0010
0100
0010
0100
,
0001
1000
0100
0010
0002
0010
0010
1000
,
1003
0001
0001
0010
0001
1000
0010
0100
,
0001
0001
1000
0010
2000
0010
0010
0100
,
3100
1000
1000
0002
0010
0010
0100
0100
,
1003
1001
0000
0000
0010
0000
0000
0000
,
0000
0000
0000
0000
,
0000
0000
0000
0000
,
0000
0000
0000
0000
,
0000
0000
0000
0000
,
0000
0000
0000
1000
0100
1000
0010
0100
0010
1000
0100
1000
,
0001
0100
0001
1000
0100
0010
0001
0010
0100
1000
0010
0100
,
0001
0100
0010
1000
0100
1000
0001
0010
0001
1000
0010
1000
,
0001
0100
0001
1000
0100
0010
0100
0010
0100
0010
0001
0100
,
0010
0100
0010
1000
0010
1000
0001
0010
0001
1000
0100
1000
,
0001
0100
0001
1000
0100
0010
0001
0010
0100
1000
0001
0100
,
0010
1000
0010
0100
0001
0100
0010
0100
0010
1000
0010
0100
,
0010
0100
0010
0100
0001
0100
0010
0100
0010
1000
0010
1000
,
0001
1000
0001
1000
0000
0010
0100
0000
0001
0010
0000
0100
,
1000
0000
0001
0010
0100
0010
0001
0100
0010
1000
0100
1000
,
0010
0100
0001
1000
0000
0010
0100
0000
0001
0010
0000
0100
,
1000
0000
0001
0010
0100
0010
0001
0100
0010
1000
0100
0010
,
0001
0000
1000
0000
0010
0000
0100
0000
0000
0001
0000
0010
0000
0100
0000
1000
0000
0000
0000
0001
0000
1000
0000
0001
,
0000
1000
0000
0010
0000
0000
0000
0100
0000
0010
0000
0100
0000
0001
0000
1000
0000
0000
0000
0010
0000
0100
0000
0000
,
0001
0100
0010
1000
0000
0001
0010
0100
,
1000
0010
0000
0100
0001
0100
0010
1001
,
0000
0110
0000
1001
0000
0110
0000
0000
;

//---------------dance-double - ----------------
#NOTEDATA:;
#CHARTNAME:;
#STEPSTYPE:dance-double;
#DESCRIPTION:;
#CHARTSTYLE:;
#DIFFICULTY:Challenge;
#METER:8;
#RADARVALUES:0.546227,0.612872,0.328205,0.237949,0.000000,466.000000,426.000000,40.000000,29.000000,0.000000,0.000000,0.000000,0.000000,0.000000,0.546227,0.612872,0.328205,0.237949,0.000000,466.000000,426.000000,40.000000,29.000000,0.000000,0.000000,0.000000,0.000000,0.000000;
#CREDIT:Ben Speirs;
#NOTES:
00000000
00000000
00000000
00000000
,
00000000
00000000
00000000
00000000
,
00000000
00000000
00000000
00000000
,
00000000
00000000
00000000
00000000
,
00000000
00000000
00000000
00000000
00100000
00001000
00010000
00000000
,
00001000
00000100
00001000
00000100
00001000
00000000
00010000
01000000
,
00010000
01000000
00010000
00000000
00001000
00010000
02000000
00000000
,
13000000
00100000
10000000
00010000
10000000
01000000
00100000
00000000
,
00010000
10000000
00010000
00000000
10000000
00100000
02000000
00000000
,
03010000
00100000
00010000
01000000
00010000
00100000
00002000
00000000
,
00013000
00000100
00002000
00000000
00003010
00000100
00001000
00001000
,
00000100
00000010
00001000
00000100
00000010
00000001
00000010
00000010
,
00000100
00000010
00000001
00001000
00000010
00000000
00000101
00000000
,
00000110
00000000
00001001
00000000
00000001
00000010
00001000
00000000
,
00010000
00100000
10000000
00000000
01000000
00000000
11000000
00000000
,
10100000
00000000
01010000
00000000
10000000
01000000
00010000
00000000
,
00001000
00000100
00000001
00000000
00001000
00000001
00002000
00000000
,
00003001
00000010
00000100
00001000
00000010
00000100
00000020
00000000
,
00000130
00000001
00002000
00000000
00003001
00000000
00000100
00000100
,
00000001
00000010
00000100
00001000
00000010
00001000
00000100
00000100
,
00010000
00010000
00001000
00100000
00010000
00000000
00120000
00000000
,
10030000
00000000
20100000
00000000
30010000
10000000
00020000
00000000
,
10030000
01000000
00100000
00010000
01000000
00100000
00020000
00000000
,
00001000
00030100
00010100
00001010
,
00000001
00000010
00000200
00000000
00001300
00000001
00002000
00000000
,
00003001
00000100
00000010
00001000
00000001
00001000
00000200
00000000
,
00000310
00000100
00001000
00000000
00000010
00001000
00000200
00000000
,
00020300
00000000
00032000
00000000
00103000
00010000
00100000
00001000
,
00010000
00000100
00001000
00000000
00000010
00000000
00011000
00000000
,
00000000
00000000
00000000
00000000
,
00000000
00000000
00000000
00000000
,
00000000
00000000
00000000
00000000
,
00000000
00000000
00000000
00000000
,
00000000
00000000
00011000
00101000
,
00120000
00000000
10030000
00010000
10000000
00100000
01000000
00010000
,
10000000
02000000
10000000
13000000
11000000
00000000
01010000
00000000
,
10010000
10000000
00100000
01000000
00010000
00100000
01000000
00100000
,
00010000
02000000
00001000
03001000
01001000
00000000
00011000
00000000
,
00010100
00000100
00001000
00000010
00000100
00000001
00000010
00000100
,
00001000
00000001
00000200
00000000
00000310
00000100
00000001
00000010
,
00000100
00001000
00000001
00001000
00000010
00000100
00000001
00000010
,
00000100
00001000
00000001
00000000
00000001
00000010
00000100
00001000
,
00010000
00100000
01000000
10000000
00010000
00000000
11000000
00000000
,
01010000
00000000
00000000
00000000
10000000
01000000
00100000
00010000
,
00001000
00000100
00000010
00000001
00000101
00000000
00001010
00000000
,
00001001
00000000
00000000
00000000
00000001
00000100
00001000
00000000
,
00000100
00000010
00001000
00000000
00000100
00000010
00010000
00000000
,
00010000
00011000
00110000
01100000
,
10010000
10100000
01010000
01001000
,
00010100
00000000
00010010
00000000
00000100
00000010
00000001
00000010
,
00000100
00000001
00000010
00000100
00001000
00000001
00001000
00000010
,
00001000
00001000
00000100
00000000
00010100
00000000
00001000
00100000
,
00010000
00100000
00001000
00001000
00010000
00010000
00100000
10000000
,
00010000
10000000
01000000
01000000
00100000
00000000
11000000
00000000
,
00010000
10000000
00100000
01000000
00010000
01000000
01000000
00100000
,
00010000
00001000
00100000
00000000
00001000
00010000
00001000
00010000
,
00000100
00001000
00000100
00001000
00000010
00000100
00000001
00000010
,
00000100
00001000
00000100
00010000
00001000
00000000
00000000
00000000
,
00000000
00000000
00000000
00000000
,
00000000
00000000
00000000
00000000
,
00000000
00000000
00000000
00000000
,
00000000
00000000
00000000
00000000
,
00000000
00000000
00011000
00100000
00010000
01000000
00100000
10000000
,
01000000
10000000
00100000
01000000
00010000
00100000
00010000
01000000
,
00100000
00010000
00011000
00000010
00000001
00001000
00000010
00000100
,
00000001
00000010
00000100
00000010
00000001
00000100
00000010
00001000
,
00000100
00001000
00011000
00100000
00010000
01000000
00100000
10000000
,
01000000
10000000
00100000
01000000
00100000
10000000
01000000
00100000
,
00010000
01000000
00011000
00000100
00001000
00000010
00000100
00000001
,
00000010
00000100
00000010
00000001
00001000
00000010
00000100
00000001
,
00000020
00000000
00000031
00000100
00000020
00000000
00001030
00000100
,
00002000
00000000
00003100
00010000
00001000
00100000
00010000
01000000
,
00100000
10000000
00100000
01000000
00020000
00000000
01030000
00010000
,
20000000
00000000
31000000
10000000
00100000
01000000
00010000
00100000
,
00001000
00010000
00000100
00001000
00000001
00001000
00000010
00000100
,
00000001
00000010
00000100
00001000
00000010
00000200
00000000
00000301
,
00000100
00000010
00001000
00000200
00000000
00001300
00000100
00010000
,
00001000
00200000
00000000
00010000
00000000
00001000
00000000
00001000
,
00000000
00001000
00000000
00001000
00000000
00301000
00000000
00000000
;

//---------------dance-single - ----------------
#NOTEDATA:;
#CHARTNAME:;
#STEPSTYPE:dance-single;
#DESCRIPTION:;
#CHARTSTYLE:;
#DIFFICULTY:Medium;
#METER:6;
#RADARVALUES:0.384469,0.516103,0.196923,0.057436,0.000000,328.000000,304.000000,24.000000,7.000000,0.000000,0.000000,0.000000,0.000000,0.000000,0.384469,0.516103,0.196923,0.057436,0.000000,328.000000,304.000000,24.000000,7.000000,0.000000,0.000000,0.000000,0.000000,0.000000;
#CREDIT:Ben Speirs;
#NOTES:
0000
0000
0000
0000
,
0000
0000
0000
0000
,
0000
0000
0000
0000
,
0000
0000
0000
0000
,
0000
0000
0000
0000
0001
1000
0001
0000
,
1000
0100
0100
0010
,
0001
1000
0001
0000
0000
0000
1000
0000
,
0001
0000
0100
0001
0100
0000
0001
0000
,
1000
0010
1000
0000
0000
0000
0001
0000
,
0010
0000
0100
0000
1000
0100
1000
0000
,
0001
0010
0001
0000
0000
0000
1000
0000
,
0001
0100
0100
0001
,
1000
0010
0000
1000
,
0100
0000
0010
0000
0001
0100
0001
0000
,
1000
0100
1000
0000
0000
0000
0001
0000
,
0010
0000
0100
0000
1000
0010
1000
0000
,
0001
0010
0001
0000
0000
0000
1000
0000
,
0001
0100
0100
0001
,
1000
0001
1000
0000
0000
0000
0001
0100
,
0001
0100
0001
0001
0001
0000
1000
0100
,
1000
0100
1000
1000
1000
0000
0001
0000
,
1000
0010
0010
0100
,
0001
2000
3000
0100
,
0000
1000
0001
1000
,
0010
0200
0300
0001
,
0010
0000
0100
0000
0010
0001
0010
0000
,
0001
0100
0001
0000
0000
0000
1000
0000
,
1000
0000
0001
0000
0100
0001
1000
0001
,
1000
0001
0100
0000
0000
0000
1001
0000
,
0000
0000
0000
0000
,
0000
0000
0000
0000
,
0000
0000
0000
0000
,
0000
0000
0000
0000
,
0000
0000
1001
1100
,
0001
1000
0010
0100
,
0001
1000
0010
0000
1100
0000
0101
0000
,
1000
0001
0010
0001
,
1000
0020
0000
0030
1010
0000
0101
0000
,
1000
0001
0010
0001
,
1000
0100
0010
0000
0001
1000
0001
1000
,
0010
0000
1000
0001
1000
0001
0010
0000
,
0001
1000
0001
0000
2100
0000
0001
0000
,
3010
1000
0001
1000
,
1010
0100
0102
0010
,
1003
0000
0001
0000
0100
0001
1000
0000
,
1001
0000
0000
0000
0001
0010
0100
0000
,
1000
0100
0010
0000
0001
1000
0001
1000
,
0001
0000
0000
0000
1000
0010
0100
0000
,
0001
0010
0100
0000
1000
0001
1000
0001
,
1000
0000
0002
0103
,
0010
0000
1000
0100
1000
0000
0001
0100
,
0001
0000
2000
3100
,
0010
0000
0001
0000
1000
0010
1000
0001
,
0010
0001
1000
0000
0001
0000
1000
0000
,
0010
0010
0100
0001
,
1000
0000
0000
0000
0001
0010
0100
0000
,
1000
0000
0001
1000
0100
0000
1000
0000
,
0101
0000
1000
0000
,
0000
0000
0000
0000
,
0000
0000
0000
0000
,
0000
0000
0000
0000
,
0000
0000
0000
0000
,
0000
1000
1000
0001
,
0001
0000
0100
0001
1000
0000
0100
1000
,
0001
0000
1000
0010
1000
0010
1000
0000
,
0000
0001
0010
0001
0010
0000
0001
0000
,
0000
1000
1000
0001
,
0001
0000
0010
0001
1000
0000
0010
1000
,
0100
0000
1000
0100
1000
0100
1000
0000
,
0000
0001
0100
0001
0100
0000
0001
0000
,
0000
1010
0101
0011
,
1100
0000
0001
1000
0001
0000
1001
0000
,
0000
0011
1100
1010
,
0101
0000
1000
0001
1000
0000
1001
0000
,
0010
1000
0001
0101
0000
1000
0000
0010
,
1000
0100
0000
0010
0001
0100
0000
0001
,
0010
0001
0010
0001
0000
1000
0010
1000
,
0010
1000
0000
0100
0000
0000
0000
1001
,
0000
0100
0000
0100
0000
0100
0000
0000
;

//---------------dance-single - ----------------
#NOTEDATA:;
#CHARTNAME:;
#STEPSTYPE:dance-single;
#DESCRIPTION:;
#CHARTSTYLE:;
#DIFFICULTY:Easy;
#METER:4;
#RADARVALUES:0.254359,0.354821,0.057436,0.000000,0.000000,217.000000,210.000000,7.000000,0.000000,0.000000,0.000000,0.000000,0.000000,0.000000,0.254359,0.354821,0.057436,0.000000,0.000000,217.000000,210.000000,7.000000,0.000000,0.000000,0.000000,0.000000,0.000000,0.000000;
#CREDIT:Ben Speirs;
#NOTES:
// measure 0
0000
0000
0000
0000
,  // measure 1
0000
0000
0000
0000
,  // measure 2
0000
0000
0000
0000
,  // measure 3
0000
0000
0000
0000
,  // measure 4
0000
0000
1000
0001
,  // measure 5
0100
0100
0000
0010
,  // measure 6
1000
0001
0000
1000
,  // measure 7
0000
0001
0010
0100
,  // measure 8
0100
1000
0000
0001
,  // measure 9
0000
1000
0001
0100
,  // measure 10
0100
0001
0000
1000
,  // measure 11
1000
1000
0000
0001
,  // measure 12
0001
0001
0000
1000
,  // measure 13
0001
0100
0000
0010
,  // measure 14
0100
0001
0000
0010
,  // measure 15
0001
1000
1000
0001
,  // measure 16
0001
0100
0000
0001
,  // measure 17
1000
0100
0000
1000
,  // measure 18
1000
0010
0000
1000
,  // measure 19
0100
1000
0100
0010
,  // measure 20
0001
0010
0000
0001
,  // measure 21
1000
0010
0000
0100
,  // measure 22
0001
1000
0000
0100
,  // measure 23
0000
1000
0100
0010
,  // measure 24
0001
1000
0000
0001
,  // measure 25
0100
0100
0000
0010
,  // measure 26
1000
0001
0000
1000
,  // measure 27
0100
0100
0010
0001
,  // measure 28
0100
0100
0000
1001
,  // measure 29
0000
0000
0000
0000
,  // measure 30
0000
0000
0000
0000
,  // measure 31
0000
0000
0000
0000
,  // measure 32
0000
0000
0000
0000
,  // measure 33
0000
0000
1001
1001
,  // measure 34
0001
0100
0010
1000
,  // measure 35
0001
0000
1001
1001
,  // measure 36
1000
0100
0010
0001
,  // measure 37
1000
0000
0010
0010
,  // measure 38
0100
0001
0010
0010
,  // measure 39
0100
0000
1000
0100
,  // measure 40
0010
0001
1000
0001
,  // measure 41
0100
0000
0001
0001
,  // measure 42
0100
0100
0010
0100
,  // measure 43
0001
0000
1000
1000
,  // measure 44
0100
0100
0010
0100
,  // measure 45
1000
0000
0010
0000
,  // measure 46
0010
0000
0010
0000
,  // measure 47
0010
0000
1000
0100
,  // measure 48
0010
0001
0100
0010
,  // measure 49
1000
0000
0001
0100
,  // measure 50
0001
0000
1000
1000
,  // measure 51
0001
0000
1000
0100
,  // measure 52
1000
0000
0001
0000
,  // measure 53
1000
0000
0010
0010
,  // measure 54
0100
0100
0001
0010
,  // measure 55
0100
0000
1000
1000
,  // measure 56
0001
0001
1000
0100
,  // measure 57
0010
0000
1001
0000
,  // measure 58
0000
0000
0000
0000
,  // measure 59
0000
0000
0000
0000
,  // measure 60
0000
0000
0000
0000
,  // measure 61
0000
0000
0000
0000
,  // measure 62
0000
0001
1000
0010
,  // measure 63
0100
0001
0010
0100
,  // measure 64
1000
0010
0000
0100
,  // measure 65
0000
0001
1000
0001
,  // measure 66
0000
1000
0001
0010
,  // measure 67
0100
0010
0001
1000
,  // measure 68
0000
0010
1000
0010
,  // measure 69
0000
0100
0001
0100
,  // measure 70
0000
0001
0001
1000
,  // measure 71
1000
0010
0010
0100
,  // measure 72
0000
0001
0001
1000
,  // measure 73
1000
0100
0100
0010
,  // measure 74
0000
0000
1001
0000
0000
0000
0000
0001
,  // measure 75
0000
0000
0000
0001
0000
0000
0000
1000
,  // measure 76
0000
1000
0000
0100
0000
0100
0000
0010
,  // measure 77
0000
0010
0000
0001
0000
0000
0000
0100
,  // measure 78
0000
0100
0000
0100
0000
0100
0000
0000
;

//---------------dance-single - ----------------
#NOTEDATA:;
#CHARTNAME:;
#STEPSTYPE:dance-single;
#DESCRIPTION:;
#CHARTSTYLE:;
#DIFFICULTY:Beginner;
#METER:2;
#RADARVALUES:0.124249,0.193538,0.016410,0.000000,0.000000,106.000000,104.000000,2.000000,0.000000,0.000000,0.000000,0.000000,0.000000,0.000000,0.124249,0.193538,0.016410,0.000000,0.000000,106.000000,104.000000,2.000000,0.000000,0.000000,0.000000,0.000000,0.000000,0.000000;
#CREDIT:Ben Speirs;
#NOTES:
0000
0000
0000
0000
,
0000
0000
0000
0000
,
0000
0000
0000
0000
,
0000
0000
0000
0000
,
0000
0000
0000
0001
,
0000
0001
0000
0001
,
0000
0000
0000
1000
,
0000
1000
0000
1000
,
0000
0000
0000
0010
,
0000
0010
0000
0010
,
0000
0000
0000
0100
,
0000
0000
0000
0100
,
0000
0000
0000
0001
,
0000
0001
0000
0001
,
0000
0000
0000
1000
,
0000
1000
0000
1000
,
0000
0000
0000
0010
,
0010
0000
0000
0010
,
0000
0000
0000
0010
,
0010
0000
0000
0010
,
0000
0000
0000
0100
,
0000
0000
0000
0100
,
0000
0000
0000
0001
,
0000
0001
0000
0001
,
0000
0000
0000
1000
,
0000
0000
0000
1000
,
0000
0000
0000
0010
,
0000
0010
0000
0010
,
0000
0000
0000
1001
,
0000
0000
0000
0000
,
0000
0000
0000
0000
,
0000
0000
0000
0000
,
0000
0000
0000
0000
,
0000
0000
0000
0000
,
1000
0000
1000
0000
,
1000
0000
0000
0000
,
0001
0000
0001
0000
,
0001
0000
0100
0100
,
0000
0000
0100
0000
,
0000
0000
0100
0100
,
0000
0000
0100
0000
,
0000
0000
0001
0000
,
0001
0000
0001
0000
,
0000
0000
1000
0000
,
1000
0000
1000
0000
,
0000
0000
0010
0000
,
0010
0000
0010
0000
,
0000
0000
0100
0100
,
0000
0000
0100
0100
,
0000
0000
0001
0000
,
0001
0000
0000
0000
,
0001
0000
1000
0000
,
1000
0000
0000
0000
,
1000
0000
0010
0010
,
0000
0000
0010
0000
,
0000
0000
0100
0100
,
0000
0000
0100
0000
,
0000
0000
0001
0000
,
0000
0000
0000
0000
,
0000
0000
0000
0000
,
0000
0000
0000
0000
,
0000
0000
0000
0000
,
0000
1000
0000
1000
,
0000
0001
0000
0001
,
0000
0000
0100
0100
,
0000
0100
0100
0100
,
0000
0001
0000
0001
,
0000
1000
0000
1000
,
0000
0000
0100
0100
,
0000
0100
0100
0100
,
0000
1000
0000
1000
,
0000
1000
0000
0000
,
0000
0001
0000
0001
,
0000
0001
0000
0000
,
0000
1001
0000
0000
,
0000
0000
0000
0000
0000
0000
0000
0010
,
0000
0000
0000
0010
0000
0000
0000
0010
,
0000
0000
0000
0000
0000
0000
0000
0100
,
0000
0100
0000
0100
0000
0100
0000
0000
;
