#VERSION:0.82;
#TITLE:Xepher;
#SUBTITLE:(Light and Darkness Dragon REMIX);
#ARTIST:DeadballP;
#TITLETRANSLIT:;
#SUBTITLETRANSLIT:;
#ARTISTTRANSLIT:;
#GENRE:Medieval Choir;
#ORIGIN:;
#CREDIT:;
#BANNER:Xepher (Light and Darkness Dragon REMIX).png;
#BACKGROUND:Xepher (Light and Darkness Dragon REMIX)-bg.png;
#PREVIEWVID:;
#JACKET:jacket.png;
#CDIMAGE:;
#DISCIMAGE:;
#LYRICSPATH:;
#CDTITLE:;
#MUSIC:Xepher (Light and Darkness Dragon REMIX).ogg;
#OFFSET:-0.036000;
#SAMPLESTART:58.042023;
#SAMPLELENGTH:11.940000;
#SELECTABLE:YES;
#BPMS:0.000=180.000;
#STOPS:;
#DELAYS:;
#WARPS:;
#TIMESIGNATURES:0.000=4=4;
#TICKCOUNTS:0.000=4;
#COMBOS:0.000=1;
#SPEEDS:0.000=1.000=0.000=0;
#SCROLLS:0.000=1.000;
#FAKES:;
#LABELS:0.000=Song Start;
#BGCHANGES:4.000=Xepher (Light and Darkness Dragon REMIX).avi=1.000=1=0=1===CrossFade==,
99999=-nosongbg-=1.000=0=0=0 // don't automatically add -songbackground-
;
#KEYSOUNDS:;
#ATTACKS:
;

//---------------dance-single - ----------------
#NOTEDATA:;
#CHARTNAME:;
#STEPSTYPE:dance-single;
#DESCRIPTION:;
#CHARTSTYLE:;
#DIFFICULTY:Hard;
#METER:9;
#RADARVALUES:0.643611,0.763143,0.252801,0.234744,0.117372,445.000000,28.000000,26.000000,0.000000,0.000000,0.000000,0.000000,0.000000,0.643611,0.763143,0.252801,0.234744,0.117372,445.000000,28.000000,26.000000,0.000000,0.000000,0.000000,0.000000,0.000000;
#CREDIT:Ben Speirs;
#NOTES:
0000
0000
0000
0000
,
0000
0000
0000
0000
,
1010
0000
0101
0000
,
0011
0000
2200
0000
,
0000
0000
0000
0000
,
0000
3300
2002
0000
,
0000
0000
0000
0000
,
0000
3003
0020
0000
,
0130
0000
0000
0001
0100
0010
2000
0000
0000
0000
0000
0000
,
3001
0000
1100
0010
,
0101
0010
1001
0010
,
1010
0001
1002
0000
,
0103
0000
0000
0001
0010
0100
2000
0000
0000
0000
0000
0000
,
3010
0000
1001
0010
,
1010
0100
2002
0000
,
0000
0000
0000
0000
,
0000
0000
3003
0000
,
0000
0000
0000
0000
,
0000
0000
2000
3100
,
0002
0000
1003
1000
0010
0000
1000
0000
,
0001
0010
0100
0000
0020
0000
0031
0000
,
2000
0000
3001
0001
0100
0000
0010
0000
,
0100
0001
1000
0000
0002
0000
0013
0000
,
0200
0000
0310
0010
0001
0000
1000
0000
,
0010
1000
0001
0000
0200
0000
0310
0000
,
2000
0000
3001
0001
0000
0100
1000
0001
,
0010
0000
1000
0000
0001
0000
0000
0000
0010
0000
0000
0010
0000
0000
0010
0000
,
0000
0010
0000
0000
0001
0000
1000
0000
0000
0000
0010
0000
0010
0000
1000
0000
,
0001
0000
0100
0000
0010
0000
0000
0000
0100
0000
0000
0100
0000
0000
0100
0000
,
0000
0100
0000
0000
0001
0000
1000
0000
0000
0000
0100
0000
0100
0000
1000
0000
,
0010
0000
0100
0000
0001
0000
0000
0000
1000
0000
0000
1000
0000
0000
0100
0000
,
0000
0001
0000
0000
0001
0000
1000
0000
0000
0000
0010
0000
1000
0000
0001
0000
,
0010
0000
0100
0000
1000
0000
0000
0000
0001
0000
0000
0001
0000
0000
0100
0000
,
0000
1000
0000
0000
1000
0000
0010
0000
0000
0000
0100
0000
0100
0000
0001
0000
,
0001
1000
0100
0001
0000
0000
0000
0000
,
0000
0000
0000
0000
1000
0100
0010
0100
,
1000
0100
0010
0100
1000
0001
0100
0001
,
1000
0001
0100
0001
1000
0010
0001
0010
,
1000
0010
0001
0010
1000
0010
0100
0001
,
0010
0100
1000
1000
0001
0010
0100
0010
,
0001
0010
0100
0010
0001
1000
0010
1000
,
0001
1000
0010
1000
0001
0100
1000
0100
,
0001
0100
1000
0100
0001
0100
0010
1000
,
0100
0010
0001
0001
0100
0010
1000
0100
,
0010
0001
1000
0010
0100
0001
0010
0100
,
0010
0001
0100
0010
1000
0001
0010
0100
,
1000
0001
0100
0010
1000
0001
0100
0010
,
1000
0100
0010
0001
1000
0010
1000
0010
,
0100
0001
0010
0100
1000
0001
1000
0001
,
0100
0010
1000
0100
0010
0001
0100
0010
,
1000
0001
0010
1000
0010
0001
1000
0010
,
0100
0001
0010
0100
1000
1000
0100
0010
,
0001
0001
0100
0010
1000
1000
0010
0100
,
0001
0010
0100
1000
1001
0000
2000
0000
,
3200
0302
0023
2030
,
3200
0000
0310
0000
1001
0000
1000
0100
,
0010
0001
1000
0000
1010
0000
1000
0010
,
0100
0001
1000
0000
0101
0000
0010
0001
,
0100
0010
1000
0000
1001
0000
0010
1000
,
1010
0000
0100
0001
0101
0000
1000
0100
,
0010
0001
1000
0000
1001
0000
1000
0010
,
0100
0001
1000
0000
1100
0000
0010
0001
,
1000
0010
0100
0000
0101
0000
0010
1000
,
1010
0000
0001
0000
0100
0010
1000
0100
,
0010
0000
0001
0000
1000
0000
0010
0100
0010
0000
0100
0000
0001
0000
0010
0000
,
0100
0000
1000
0000
0001
0000
1000
0010
1000
0000
0001
0000
0100
0000
0010
0000
,
1000
0000
0100
0000
0010
0000
0001
1000
0001
0000
0100
0000
0010
0000
1000
0000
,
0100
1000
0010
0100
0001
1000
0100
0010
,
0001
0000
1000
0000
0010
0000
0100
0001
0100
0000
0010
0000
1000
0000
0001
0000
,
0010
0000
0100
0000
1000
0000
0001
1000
0001
0000
0100
0000
0010
0000
1000
0000
,
0100
0010
0001
1000
0010
0100
0001
0010
,
0100
1000
0001
0100
0010
1000
0100
0010
,
0001
1000
0010
0100
0001
0010
0100
1000
,
0010
0100
0001
0010
2002
0000
0000
0000
,
0000
3003
0010
0000
,
0100
0000
0000
0000
0000
0000
0000
0000
0001
0100
0001
0100
0001
0000
0100
0000
,
0000
0010
0000
0000
1000
0000
0001
0000
1000
0100
1000
0100
1000
0000
0010
0000
,
0000
1000
0000
0000
0100
0000
0010
0000
0001
1000
0001
1000
0001
0000
0100
0000
,
0000
0010
0000
0000
1010
0000
1001
0000
0000
0000
0000
0000
0000
0000
0000
0000
,
0000
0000
0000
0000
1000
0100
0001
1000
,
0010
0001
1000
0010
0101
0000
0000
0000
;

//---------------dance-single - ----------------
#NOTEDATA:;
#CHARTNAME:;
#STEPSTYPE:dance-single;
#DESCRIPTION:;
#CHARTSTYLE:;
#DIFFICULTY:Challenge;
#METER:11;
#RADARVALUES:0.857718,1.000000,0.234744,0.198629,0.708746,617.000000,26.000000,22.000000,0.000000,0.000000,0.000000,0.000000,0.000000,0.857718,1.000000,0.234744,0.198629,0.708746,617.000000,26.000000,22.000000,0.000000,0.000000,0.000000,0.000000,0.000000;
#CREDIT:Ben Speirs;
#NOTES:
0000
0000
0000
0000
,
0000
0000
0000
0000
,
2020
3030
0202
0303
,
2200
3300
2002
0000
,
0000
0000
0000
3003
,
0001
1000
0220
0000
,
0000
0000
0000
0000
,
0330
0000
0012
0000
,
1003
0000
0000
0010
1000
0100
0020
0000
0000
0000
0000
0000
,
0031
0000
2100
3001
,
0102
1003
2010
3001
,
0012
1003
2001
0000
,
3010
0000
0000
0100
0010
1000
0002
0000
0000
0000
0000
0000
,
1003
0000
1010
0101
,
0011
1100
2002
0000
,
0000
0000
0000
0000
,
0000
0000
3003
0000
,
0000
0000
0000
0000
,
0000
0000
0000
0000
0000
0000
0000
0000
1000
0000
0000
1000
0100
0000
1000
0000
,
0010
0100
0001
0001
0000
0100
0001
0100
,
0010
0000
1000
0000
0001
0000
0000
0000
0010
0000
0000
0010
0001
0000
0100
0000
,
0010
1000
0001
0010
0000
0001
0100
0010
,
1000
0001
1000
0000
0001
0000
0000
0000
0001
0000
0000
0001
0010
0000
0001
0000
,
0100
0010
1000
1000
0000
0010
1000
0010
,
0100
0000
0001
0000
1000
0000
0000
0000
0100
0000
0000
0100
1000
0000
0010
0000
,
0100
0001
1000
0100
0000
1000
0010
0100
,
0001
1000
0001
1000
0001
0000
0000
0000
1000
0100
0000
0010
0001
0000
0100
0010
,
0000
1000
0001
0000
0010
0000
0010
0000
0000
0000
0001
0000
0100
0000
0010
0000
,
1000
0000
0001
0000
0010
0000
0000
0000
0100
0010
0000
0001
0100
0000
0010
1000
,
0000
0100
0010
0000
0001
0000
0001
0000
0000
0000
0100
0000
0010
0000
0100
0000
,
0001
0000
0010
0000
0100
0000
0000
0000
1000
0100
0000
0010
0001
0000
0010
0100
,
0000
1000
0010
0000
1000
0000
1000
0000
0000
0000
0010
0000
1000
0000
0100
0000
,
0010
0000
0001
0000
1000
0000
0000
0000
0001
0100
0000
0010
1000
0000
0100
0010
,
0000
0001
1000
0000
0010
0000
0100
0000
0000
0000
0001
0000
0100
0000
0010
0000
,
1000
0100
0010
0001
1000
0100
0010
0001
0000
0000
0000
0000
0000
0000
0000
0000
,
0000
0000
0000
0000
0000
0000
0000
0000
1000
0100
1000
0000
0001
0100
0001
0000
,
1000
0100
1000
0000
0001
0100
0001
0000
1000
0010
1000
0000
0001
0010
0001
0000
,
1000
0010
1000
0000
0001
0010
0001
0000
0100
0010
0100
0000
0001
0100
0001
0000
,
1000
0100
1000
0000
0010
0100
0010
0000
1000
0100
1000
0000
0001
1000
0001
0000
,
0100
0010
0100
0000
0010
0100
0010
0000
1000
0100
0010
0000
0001
0100
0010
0000
,
1000
0100
0010
0000
0001
0100
0010
0000
1000
0010
0100
0000
0001
0010
0100
0000
,
1000
0010
0100
0000
0001
0010
0100
0000
1000
0100
1000
0000
0001
0100
0001
0000
,
0100
0010
0100
0010
0100
0010
0100
0000
0001
0100
0001
0000
1000
0100
1000
0000
,
0010
0100
0010
0100
0010
0100
0010
0000
1000
0000
0100
0000
1000
0000
0010
0000
,
0100
0000
0001
0000
0010
0000
0100
1000
0001
0000
0010
0000
0100
0000
0010
0000
,
0001
0000
0100
0000
0010
0000
0100
0001
1000
0000
0010
0000
0100
0000
0001
0000
,
0010
0000
0100
0000
1000
0000
0010
0100
0001
0000
1000
0000
0100
0000
0010
0001
,
1000
0000
0010
0000
0100
0000
0001
0010
0100
0000
0010
0000
0001
0000
1000
0000
,
0010
0000
0100
0000
0001
0000
1000
0100
0010
0000
0001
0000
1000
0000
0010
0000
,
0100
0000
0001
0000
1000
0000
0010
0100
0001
0000
1000
0000
0001
0000
0010
0100
,
1000
0001
0010
0100
1000
0010
0100
0001
,
0010
0100
1000
0010
0100
0100
0100
0100
,
0001
0001
0001
0001
1000
1000
1000
1000
,
1000
1000
1000
1000
0100
0000
1100
0000
,
0011
0101
1010
1001
,
0110
0000
0000
0000
1001
0000
0000
0000
0001
0100
0010
1000
0001
0100
0010
1000
,
0001
0100
0010
1000
0001
0100
0010
1000
0001
0010
0100
1000
0001
0010
0100
1000
,
0001
0010
0100
1000
0001
0010
0100
1000
0001
1000
0001
1000
0010
1000
0010
1000
,
0001
0100
0001
0100
0010
0100
0010
0100
0001
1000
0001
1000
0100
0010
0100
0010
,
0001
0000
0100
0000
0010
0000
1000
0000
1000
0010
0100
0001
1000
0010
0100
0001
,
1000
0010
0100
0001
1000
0010
0100
0001
1000
0100
0010
0001
1000
0100
0010
0001
,
1000
0100
0010
0001
1000
0100
0010
0001
1000
0001
1000
0001
0100
0001
0100
0001
,
1000
0010
1000
0010
0100
0010
0100
0010
1000
0001
1000
0001
0010
0100
0010
0100
,
1000
0010
0100
0001
1000
0010
1000
0001
,
0010
0000
0100
0000
1000
0000
0010
0100
0001
0000
1000
0000
0100
0000
0010
0000
,
0001
0000
1000
0000
0010
0000
0100
0001
1000
0000
0010
0000
0100
0000
0001
0000
,
0010
0000
0100
0000
1000
0000
0010
1000
0001
0000
0100
0000
0010
0000
1000
0100
,
0010
0000
0001
0000
1000
0000
0010
0100
0001
0000
1000
0000
0100
0000
0010
0000
,
0001
0000
1000
0000
0010
0000
0100
0001
1000
0000
0010
0000
0100
0000
0001
0000
,
0010
0000
0100
0000
1000
0000
0001
1000
0010
0000
1000
0000
0001
0000
0010
0100
,
1000
0001
0100
0010
1000
0001
0010
0100
,
1000
0010
0100
0001
1000
1000
1000
1000
,
0001
0001
0001
0001
0100
0100
0100
0100
,
0100
0100
0100
0100
2002
0000
0000
0000
,
0000
3003
0010
0000
,
0010
0000
0000
0000
0000
0000
0000
0000
1000
0100
0001
0100
1000
0000
0010
0100
,
0000
0100
0001
0000
1000
0000
0001
0000
0001
0010
1000
0010
0001
0000
1000
0010
,
0000
0010
0100
0000
0001
0000
1000
0000
0100
0010
0001
1000
0010
0000
0100
0001
,
0000
1000
0010
0000
0110
0000
1001
0000
0000
0000
0000
0000
0000
0000
0000
0000
,
0000
0000
0000
0000
0000
0000
0000
0000
0001
0010
0100
1000
0001
0100
0010
1000
,
0010
0100
0001
1000
0100
0010
0001
1000
0010
0000
0000
0000
0000
0000
0000
0000
;

//---------------dance-single - ----------------
#NOTEDATA:;
#CHARTNAME:;
#STEPSTYPE:dance-single;
#DESCRIPTION:;
#CHARTSTYLE:;
#DIFFICULTY:Medium;
#METER:7;
#RADARVALUES:0.470778,0.690463,0.279887,0.469488,0.000000,282.000000,31.000000,52.000000,0.000000,0.000000,0.000000,0.000000,0.000000,0.470778,0.690463,0.279887,0.469488,0.000000,282.000000,31.000000,52.000000,0.000000,0.000000,0.000000,0.000000,0.000000;
#CREDIT:Ben Speirs;
#NOTES:
0000
0000
0000
0000
,
0000
0000
0000
0000
,
1000
0000
0001
0000
,
0100
0000
2002
0000
,
0000
0000
0000
0000
,
3003
0000
0220
0000
,
0000
0000
0000
0000
,
0330
0000
1001
0000
,
0010
1000
0001
0000
,
0100
0000
0010
1000
,
0100
0010
0001
1000
,
0010
0000
1001
0000
,
0100
0001
1000
0000
,
0100
0000
1100
0000
,
0011
0000
2002
0000
,
0000
0000
0000
0000
,
0000
0000
0000
3003
,
0000
0000
0000
0000
,
0000
0000
0100
0010
,
1000
0100
0100
0010
,
0001
1000
0001
0000
0100
0000
0010
0000
,
1000
1000
0001
0100
,
0001
1000
0001
0000
0100
0000
0010
0000
,
1000
0100
0100
1000
,
0010
0100
0010
0000
1000
0000
0100
0000
,
0010
0000
0001
0000
0000
1000
0001
1000
,
0001
0000
0100
0100
,
0100
0000
0010
0010
0000
0000
1000
0000
,
0001
0000
0010
0010
,
0010
0000
0100
0100
0000
0000
1000
0000
,
0100
0000
1000
1000
,
1000
0000
1000
1000
0000
0000
0010
0000
,
1000
0000
0001
0001
,
0001
0000
0001
0001
0000
0100
0010
0100
,
0010
0100
0010
0100
0000
0000
0000
0000
,
0000
0000
0002
0203
,
0320
2030
3200
2300
,
3002
0203
0320
2030
,
3200
0000
0320
0000
0031
1000
0001
0000
,
0100
0010
0100
0000
0020
0000
2030
0000
,
3200
0320
0032
2003
,
3020
2030
3002
0203
,
0320
0000
2030
0000
3100
0010
0100
0000
,
1000
0001
1000
0000
0020
0000
0130
0000
,
0001
1000
0010
0000
2000
0000
3100
0100
,
0100
0000
2000
3001
,
0100
0010
0100
0000
0101
0000
1010
0000
,
1100
0011
2002
3003
,
0010
0100
0010
0000
2002
0000
3003
0000
,
0100
0010
0100
0000
2200
0000
3300
0000
,
0202
0303
1000
0001
,
0100
0000
0000
0000
0010
1000
0010
0000
,
1000
0100
1000
0000
0001
1000
0001
0000
,
0100
0010
1000
0100
,
0100
0100
0100
0100
,
0100
0100
1001
0100
,
0010
1000
1100
0010
,
1000
0001
0101
1000
,
0010
0000
0100
0000
0110
0000
0010
1000
,
0001
0000
0010
0100
1000
0000
0001
0000
,
1000
0010
1010
1000
,
0001
0100
0101
0010
,
1000
0000
0001
0000
0010
0100
1000
0000
,
0010
0100
0001
0000
2000
0000
3100
0000
,
1000
0001
0100
0000
0020
0000
0000
0000
,
0130
0000
0001
0000
1000
0100
0010
0000
,
0001
1000
1001
0110
,
1001
0110
2000
3100
,
1000
0100
1000
0000
0002
0000
0103
0000
,
0001
0100
0001
0000
2200
0000
3300
0000
,
0202
0303
1000
0001
,
0100
0000
0000
0000
0010
1000
0010
0000
,
1000
0001
1000
0000
0001
0100
0001
0000
,
1000
0100
2002
0000
,
0000
3003
0010
0000
,
0010
0000
0000
0000
1000
0100
0010
0100
,
1000
0000
1001
0000
0001
0100
0010
0100
,
0001
0000
1001
0000
1000
0010
0100
0010
,
1000
0000
0001
1000
0000
0000
0000
0000
,
0000
0000
0200
0000
,
0000
0300
1001
0000
;

//---------------dance-single - ----------------
#NOTEDATA:;
#CHARTNAME:;
#STEPSTYPE:dance-single;
#DESCRIPTION:;
#CHARTSTYLE:;
#DIFFICULTY:Easy;
#METER:4;
#RADARVALUES:0.301814,0.363402,0.081257,0.261830,0.000000,196.000000,9.000000,29.000000,0.000000,0.000000,0.000000,0.000000,0.000000,0.301814,0.363402,0.081257,0.261830,0.000000,196.000000,9.000000,29.000000,0.000000,0.000000,0.000000,0.000000,0.000000;
#CREDIT:Ben Speirs;
#NOTES:
0000
0000
0000
0000
,
0000
0000
0000
0000
,
0001
0000
1000
0000
,
0010
0000
2002
0000
,
0000
0000
0000
0000
,
3003
0000
0220
0000
,
0000
0000
0000
0000
,
0330
0000
0001
0000
,
1000
0000
0010
0000
,
0010
0000
1000
0100
,
0010
0000
0001
0100
,
0010
0000
1000
0000
,
0001
0000
0100
0000
,
0100
0000
0010
1000
,
0001
0000
2002
0000
,
0000
0000
0000
0000
,
0000
0000
0000
3003
,
0000
0000
0000
0000
,
0000
0000
1000
0000
,
0001
0000
0100
0000
,
0100
0000
0010
0000
,
1000
0000
0001
0000
,
0001
0000
0010
0000
,
0100
0000
1000
0000
,
1000
0000
0010
0000
,
1000
0000
0000
0000
0000
0001
0001
0000
,
0001
0000
0100
0100
,
0100
0000
0010
0010
0000
0000
0000
0000
,
0000
0000
1000
1000
,
1000
0000
0001
0001
0000
0000
0000
0000
,
0000
0000
0010
0010
,
0010
0000
0100
0100
0000
0000
0000
0000
,
0000
0000
1000
1000
,
1000
0000
0001
0001
0000
0000
0100
0000
,
0010
0000
1000
0001
0000
0000
0000
0000
,
0000
0000
1001
1000
,
0100
1000
0010
0100
,
0001
0000
1001
0001
,
0100
0010
1000
0100
,
0010
0000
0001
0001
,
0010
0001
1000
1000
,
0010
0000
0100
0100
,
0010
1000
0100
0100
,
0010
0000
0002
0003
,
1000
0010
0200
0300
,
0020
0030
2000
3000
,
0001
1000
0100
0010
,
0001
1000
0020
0030
,
0100
0001
2000
3000
,
0100
0010
0002
0003
,
2000
3000
0010
0000
,
0100
0000
0002
0000
,
2003
0000
3200
0000
,
0000
0300
0000
0010
,
0010
0001
1000
0010
,
0100
0100
1001
1000
,
0100
0010
0001
1000
,
0010
0010
0100
0010
,
1000
0100
0010
0000
,
0010
0000
1001
0001
,
0100
0010
1000
0100
,
1000
0001
0100
0100
,
0010
1000
0100
0000
,
0010
0000
0002
0003
,
1000
0010
0200
0300
,
0002
0003
0020
0030
,
0100
1000
0001
0001
,
1000
1000
0020
0030
,
0100
0001
2000
3000
,
0100
0010
0002
0003
,
2000
3000
0010
1000
,
0001
0000
0200
0300
,
0020
0030
2000
0000
,
0000
0000
3001
0000
,
0000
0000
1001
0000
,
1001
0000
0010
0010
,
0100
0010
1000
1000
,
0001
1000
0100
0100
,
0010
0000
0001
0001
0000
0000
0000
0000
,
0000
0000
2000
0000
,
0000
0000
3001
0000
;

//---------------dance-single - ----------------
#NOTEDATA:;
#CHARTNAME:;
#STEPSTYPE:dance-single;
#DESCRIPTION:;
#CHARTSTYLE:;
#DIFFICULTY:Beginner;
#METER:3;
#RADARVALUES:0.168964,0.254381,0.081257,0.000000,0.000000,122.000000,9.000000,0.000000,0.000000,0.000000,0.000000,0.000000,0.000000,0.168964,0.254381,0.081257,0.000000,0.000000,122.000000,9.000000,0.000000,0.000000,0.000000,0.000000,0.000000,0.000000;
#CREDIT:Ben Speirs;
#NOTES:
0000
0000
0000
0000
,
0000
0000
0000
0000
,
1000
0000
0001
0000
,
0100
0000
1001
0000
,
0000
0000
0000
0000
,
0000
0000
0110
0000
,
0000
0000
0000
0000
,
0000
0000
1000
0000
,
0000
0000
0001
0000
,
0000
0000
0100
0000
,
0100
0000
0010
0000
,
0010
0000
1000
0000
,
0000
0000
0100
0000
,
0000
0000
0010
0000
,
0010
0000
1001
0000
,
0000
0000
0000
0000
,
0000
0000
0000
0000
,
0000
0000
0000
0000
,
0000
0000
1000
0000
,
0001
0000
0100
0000
,
0000
0000
0001
0000
,
1000
0000
0100
0000
,
0000
0000
1000
0000
,
0010
0000
0100
0000
,
0000
0000
0001
0000
,
0010
0000
0100
0000
,
0000
0000
1000
1000
,
1000
0000
0000
0000
,
0000
0000
0001
0001
,
0001
0000
0000
0000
,
0000
0000
0100
0100
,
0100
0000
0000
0000
,
0000
0000
0010
0010
,
0010
0000
1000
0000
,
0001
0000
0000
0000
,
0000
0000
1001
0000
,
0100
0000
0010
0000
,
1000
0000
0100
0000
,
0010
0000
0001
0000
,
1000
0000
0010
0000
,
0010
0000
1000
0000
,
0001
0000
0100
0000
,
0100
0000
0001
0000
,
1000
0000
0100
0000
,
0100
0100
0100
0000
,
0010
0000
0001
0000
,
1000
0000
0010
0010
,
0010
0000
0100
0000
,
0001
0000
1000
0000
,
0100
0000
0010
0000
,
0010
0000
0000
0000
,
0000
0000
0001
0000
,
1000
0000
0010
0000
,
0000
0000
1001
0000
,
0000
0000
0000
0000
,
0000
0000
0110
0000
,
1000
0000
0100
0000
,
0010
0000
0001
0000
,
1000
0000
0010
0000
,
0010
0000
0100
0000
,
0001
0000
1000
0000
,
1000
0000
0100
0000
,
0100
0000
0010
0000
,
0001
0000
1001
0000
,
0000
0100
0100
0000
,
0000
0010
0010
0000
,
0000
0000
1000
1000
,
1000
0000
0100
0000
,
0010
0000
0001
0000
,
1000
0000
0010
0000
,
0010
0000
0000
0000
,
0000
0000
1000
0000
,
0001
0000
0100
0000
,
0000
0000
1001
0000
,
0000
0000
0000
0000
,
0000
0000
0100
0100
,
0100
0000
0001
0001
,
0001
0000
1000
1000
,
1000
0000
0000
0000
,
0000
0000
0000
0000
,
0000
0000
0110
0000
;

//---------------dance-double - ----------------
#NOTEDATA:;
#CHARTNAME:;
#STEPSTYPE:dance-double;
#DESCRIPTION:;
#CHARTSTYLE:;
#DIFFICULTY:Challenge;
#METER:11;
#RADARVALUES:0.829342,1.000000,0.036114,0.063200,0.771946,632.000000,4.000000,7.000000,0.000000,0.000000,0.000000,0.000000,0.000000,0.829342,1.000000,0.036114,0.063200,0.771946,632.000000,4.000000,7.000000,0.000000,0.000000,0.000000,0.000000,0.000000;
#CREDIT:Ben Speirs;
#NOTES:
// measure 0
00000000
00000000
00000000
00000000
,  // measure 1
00000000
00000000
00000000
00000000
,  // measure 2
00010000
00000000
00001000
00000000
,  // measure 3
00100000
00000000
00200200
00000000
,  // measure 4
00000000
00000000
00300300
00000000
,  // measure 5
00010000
00001000
00020000
00000000
,  // measure 6
00000000
00000000
00030000
00000000
,  // measure 7
00000000
00000000
01001000
00000000
,  // measure 8
00000000
01000000
00200000
00000000
,  // measure 9
10300000
00000000
01000000
10000000
,  // measure 10
00100000
01000000
00010000
00100000
,  // measure 11
00001000
00010000
00000200
00000000
,  // measure 12
00001300
00000010
00000200
00000000
,  // measure 13
00000301
00000000
00000100
00000010
,  // measure 14
00001000
00000100
00020000
00000000
,  // measure 15
00000000
00000000
00000000
00000000
,  // measure 16
00000000
00000000
00030000
00000000
,  // measure 17
00000000
00000000
00000000
00000000
,  // measure 18
00000000
00000000
00000000
00000000
00000000
00000000
00000000
00000000
00101000
00000000
00000000
00100000
00010000
00000000
01000000
00000000
,  // measure 19
00100000
10000000
00010000
00010000
00000000
10000000
01000000
00100000
,  // measure 20
00010000
10000000
00010000
00000000
10000000
00000000
00000000
00000000
10100000
00000000
00000000
10000000
00100000
00000000
01000000
00000000
,  // measure 21
00010000
00100000
00001000
00001000
00000000
00010000
00001000
00010000
,  // measure 22
00000100
00001000
00000100
00000000
00001000
00000000
00000000
00000000
00000010
00000000
00000000
00000010
00001000
00000000
00000100
00000000
,  // measure 23
00000010
00000001
00000100
00000100
00000000
00000001
00000010
00000100
,  // measure 24
00001000
00000100
00001000
00000000
00000001
00000000
00000000
00000000
00001000
00000000
00000100
00000000
00010000
00000000
00001000
00000000
,  // measure 25
00100000
00010000
01000000
00100000
00000000
10000000
01000000
00010000
,  // measure 26
01000000
10000000
01000000
10000000
01000000
10000000
01000000
10000000
00100000
01000000
00000000
01000000
00010000
00000000
00010000
00100000
,  // measure 27
00000000
00100000
00001000
00000000
00010000
00000000
00000100
00000000
00000000
00000000
00001000
00000000
00000010
00000000
00000100
00000000
,  // measure 28
00000001
00001000
00000001
00000000
00001000
00000000
00000000
00000000
00000001
00000010
00000000
00000010
00000100
00000000
00000100
00001000
,  // measure 29
00000000
00001000
00000010
00000000
00000100
00000000
00000001
00000000
00000000
00000000
00000100
00000000
00000010
00000000
00001000
00000000
,  // measure 30
00000100
00010000
00000100
00000000
00010000
00000000
00000000
00000000
00001000
00010000
00000000
00010000
00001000
00000000
00001000
00100000
,  // measure 31
00000000
00100000
00010000
00000000
00010000
00000000
01000000
00000000
00000000
00000000
00100000
00000000
01000000
00000000
00010000
00000000
,  // measure 32
10000000
01000000
10000000
00000000
00010000
00000000
00000000
00000000
10000000
00000000
01000000
00000000
00100000
00000000
00010000
00000000
,  // measure 33
01000000
00100000
01000000
00001000
00000000
00010000
00010000
00000100
,  // measure 34
00001000
00000100
00001000
00000100
00000010
00000100
00000010
00000000
00000000
00000000
00000000
00000000
00000000
00000000
00000000
00000000
,  // measure 35
00000000
00000000
00000000
00000000
00000000
00000000
00000000
00000000
00000001
00000010
00000100
00001000
00000001
00000010
00000100
00001000
,  // measure 36
00000001
00000010
00000100
00001000
00000001
00000010
00000100
00001000
00000001
00000000
00000100
00000000
00000010
00000000
00001000
00000000
,  // measure 37
00000100
00000000
00010000
00000000
00001000
00000000
00100000
00000000
00010000
00100000
01000000
10000000
00010000
00100000
01000000
10000000
,  // measure 38
00010000
00100000
01000000
10000000
00010000
00100000
01000000
10000000
00010000
00000000
01000000
00000000
00100000
00000000
10000000
00000000
,  // measure 39
01000000
00100000
00000000
00100000
00010000
00000000
01000000
00000000
00001000
00100000
00010000
01000000
00001000
00100000
00010000
01000000
,  // measure 40
00001000
00100000
00010000
01000000
00001000
00100000
00010000
10000000
00100000
00000000
01000000
00000000
00010000
00000000
00100000
00000000
,  // measure 41
00001000
00000000
00100000
00000000
00000100
00000000
00001000
00000000
00000010
00010000
00000100
00001000
00000010
00010000
00000100
00001000
,  // measure 42
00000010
00010000
00000100
00001000
00000010
00010000
00000100
00001000
00000010
00000000
00000100
00000000
00000001
00000000
00000010
00000000
,  // measure 43
00000100
00001000
00000001
00001000
00000010
00000100
00000001
00000010
,  // measure 44
00000100
00001000
00000010
00000100
00001000
00000100
00000010
00001000
,  // measure 45
00000100
00010000
00001000
00100000
00010000
00010000
01000000
00100000
,  // measure 46
10000000
01000000
00100000
00010000
01000000
01000000
00100000
10000000
,  // measure 47
01000000
01000000
00100000
00010000
10000000
10000000
00100000
10000000
,  // measure 48
01000000
00100000
00010000
01000000
00001000
00010000
00000100
00000010
,  // measure 49
00000001
00001000
00000010
00000100
00000001
00001000
00000010
00000100
,  // measure 50
00000001
00000010
00000100
00001000
00000010
00000100
00001000
00010000
,  // measure 51
00100000
00000000
10000000
00000000
01000000
00000000
00100000
00000000
00010000
10000000
00010000
00000000
01000000
00000000
00100000
00000000
,  // measure 52
10000000
01000000
10000000
00000000
00100000
00000000
01000000
00000000
00010000
00100000
00010000
00000000
00100000
00000000
00001000
00000000
,  // measure 53
01000000
00001000
00000000
00001000
00010000
00000000
00000100
00000000
00001000
00000000
00000000
00000000
00000100
00000000
00000000
00000000
,  // measure 54
00000010
00000001
00000100
00000010
,  // measure 55
00001000
00000000
00000000
00000000
00000001
00000000
00000000
00000000
00000001
00000010
00000100
00001000
00000001
00000010
00000100
00001000
,  // measure 56
00000001
00000010
00000100
00001000
00000001
00000010
00000100
00001000
00000001
00000100
00000010
00001000
00000001
00000100
00000010
00001000
,  // measure 57
00000001
00000100
00000010
00001000
00000001
00000100
00000010
00000100
00000010
00001000
00000010
00001000
00000100
00001000
00000100
00001000
,  // measure 58
00000100
00010000
00000100
00010000
00001000
00010000
00001000
00010000
00001000
00100000
00001000
00100000
00010000
00100000
00010000
00100000
,  // measure 59
00010000
00000000
10000000
00000000
00100000
00000000
01000000
00000000
00010000
10000000
00100000
01000000
00010000
10000000
00100000
01000000
,  // measure 60
00010000
10000000
00100000
01000000
00010000
10000000
00100000
01000000
00100000
10000000
00100000
10000000
01000000
10000000
01000000
10000000
,  // measure 61
00100000
10000000
00100000
10000000
01000000
10000000
01000000
10000000
00010000
00100000
01000000
10000000
00010000
00100000
01000000
10000000
,  // measure 62
00010000
01000000
00100000
01000000
00100000
01000000
00100000
01000000
00010000
00100000
00010000
00100000
00001000
00010000
00001000
00010000
,  // measure 63
00000100
00001000
00000100
00001000
00000010
00000100
00000010
00000100
00000001
00000000
00000100
00000000
00000010
00000000
00001000
00000000
,  // measure 64
00000100
00000000
00010000
00000000
00001000
00000000
00100000
00010000
01000000
00000000
00100000
00000000
10000000
00000000
01000000
00000000
,  // measure 65
00100000
00000000
00010000
00000000
01000000
00000000
00100000
10000000
01000000
00000000
00100000
00000000
00010000
00000000
01000000
00000000
,  // measure 66
00100000
00000000
00010000
00000000
00001000
00000000
00010000
00000010
00001000
00000000
00000100
00000000
00000010
00000000
00000001
00000100
,  // measure 67
00000010
00000000
00001000
00000000
00000100
00000000
00010000
00001000
00100000
00000000
00010000
00000000
01000000
00000000
00100000
00000000
,  // measure 68
10000000
00000000
01000000
00000000
00010000
00000000
00001000
00010000
00100000
00000000
10000000
00000000
01000000
00000000
00100000
00000000
,  // measure 69
00010000
00000000
10000000
00000000
00100000
00000000
01000000
00010000
00100000
00000000
00001000
00000000
00010000
00000000
00000010
00001000
,  // measure 70
00000100
00000010
00000001
00000100
00000010
00001000
00000100
00000010
,  // measure 71
00000001
00000000
00000100
00000000
00000010
00000000
00001000
00000000
00000100
00010000
00000100
00010000
00000100
00010000
00000100
00010000
,  // measure 72
00001000
00010000
00001000
00010000
00001000
00010000
00001000
00010000
00001000
00100000
00001000
00100000
00001000
00100000
00001000
00100000
,  // measure 73
00001000
00100000
00001000
00100000
00001000
00100000
00001000
00100000
00010000
00000000
00000000
00000000
00000000
00000000
00000000
00000000
,  // measure 74
00000000
00000000
10000000
00000000
,  // measure 75
10000000
00000000
00000000
00000000
00000000
00000000
00000000
00000000
00010000
01000000
00100000
01000000
00010000
00000000
01000000
00100000
,  // measure 76
00000000
00100000
01000000
00000000
00010000
00000000
00100000
00000000
00001000
00100000
00010000
00100000
00001000
00000000
00100000
00001000
,  // measure 77
00000000
00001000
00010000
00000000
00000100
00000000
00010000
00000000
00000010
00001000
00000100
00001000
00000010
00000000
00001000
00000010
,  // measure 78
00000000
00000010
00000100
00000000
00000001
00000000
00001000
00000000
00000000
00000000
00000000
00000000
00000000
00000000
00000000
00000000
,  // measure 79
00000000
00000000
00000000
00000000
00000000
00000000
00000000
00000000
00000001
00000100
00000010
00001000
00000100
00010000
00000010
00010000
,  // measure 80
00001000
00100000
00001000
00100000
00010000
01000000
00100000
10000000
00010000
00000000
00000000
00000000
00000000
00000000
00000000
00000000
;
