#VERSION:0.82;
#TITLE:Easy Love;
#SUBTITLE:;
#ARTIST:Sigala;
#TITLETRANSLIT:;
#SUBTITLETRANSLIT:;
#ARTISTTRANSLIT:;
#GENRE:That's How Easy A Remix Can Be!;
#ORIGIN:;
#CREDIT:;
#BANNER:Easy Love.png;
#BACKGROUND:Easy Love-bg.png;
#PREVIEWVID:;
#JACKET:jacket.png;
#CDIMAGE:;
#DISCIMAGE:;
#LYRICSPATH:;
#CDTITLE:;
#MUSIC:Easy Love.ogg;
#OFFSET:0.014000;
#SAMPLESTART:108.327934;
#SAMPLELENGTH:13.714000;
#SELECTABLE:YES;
#BPMS:0.000=124.000;
#STOPS:;
#DELAYS:;
#WARPS:;
#TIMESIGNATURES:0.000=4=4;
#TICKCOUNTS:0.000=4;
#COMBOS:0.000=1;
#SPEEDS:0.000=1.000=0.000=0;
#SCROLLS:0.000=1.000;
#FAKES:;
#LABELS:0.000=Song Start;
#BGCHANGES:4.000=Easy Love.avi=1.000=0=0=1=====,
99999=-nosongbg-=1.000=0=0=0 // don't automatically add -songbackground-
;
#KEYSOUNDS:;
#ATTACKS:
;

//---------------dance-single - ----------------
#NOTEDATA:;
#CHARTNAME:;
#STEPSTYPE:dance-single;
#DESCRIPTION:;
#CHARTSTYLE:;
#DIFFICULTY:Hard;
#METER:8;
#RADARVALUES:0.453407,0.437797,0.111363,0.090483,0.180965,427.000000,16.000000,13.000000,0.000000,0.000000,0.000000,0.000000,0.000000,0.453407,0.437797,0.111363,0.090483,0.180965,427.000000,16.000000,13.000000,0.000000,0.000000,0.000000,0.000000,0.000000;
#CREDIT:Ben Speirs;
#NOTES:
0000
0000
0000
0000
,
0000
0000
0000
0000
,
0000
0000
0000
0000
,
0000
0000
0000
0000
,
2000
0100
0010
3100
,
0002
0100
0010
0103
,
2000
0000
3010
0100
0001
0000
1000
0000
,
0002
0000
0013
0100
1000
0000
0001
0000
,
1000
0100
1000
0001
1000
0000
1100
0000
,
0001
1000
0001
0100
0001
0000
0101
0000
,
1000
0001
1000
0010
1000
0000
1010
0000
,
1000
0001
0010
0001
1000
0000
0011
0000
,
1000
0001
1000
0000
0010
0100
0001
0000
,
0010
0100
0010
0000
0001
0010
0100
1000
,
0001
0100
0001
0000
1000
0100
1000
0000
,
0001
0100
0010
0000
1000
0100
0010
0000
,
0002
0000
1003
0000
0010
0000
0100
0001
,
2000
0000
3100
0000
1000
0000
0010
0100
,
0002
1003
0100
0000
,
1000
0100
0010
0001
1000
0010
0100
0000
,
0002
0000
1003
0000
0010
0000
0100
0001
,
2000
0000
3100
0000
0010
0000
0001
1000
,
0020
0130
0001
0000
,
1000
0100
0010
0001
1000
0010
0100
0000
,
0000
0001
0100
0000
0001
0000
0101
0000
,
0000
1000
0100
0000
1000
0000
1100
0000
,
0000
0000
0001
0000
1000
0000
0000
0000
0001
0000
0000
0000
1001
0000
0000
0010
,
0000
0000
1000
0000
0100
0000
0000
0010
0000
0000
0001
0000
1000
0000
0000
0000
,
0000
0010
0100
0000
0010
0000
0110
0000
,
0000
0001
0100
0000
0001
0000
0101
0000
,
0000
0000
1000
0000
0100
0000
0000
0000
1000
0000
0000
0000
1100
0000
0000
0001
,
0000
0000
1000
0000
0010
0000
0000
0100
0000
0000
0001
0000
1000
0000
0000
0000
,
0010
0100
0001
1000
0100
0000
0010
0001
,
0010
0100
1000
0001
0100
0000
0001
1000
,
0001
0000
0100
0000
0010
0000
1000
0000
0001
0000
0000
0000
1000
0000
0100
0010
,
0000
0000
0001
0000
1000
0000
0010
0100
0000
0000
0001
0000
1000
0000
0000
0000
,
0001
0100
0010
1000
0001
0000
1000
0100
,
1000
0010
0100
0001
1000
0000
0010
0100
,
0010
0000
1000
0000
0100
0000
0010
0000
0001
0000
0000
0000
1000
0000
0010
0100
,
0000
0000
0001
0000
1000
0000
0100
0010
0000
0000
0001
0000
1000
0000
0000
0000
,
0010
0000
1000
0000
0010
0000
0100
0000
0001
0000
0000
1000
0000
0100
0000
0010
,
0000
0000
0001
0000
1000
0000
0001
0000
0100
0000
0000
0010
0000
1000
0000
0100
,
0000
0000
1000
0000
0001
0000
1000
0000
0100
0000
0000
0010
0000
0001
0000
1000
,
0000
0000
0010
0000
0100
0000
0001
1000
0000
0000
0100
0000
0010
0000
0000
0000
,
0001
0000
1000
0000
0001
0000
0100
0000
0010
0000
0000
1000
0000
0010
0000
0100
,
0000
0000
0001
0000
1000
0000
0001
0000
0100
0000
0000
0001
0000
0010
0000
0100
,
0000
0000
1000
0000
0100
0000
1000
0000
0001
0000
0000
1000
0000
0010
0000
0100
,
0000
0000
0001
0000
1000
0000
0100
0010
0000
0000
0001
0000
1000
0000
0000
0000
,
0010
0010
0010
0000
2000
0000
3001
0000
,
0010
0010
0010
0000
0002
0000
1003
0000
,
0100
0100
0100
0000
2000
0000
3001
0000
,
0100
0001
1000
0000
0100
1000
0001
0000
,
1000
0100
1100
0000
0001
0000
1000
0000
,
0001
0100
0101
0000
1000
0000
0001
0000
,
0010
0100
0110
0000
0001
0000
1000
0000
,
0010
0100
0001
0000
0010
0100
1000
0000
,
0001
0010
0100
1000
0010
0100
0001
1000
,
0010
0100
0001
1000
0100
0010
0001
1000
,
0010
0000
0100
0000
0001
0000
1000
0000
0100
0000
0010
0000
0001
0000
1000
0010
,
0000
0000
1000
0000
0001
0000
1000
0010
0000
0000
1000
0000
0001
0000
1000
0000
,
0010
0100
0001
0010
0100
1000
0010
0100
,
0010
1000
0100
0010
0001
1000
0010
0100
,
0001
0000
1000
0000
0100
0000
0010
0000
0001
0000
1000
0000
0010
0000
0100
0001
,
0000
0000
1000
0000
0001
0000
0100
0001
0000
0000
1000
0000
0001
0000
0000
0000
,
1100
0000
0001
0000
0010
0000
0100
0000
1000
0000
0000
0001
0000
1000
0000
0010
,
0000
0000
0100
0000
0001
0000
1000
0000
0100
0000
0000
0010
0000
0001
0000
1000
,
0000
0000
0010
0000
0100
0000
0010
0000
1000
0000
0000
0100
0000
0010
0000
0001
,
0000
0000
1000
0000
0010
0000
1000
0001
0000
0000
0100
0000
0010
0000
0000
0000
,
0101
0000
1000
0000
0010
0000
0100
0000
0001
0000
0000
1000
0000
0100
0000
0010
,
0000
0000
0001
0000
1000
0000
0010
0000
0100
0000
0000
0010
0000
1000
0000
0001
,
0000
0000
0010
0000
0001
0000
1000
0000
0100
0000
0000
1000
0000
0001
0000
0100
,
0000
0000
0010
0000
1000
0000
0100
0010
0000
0000
0001
0000
1000
0000
0000
0000
,
0101
0000
1000
0000
0100
0000
0010
0001
,
1000
0000
0010
0000
0100
0000
0001
1000
,
0100
0000
0000
0000
;

//---------------dance-single - ----------------
#NOTEDATA:;
#CHARTNAME:;
#STEPSTYPE:dance-single;
#DESCRIPTION:;
#CHARTSTYLE:;
#DIFFICULTY:Challenge;
#METER:10;
#RADARVALUES:0.688066,0.849841,0.201846,0.034801,0.814344,658.000000,29.000000,5.000000,0.000000,0.000000,0.000000,0.000000,0.000000,0.688066,0.849841,0.201846,0.034801,0.814344,658.000000,29.000000,5.000000,0.000000,0.000000,0.000000,0.000000,0.000000;
#CREDIT:Ben Speirs;
#NOTES:
0000
0000
0000
0000
,
0000
0000
0000
0000
,
0000
0000
0000
0000
,
0000
0000
0000
0000
,
1000
0000
0010
0000
0100
0000
0010
0000
0001
0000
0010
0000
1000
0001
1000
0000
,
0001
0010
0100
0000
1000
0010
0100
0000
,
0001
1000
0010
0100
0001
0010
0100
1000
,
0010
1000
0001
0010
0100
1000
0001
0000
,
0100
0000
0010
0000
0010
0000
0010
0000
0010
0000
1000
0100
0000
0010
0000
0001
,
1000
0000
0001
0000
0001
0000
0001
0000
0001
0000
0010
0001
0000
1000
0000
0010
,
0100
0000
0001
0000
0001
0000
0001
0000
0001
0000
0100
0010
0000
1000
0000
0001
,
0010
0000
0100
0000
0100
0000
0100
0000
0100
0000
1000
0001
0000
0001
0000
1000
,
0010
0000
0100
0000
0100
0000
0100
0000
0100
0000
0001
0010
0000
0100
0000
1000
,
0001
0000
1000
0000
1000
0000
1000
0000
1000
0000
0100
1000
0000
0001
0000
0100
,
0010
0000
1000
0000
1000
0000
1000
0000
1000
0000
0010
0100
0000
0001
0000
1000
,
0100
0000
0010
0000
0010
0000
0010
0000
0010
0000
0001
0010
0000
0100
0000
0100
,
1000
0000
0100
0000
0010
0000
0001
1000
0000
0000
0010
0000
1000
0001
0000
0100
,
0000
0000
0010
0000
1000
0000
0100
0010
0000
0000
0000
0000
0001
1000
0000
0001
,
0000
0000
0100
0000
0010
0000
1000
0001
0000
0000
0000
0000
0000
0000
0000
1000
,
0000
0000
0100
0000
0010
0000
0001
1000
0000
0000
0010
0000
0100
0000
0000
0000
,
0001
0000
1000
0000
0010
0000
1000
0001
0000
0000
0010
0000
0100
1000
0000
0001
,
0000
0000
1000
0000
0010
0000
0100
0001
0000
0000
0000
0000
1000
0100
0000
0010
,
0000
0000
0001
0000
1000
0000
0010
0100
0000
0000
0000
0000
0000
0000
0000
0001
,
0000
0000
1000
0000
0100
0000
0010
0001
0000
0000
1000
0000
0010
0000
0000
0000
,
1000
0000
0100
0000
1100
0000
1000
0000
0001
0000
0000
1000
0000
0001
0000
0100
,
0000
0000
0001
0000
0101
0000
0001
0000
1000
0000
0000
0001
0000
0100
0000
0010
,
0000
0000
1000
0000
1010
0000
1000
0000
0001
0000
0001
0010
0000
0010
0000
0100
,
1000
0000
0100
0000
1000
0000
0001
0100
0000
0001
1000
0001
0010
0000
0000
0000
,
0001
0000
0010
0000
0011
0000
0001
0000
1000
0000
0000
0001
0000
1000
0000
0010
,
0000
0000
1000
0000
1010
0000
1000
0000
0001
0000
0000
1000
0000
0010
0000
0100
,
0000
0000
0001
0000
0101
0000
0001
0000
1000
0000
1000
0100
0000
0100
0000
0010
,
0001
0000
0010
0000
0001
0000
1000
0010
0100
0001
0100
0010
1000
0001
1000
0000
,
1010
0000
0010
0000
0100
0000
0001
1000
0001
0000
0100
0010
0000
1000
0000
1000
,
0100
0000
0010
0000
0001
0000
1000
0001
1000
0000
0100
0010
0000
0010
0000
0001
,
1000
0000
0010
0000
0100
0000
0001
1000
0001
0000
0100
0000
0010
0000
1000
0100
,
0000
0100
0010
0000
0001
0000
1000
0010
0000
0010
0100
0000
0001
0000
0000
0000
,
0101
0000
0100
0000
0010
0000
1000
0001
1000
0000
0010
0100
0000
0001
0000
0001
,
0010
0000
0100
0000
1000
0000
0001
1000
0001
0000
0010
0100
0000
0100
0000
1000
,
0001
0000
0100
0000
0010
0000
1000
0001
1000
0000
0010
0000
0100
0000
0001
0010
,
0000
0010
0100
0000
1000
0000
0001
0100
0001
1000
0100
0010
0001
1000
0010
0000
,
1000
0000
1010
0000
1001
0000
0101
0000
0001
0010
0100
1000
0000
0001
0000
0100
,
0010
0000
0101
0000
0110
0000
1010
0000
1000
0010
0100
0001
0000
1000
0000
0100
,
0010
0000
0110
0000
0011
0000
1001
0000
0001
1000
0100
0010
0000
0001
0000
1000
,
0010
1000
0001
0000
0100
0000
0001
0100
0001
1000
0100
0000
1001
0000
0000
0000
,
0001
0000
0101
0000
1001
0000
1010
0000
1000
0100
0010
0001
0000
1000
0000
0010
,
0100
0000
1010
0000
0110
0000
0101
0000
0001
0100
0010
1000
0000
0001
0000
0010
,
0100
0000
0110
0000
1100
0000
1001
0000
1000
0001
0010
0100
0000
1000
0000
0001
,
0100
0001
1000
0000
0010
0000
1000
0010
1000
0001
0010
0000
1001
0000
0000
0000
,
1000
0000
0001
0000
0100
0000
0000
0010
0000
0010
0000
0100
0000
0100
0000
0000
,
0001
0000
1000
0000
0010
0000
0000
1000
0000
1000
0000
0100
0000
0100
0000
0000
,
1000
0000
0001
0000
0010
0000
0000
0001
0000
0001
0000
1000
0000
1000
0000
0000
,
0010
0000
0100
0000
0001
0000
1000
0100
0000
0010
0001
0000
1000
0000
0000
0000
,
0001
0000
1000
0000
0010
0000
0100
0001
0000
1000
0000
0100
0010
0000
0001
0000
,
1000
0000
0010
0000
0100
0000
0001
1000
0000
0100
0000
0010
0001
0000
1000
0000
,
0010
0000
0100
0000
0001
0000
0010
0100
0000
1000
0000
0010
0100
0000
0001
0000
,
1000
0000
0100
0000
0010
0000
0001
0000
1000
0100
0010
0001
0010
0100
1000
0000
,
0001
0100
0010
1000
0100
0010
0001
1000
0010
0000
0100
0000
0001
0000
1000
0000
,
0100
0010
0001
0010
0100
1000
0001
0100
0010
0000
1000
0000
0001
0000
0100
0000
,
0010
1000
0100
0010
0001
1000
0010
0100
0001
0000
1000
0000
0100
0000
0010
0002
,
0000
0000
1003
0000
1000
0000
0010
2000
0000
0000
3001
0000
0001
0000
0000
0000
,
1000
0010
0100
0001
0010
0100
1000
0001
0100
0000
0010
0000
1000
0000
0001
0000
,
0010
0100
1000
0100
0010
0001
1000
0010
0100
0000
0001
0000
1000
0000
0010
0000
,
0100
0001
0010
0100
1000
0001
0100
0010
1000
0000
0001
0000
0010
0000
0100
2000
,
0000
0000
3001
0000
0001
0000
0100
0002
0000
0000
1003
0000
1000
0000
0000
0000
,
0001
0100
0001
0100
0001
0100
0001
0100
0010
1000
0100
0010
0001
1000
0010
0100
,
0001
1000
0001
1000
0001
1000
0001
1000
0010
0100
0001
0010
0100
1000
0001
0010
,
0100
1000
0100
1000
0100
1000
0100
1000
0010
0100
0001
0010
0100
1000
0001
0100
,
0000
0100
0010
0000
1000
0000
0100
0010
0000
0010
0001
0000
1000
0000
0001
0000
,
1000
0010
1000
0010
1000
0010
1000
0010
0100
0001
0010
0100
1000
0001
0100
0010
,
1000
0001
1000
0001
1000
0001
1000
0001
0100
0010
1000
0100
0010
0001
1000
0100
,
0010
0001
0010
0001
0010
0001
0010
0001
0100
0010
1000
0100
0010
0001
1000
0010
,
0000
0010
0100
0000
0001
0000
0010
0100
0000
0100
1000
0000
0001
0000
0000
0000
,
1200
0010
0010
0010
,
0010
0010
0010
0010
,
0310
0000
0000
0000
;

//---------------dance-double - ----------------
#NOTEDATA:;
#CHARTNAME:;
#STEPSTYPE:dance-double;
#DESCRIPTION:;
#CHARTSTYLE:;
#DIFFICULTY:Challenge;
#METER:8;
#RADARVALUES:0.520027,0.540808,0.153124,0.146164,0.285368,480.000000,22.000000,21.000000,0.000000,0.000000,0.000000,0.000000,0.000000,0.520027,0.540808,0.153124,0.146164,0.285368,480.000000,22.000000,21.000000,0.000000,0.000000,0.000000,0.000000,0.000000;
#CREDIT:Ben Speirs;
#NOTES:
// measure 0
00000000
00000000
00000000
00000000
,  // measure 1
00000000
00000000
00000000
00000000
,  // measure 2
00000000
00000000
00000000
00000000
,  // measure 3
00000000
00000000
00000000
00000000
,  // measure 4
20000000
01000000
00100000
30020000
,  // measure 5
02030000
00100000
00010000
03002000
,  // measure 6
00023000
00100000
00001000
00030020
,  // measure 7
00002030
00000100
00000010
00003001
,  // measure 8
00001000
00000001
00001000
00000001
00001000
00000000
00000010
00000000
,  // measure 9
00000100
00000001
00000100
00000001
00000100
00000000
00000001
00000000
,  // measure 10
00001000
00000100
00001000
00000100
00001000
00000000
00000100
00000000
,  // measure 11
00010000
00001000
00010000
00001000
00010000
00000000
00000100
00000000
,  // measure 12
00100000
00001000
00100000
00010000
00100000
00000000
00001000
00000000
,  // measure 13
01000000
00010000
01000000
00001000
01000000
00000000
00010000
00000000
,  // measure 14
10000000
01000000
10000000
00100000
10000000
00000000
00100000
00000000
,  // measure 15
01000000
00100000
01000000
00010000
01000000
00000000
00010000
00000000
,  // measure 16
10000000
01000000
10000000
00000000
00010000
00000000
10000000
00000000
,  // measure 17
00100000
00000000
01000000
00010000
10000000
00000000
00000000
00000000
,  // measure 18
00010000
00100000
01000000
00000000
10000000
00000000
00000000
00000000
,  // measure 19
00100000
01000000
00010000
00100000
00001000
00000100
00000001
00000000
,  // measure 20
00000001
00000010
00000001
00000000
00001000
00000000
00000001
00000000
,  // measure 21
00000100
00000000
00000010
00001000
00000001
00000000
00000000
00000000
,  // measure 22
00001000
00000100
00000010
00000000
00000001
00000000
00000000
00000000
,  // measure 23
00000100
00000010
00001000
00000100
00010000
00100000
10000000
00000000
,  // measure 24
00000000
00000000
00010000
00000000
00110000
00000000
00010000
00000000
10000000
00000000
00000000
00100000
00000000
01000000
00000000
00010000
,  // measure 25
00000000
00000000
10000000
00000000
11000000
00000000
10000000
00000000
00010000
00000000
00000000
10000000
00000000
00100000
00000000
01000000
,  // measure 26
00000000
00000000
00010000
00000000
01010000
00000000
00010000
00000000
10000000
00000000
00000000
01000000
00000000
00100000
00000000
00020000
,  // measure 27
00000000
00000000
01030000
00000000
01000000
00000000
00001000
00010000
00000000
00001000
00010000
00000000
00000100
00000000
00000000
00000000
,  // measure 28
00000000
00000000
00001000
00000000
00001100
00000000
00001000
00000000
00000001
00000000
00000000
00000100
00000000
00000010
00000000
00001000
,  // measure 29
00000000
00000000
00000001
00000000
00000011
00000000
00000001
00000000
00001000
00000000
00000000
00000001
00000000
00000100
00000000
00000010
,  // measure 30
00000000
00000000
00001000
00000000
00001010
00000000
00001000
00000000
00000001
00000000
00000000
00000010
00000000
00000100
00000000
00002000
,  // measure 31
00000000
00000000
00003010
00000000
00000010
00000000
00010000
00001000
00000000
00010000
00001000
00000000
00011000
00000000
00000000
00000000
,  // measure 32
00001010
00000010
00000100
00000001
00000010
00000100
00001000
00000001
,  // measure 33
00000100
00000100
00000010
00000100
00000001
00000010
00000100
00001000
,  // measure 34
00000001
00000000
00000001
00000000
00001000
00000000
00000100
00000000
00000010
00000000
00000001
00000000
00001000
00000000
00000100
00010000
,  // measure 35
00000000
00010000
00001000
00000000
00001000
00000000
00100000
00010000
00000000
00010000
10000000
00000000
10010000
00000000
00000000
00000000
,  // measure 36
01010000
01000000
00100000
10000000
01000000
00100000
00010000
10000000
,  // measure 37
00100000
00100000
01000000
00100000
10000000
01000000
00100000
00010000
,  // measure 38
10000000
00000000
10000000
00000000
00010000
00000000
00100000
00000000
01000000
00000000
10000000
00000000
00010000
00000000
00100000
00001000
,  // measure 39
00000000
00001000
00010000
00000000
00010000
00000000
00000100
00001000
00000000
00001000
00000001
00000000
00001001
00000000
00000000
00000000
,  // measure 40
00002000
00000000
00000100
00000000
00000100
00000000
00003100
00000000
00010000
00000000
00000100
00001000
00000000
00000100
00000000
00010000
,  // measure 41
00002000
00000000
00010000
00000000
00010000
00000000
00013000
00000000
00000100
00000000
00000100
00000010
00000000
00000001
00000000
00000100
,  // measure 42
00000010
00000000
00001000
00000000
00000100
00000000
00000100
00000000
00010000
00000000
00001000
00100000
00000000
00010000
00000000
10000000
,  // measure 43
00100000
00000000
01000000
00000000
00010000
00000000
10000000
01000000
10000000
00000000
00010000
00000000
01000000
00000000
00000000
00000000
,  // measure 44
00020000
00000000
00100000
00000000
00100000
00000000
00130000
00000000
00001000
00000000
00100000
00010000
00000000
00100000
00000000
00001000
,  // measure 45
00020000
00000000
00001000
00000000
00001000
00000000
00031000
00000000
00100000
00000000
00100000
01000000
00000000
10000000
00000000
00100000
,  // measure 46
01000000
00000000
00010000
00000000
00100000
00000000
00100000
00000000
00001000
00000000
00010000
00000100
00000000
00001000
00000000
00000001
,  // measure 47
00000100
00000000
00000010
00000000
00001000
00000000
00000001
00000010
00000001
00000000
00001000
00000000
00000010
00000000
00000000
00000000
,  // measure 48
00001000
00000001
00001001
00000000
00000000
00000000
00000000
00000000
,  // measure 49
00010000
00001000
00011000
00000000
00000000
00000000
00000000
00000000
,  // measure 50
10000000
00010000
10010000
00000000
00000000
00000000
00000000
00000000
,  // measure 51
00001000
00010000
00001000
00010000
00001000
00000100
00000001
00000000
,  // measure 52
00002000
00000100
00003100
00000000
00001000
00000000
00001001
00000000
,  // measure 53
00000002
00000100
00000103
00000000
00001000
00000000
00001001
00000000
,  // measure 54
00001000
00000100
00010000
00000000
00010000
00001000
01000000
00000000
,  // measure 55
00010000
01000000
00010000
10000000
01000000
10000000
00010000
00000000
,  // measure 56
11000000
00000000
01000000
00000000
01000000
00000000
00100000
00000000
01000000
00000000
10000000
01000000
00000000
01000000
00000000
00100000
,  // measure 57
00010000
00000000
00010000
00000000
00010000
00000000
00100000
00000000
00010000
00000000
01000000
00100000
00000000
00100000
00000000
10000000
,  // measure 58
01000000
00000000
01000000
00000000
01000000
00000000
10000000
00000000
01000000
00000000
00100000
00010000
00000000
00010000
00000000
10000000
,  // measure 59
00100000
00000000
00010000
00000000
00001000
00000000
00000010
00000001
00000000
00000001
00001000
00000000
00001001
00000000
00000000
00000000
,  // measure 60
00000011
00000000
00000010
00000000
00000010
00000000
00000100
00000000
00000010
00000000
00000001
00000010
00000000
00000010
00000000
00000100
,  // measure 61
00001000
00000000
00001000
00000000
00001000
00000000
00000100
00000000
00001000
00000000
00000010
00000100
00000000
00000100
00000000
00000001
,  // measure 62
00000010
00000000
00000010
00000000
00000010
00000000
00000001
00000000
00000010
00000000
00000100
00001000
00000000
00001000
00000000
00000001
,  // measure 63
00000100
00000000
00001000
00000000
00010000
00000000
01000000
10000000
00000000
10000000
00010000
00000000
10010000
00000000
00000000
00000000
,  // measure 64
10000000
00000000
01000000
00000000
00100000
00000000
01000000
00000000
00010000
00000000
01000000
00000000
10000000
01000000
10000000
00000000
,  // measure 65
00010000
00000000
01000000
00000000
00100000
00000000
01000000
00000000
10000000
00000000
01000000
00000000
00010000
01000000
00010000
00000000
,  // measure 66
10000000
00000000
01000000
00000000
00010000
00000000
00001000
00000000
00000100
00000000
00000001
00000000
00001000
00000100
00001000
00000002
,  // measure 67
00000000
00000000
00000103
00000000
00000100
00000000
00000000
00000002
00000000
00000000
00001000
00000000
00001003
00000000
00000000
00000000
,  // measure 68
00000001
00000000
00000010
00000000
00000100
00000000
00000010
00000000
00001000
00000000
00000010
00000000
00000001
00000010
00000001
00000000
,  // measure 69
00001000
00000000
00000010
00000000
00000100
00000000
00000010
00000000
00000001
00000000
00000010
00000000
00001000
00000010
00001000
00000000
,  // measure 70
00000001
00000000
00000010
00000000
00001000
00000000
00010000
00000000
00100000
00000000
10000000
00000000
00010000
00100000
00010000
20000000
,  // measure 71
00000000
00000000
30100000
00000000
00100000
00000000
00000000
20000000
00000000
00000000
00010000
00000000
30010000
00000000
00000000
00000000
,  // measure 72
21000000
01000000
01000000
31000000
,  // measure 73
01020000
01000000
01000000
01000000
,  // measure 74
01030000
00000000
00000000
00000000
;

//---------------dance-single - ----------------
#NOTEDATA:;
#CHARTNAME:;
#STEPSTYPE:dance-single;
#DESCRIPTION:;
#CHARTSTYLE:;
#DIFFICULTY:Medium;
#METER:5;
#RADARVALUES:0.307243,0.360538,0.167045,0.083522,0.000000,273.000000,24.000000,12.000000,0.000000,0.000000,0.000000,0.000000,0.000000,0.307243,0.360538,0.167045,0.083522,0.000000,273.000000,24.000000,12.000000,0.000000,0.000000,0.000000,0.000000,0.000000;
#CREDIT:Ben Speirs;
#NOTES:
0000
0000
0000
0000
,
0000
0000
0000
0000
,
0000
0000
0000
0000
,
0000
0000
0000
0000
,
0100
0000
0010
0000
1000
0000
0100
0100
,
0000
0000
0010
0000
0001
0000
1000
0100
,
1000
0000
0001
0000
1000
0000
0010
0010
,
0000
1000
0001
0000
,
0101
1000
0001
0010
,
1100
0000
0001
0000
1000
0000
0010
0100
,
0001
0000
1000
0000
0001
0000
0010
0100
,
1000
0001
1000
0010
,
0110
0001
1000
0001
,
0011
0000
1000
0000
0001
0000
0100
0010
,
1000
0000
0100
0000
0010
0000
0001
1000
,
0001
0100
0010
0000
,
2000
0000
0000
3100
,
0002
0000
0000
0103
,
2000
0000
0000
3000
,
0010
1000
0100
0000
0010
0001
0100
0000
,
0002
0000
0000
0013
,
2000
0000
0000
3010
,
0002
0000
0000
0003
,
0010
0001
1000
0000
0100
1000
0001
0000
,
0000
1100
0100
0010
,
0000
0011
0001
1000
,
0000
1010
1000
0001
,
0100
0010
0100
0000
0010
0100
0010
0000
,
0000
0110
0100
0001
,
0000
0101
0001
1000
,
0000
1100
1000
0001
,
0010
0100
0010
0000
0100
0010
0100
0000
,
1000
0100
0010
0001
,
1000
0001
0100
0100
,
0010
1000
0001
0100
,
0001
0100
0001
1000
0001
0010
0001
0000
,
0100
0001
0010
0010
,
0001
1000
0100
0100
,
0010
0001
0100
0010
,
1000
0100
1000
0010
1000
0001
1000
0000
,
0000
0101
1001
0100
,
0000
1100
1001
0010
,
0000
0011
1010
0001
,
1000
0001
0100
0000
0001
1000
0100
0000
,
0000
1100
0001
1010
,
0000
0101
1000
0110
,
0000
0011
0110
1001
,
1000
0001
0100
0000
0001
1000
0010
0000
,
0100
0000
0100
0100
,
0001
0000
0001
0001
,
1000
0000
1000
1000
,
0100
0000
0010
0000
,
0001
0010
0000
0100
,
1000
0010
0000
0010
,
1000
0001
0000
0001
,
1000
0000
0001
0000
1000
0100
0010
0000
,
0001
0100
0001
1000
0001
0000
0000
0000
,
1000
0100
1000
0001
1000
0000
0000
0000
,
0001
0100
0001
1000
0001
0000
0000
0000
,
0200
0310
2000
3100
,
1000
0100
1000
0001
1000
0000
0000
0000
,
0001
0100
0001
1000
0001
0000
0000
0000
,
1000
0100
1000
0001
1000
0000
0000
0000
,
0020
0130
0002
1003
,
1001
0000
0000
0000
1000
0000
0100
0010
,
0001
0000
0000
0000
0100
0000
0001
1000
,
0010
0000
1000
0100
,
0010
0001
0010
0001
1000
0100
1000
0000
,
0001
1000
0000
0010
,
1000
0100
0010
0000
0000
0000
0001
0000
,
1000
0001
0100
0000
0000
0000
0001
0000
,
1000
0100
1000
0100
0010
0001
0010
0000
,
0002
0000
0000
0000
,
2003
0000
0000
0000
,
3010
0000
0000
0000
;

//---------------dance-single - ----------------
#NOTEDATA:;
#CHARTNAME:;
#STEPSTYPE:dance-single;
#DESCRIPTION:;
#CHARTSTYLE:;
#DIFFICULTY:Easy;
#METER:2;
#RADARVALUES:0.164062,0.206022,0.027841,0.055682,0.000000,153.000000,4.000000,8.000000,0.000000,0.000000,0.000000,0.000000,0.000000,0.164062,0.206022,0.027841,0.055682,0.000000,153.000000,4.000000,8.000000,0.000000,0.000000,0.000000,0.000000,0.000000;
#CREDIT:Ben Speirs;
#NOTES:
0000
0000
0000
0000
,
0000
0000
0000
0000
,
0000
0000
0000
0000
,
0000
0000
0000
0000
,
0001
0000
1000
0000
,
0010
0000
0100
0000
,
0001
0000
0000
0000
,
1000
0000
0000
0000
,
0000
0100
0100
0100
,
0000
1000
1000
1000
,
0000
0001
0001
0001
,
0000
0100
0100
0100
,
0000
0001
0000
1000
,
0000
0010
0000
0100
,
0000
0001
0010
0100
,
0000
1000
0001
0000
,
2000
0000
0000
3000
,
0002
0000
0000
0003
,
0200
0000
0000
0300
,
0010
0100
0001
0000
,
0020
0000
0000
0030
,
0200
0000
0000
0300
,
2000
0000
0000
3000
,
0100
1000
0001
0000
,
0000
0100
0000
0010
,
0000
1000
0000
0001
,
0000
0010
0000
0001
,
1000
0100
0010
0001
,
0000
1000
0000
0010
,
0000
0100
0000
0001
,
0000
0001
0000
0010
,
0001
1000
0100
0000
,
1000
0001
1000
0000
,
0010
0100
0010
0000
,
1000
0010
1000
0000
,
0001
0000
1000
0000
,
0001
0100
0001
0000
,
1000
0100
1000
0000
,
0001
1000
0001
0000
,
0100
0000
0100
0000
,
0000
0010
1000
0000
,
0000
0100
0010
0000
,
0000
0001
0100
0000
,
0010
0010
1000
1000
,
0000
0100
0010
0000
,
0000
0001
1000
0000
,
0000
0010
0100
0000
,
0001
0001
1000
1000
,
0100
0000
0000
0000
,
1000
0000
0000
0000
,
0001
0000
0000
0000
,
0100
0000
0100
0000
,
0010
0000
0000
0000
,
1000
0000
0000
0000
,
0001
0000
0000
0000
,
0010
0000
0000
0000
,
1001
0000
0100
0100
,
1000
0000
1000
1000
,
0010
0000
0100
0000
,
0001
1000
0001
0000
,
1001
0000
0001
0000
,
0010
0000
0010
0010
,
0100
0000
0100
0000
,
1000
0100
1000
0000
,
1001
0000
0000
0010
,
1000
0000
0000
0001
,
0010
0000
0000
0001
,
1000
0100
0010
0001
,
0100
0000
0000
0001
,
1000
0000
0000
0100
,
0010
0000
0000
0001
,
1000
0100
0010
0001
,
0200
0000
0000
0300
,
0020
0000
0000
0030
,
1001
0000
0000
0000
;

//---------------dance-single - ----------------
#NOTEDATA:;
#CHARTNAME:;
#STEPSTYPE:dance-single;
#DESCRIPTION:;
#CHARTSTYLE:;
#DIFFICULTY:Beginner;
#METER:1;
#RADARVALUES:0.105397,0.150340,0.034801,0.000000,0.000000,101.000000,5.000000,0.000000,0.000000,0.000000,0.000000,0.000000,0.000000,0.105397,0.150340,0.034801,0.000000,0.000000,101.000000,5.000000,0.000000,0.000000,0.000000,0.000000,0.000000,0.000000;
#CREDIT:Ben Speirs;
#NOTES:
0000
0000
0000
0000
,
0000
0000
0000
0000
,
0000
0000
0000
0000
,
0000
0000
0000
0000
,
1000
0000
0000
0000
,
0001
0000
0000
0000
,
0010
0000
0000
0000
,
0010
0000
0000
0000
,
0001
0000
0000
0000
,
1000
0000
0000
0000
,
0100
0000
0000
0000
,
0100
0000
0000
0000
,
1000
0000
0000
0000
,
0001
0000
0000
0000
,
0010
0000
0000
0000
,
0010
0000
0000
0000
,
1001
0000
0000
0000
,
0100
0000
0000
0000
,
1000
0000
0000
0000
,
0010
0000
0000
0000
,
0100
0000
0000
0000
,
0001
0000
0000
0000
,
1000
0000
0000
0000
,
0100
0000
0000
0000
,
0000
1000
1000
0000
,
0000
0001
0001
0000
,
0000
0100
0100
0000
,
0010
0000
0000
0000
,
0000
1000
1000
0000
,
0000
0100
0100
0000
,
0000
0010
0010
0000
,
0001
0000
0000
0000
,
1001
0000
0000
0000
,
0001
0000
0001
0000
,
0100
0000
0000
0000
,
0010
0000
1000
0000
,
0100
0000
0000
0000
,
1000
0000
1000
0000
,
0010
0000
0000
0000
,
0100
0000
0001
0000
,
1001
0000
0000
1000
,
1000
0000
0000
0010
,
0010
0000
0000
0100
,
0100
0000
0001
0000
,
0000
0000
0000
0010
,
0010
0000
0000
0100
,
0100
0000
0000
1000
,
1000
0000
0001
0000
,
0100
0000
0000
0000
,
0001
0000
0000
0000
,
1000
0000
0000
0000
,
0100
0000
0100
0000
,
0100
0000
0000
0000
,
0010
0000
0000
0000
,
0001
0000
0000
0000
,
1000
0000
0000
0000
,
1001
0000
0000
0010
,
0010
0000
0000
1000
,
1000
0000
0000
0000
,
0100
0000
0100
0000
,
0010
0000
0000
0001
,
0001
0000
0000
1000
,
1000
0000
0000
0000
,
0010
0000
0010
0000
,
1000
0000
0000
0100
,
0000
0100
0000
0010
,
0000
0010
0000
0001
,
0001
0000
1000
0000
,
0000
0010
0000
0010
,
0000
1000
0000
1000
,
0000
0100
0000
0100
,
0100
0000
0010
0000
,
1001
0000
0000
0000
;
