#VERSION:0.83;
#TITLE:Finesse (Remix);
#SUBTITLE:feat. Cardi B;
#ARTIST:Bruno Mars;
#TITLETRANSLIT:;
#SUBTITLETRANSLIT:;
#ARTISTTRANSLIT:;
#GENRE:Hip-Hop;
#ORIGIN:;
#CREDIT:;
#BANNER:Finesse (Remix).png;
#BACKGROUND:Finesse (Remix)-bg.png;
#PREVIEWVID:;
#JACKET:jacket.png;
#CDIMAGE:;
#DISCIMAGE:;
#LYRICSPATH:;
#CDTITLE:;
#MUSIC:Finesse (Remix).ogg;
#OFFSET:0.000000;
#SAMPLESTART:67.620331;
#SAMPLELENGTH:13.714000;
#SELECTABLE:YES;
#BPMS:0.000=105.000;
#STOPS:;
#DELAYS:;
#WARPS:;
#TIMESIGNATURES:0.000=4=4;
#TICKCOUNTS:0.000=4;
#COMBOS:0.000=1;
#SPEEDS:0.000=1.000=0.000=0;
#SCROLLS:0.000=1.000;
#FAKES:;
#LABELS:0.000=Song Start;
#BGCHANGES:3.500=Finesse (Remix).avi=1.000=0=0=1=====,
99999=-nosongbg-=1.000=0=0=0 // don't automatically add -songbackground-
;
#KEYSOUNDS:;
#ATTACKS:
;

//---------------dance-single - ----------------
#NOTEDATA:;
#CHARTNAME:;
#STEPSTYPE:dance-single;
#DESCRIPTION:;
#CHARTSTYLE:;
#DIFFICULTY:Hard;
#METER:8;
#RADARVALUES:0.530406,0.565217,0.372093,0.169869,0.307381,459.000000,413.000000,46.000000,21.000000,0.000000,0.000000,0.000000,0.000000,0.000000,0.530406,0.565217,0.372093,0.169869,0.307381,459.000000,413.000000,46.000000,21.000000,0.000000,0.000000,0.000000,0.000000,0.000000;
#CREDIT:Ben Speirs;
#NOTES:
0000
0000
0000
0000
,
0000
0000
0000
0000
,
1000
0000
0000
0100
0000
0000
1100
0000
0000
0000
0000
0000
0001
0000
0100
0001
0000
0100
0001
0000
0000
0000
0000
0000
,
0100
0000
0010
0100
0000
0010
1000
0000
0000
0001
0000
0000
1000
0000
0000
0100
0000
0000
0010
0000
0000
0000
0000
0000
,
0001
0010
0011
0000
1000
0010
1010
0000
,
0001
0000
1000
0001
0000
0000
1000
0000
0000
0010
0000
0100
0010
0000
0000
0100
0000
0000
0001
0000
0000
0100
0000
0000
,
0010
0000
0000
0010
0000
0000
1000
0000
0010
1000
0000
0000
0001
0000
0010
0001
0000
0000
0100
0000
0000
0000
0000
0000
,
0001
0000
0000
0100
0000
0000
0010
0000
1000
0010
0000
0000
1000
0000
0100
1000
0000
0000
0001
0000
0000
0000
0000
0000
,
1000
0000
0000
0100
0000
0000
0010
0000
0000
0001
0000
0000
0100
0000
0010
0100
0000
0001
1000
0000
0000
0000
0000
0000
,
0001
0000
0000
0000
0000
1000
0100
0000
0000
1100
0000
0000
0000
0000
0001
0100
0000
0000
0101
0000
0000
0000
0000
0000
,
2001
0000
0000
0000
0000
0000
3100
0000
0000
0000
0000
0000
1000
0000
0100
1000
0000
0100
1000
0000
0000
0001
0000
0000
,
0201
0000
0000
0000
0000
0000
0310
0000
0000
0000
0000
0000
0100
0000
0001
0100
0000
0001
0100
0000
0000
0001
0000
0000
,
2010
0000
3001
0010
0012
0000
1003
0001
,
0101
0000
0000
0000
0000
1000
0100
0000
0000
1100
0000
0000
0000
0000
0001
0010
0000
0000
0011
0000
0000
0000
0000
0000
,
2001
0000
0000
0010
0000
0000
0001
3000
0000
0000
0000
0000
1000
0000
0000
0100
0000
0000
0010
0000
0000
0001
0000
0100
,
0010
0000
0000
0000
0000
0000
0100
0000
0000
0001
0000
0000
1000
0000
0000
0010
0000
0000
1000
0000
0100
0010
0000
0001
,
0100
0100
0010
1000
0010
0010
1000
0001
,
0020
0000
0130
0010
0000
0011
1100
0000
,
0001
0000
0000
0200
0000
0000
1000
0000
0000
0000
0000
0000
0310
0000
0000
0100
0000
0000
0001
0000
0000
1000
0000
0100
,
0010
0000
0000
0000
0000
0000
0001
0000
0000
0010
0000
0000
0100
0000
0000
1000
0000
0000
0010
0000
1000
0001
0000
0000
,
0200
0000
0310
0100
0001
1000
0100
0000
,
1100
0000
0000
0000
0000
0001
0100
0000
0000
0101
0000
0000
0000
0000
1000
0010
0000
0000
1010
0000
0000
0000
0000
0000
,
1001
0000
0000
0001
0000
0100
0001
0000
0100
0001
0000
0000
0100
0000
0000
0010
0000
1000
0010
0000
0000
1000
0000
0000
,
0010
0000
0000
1000
0000
0100
1000
0000
0000
0100
0000
0000
1000
0000
0000
0001
0000
0010
0001
0000
0010
0001
0000
0000
,
0010
0000
0000
0001
0000
1000
0001
0000
0000
1000
0000
0001
1000
0000
0000
0010
0000
1000
0010
0000
0000
1000
0000
0010
,
1000
0000
1001
0000
0110
0100
1001
0000
,
0201
2300
3200
0302
,
1003
0000
0100
1000
0000
0100
1000
0000
0000
0001
0000
0100
0001
0000
0000
1000
0000
0000
0001
0000
0000
0000
0000
0000
,
1100
0000
0001
1000
0000
0000
0001
0000
0000
0100
0000
0000
1001
0000
0000
0000
0000
0000
0001
0000
0000
0000
0000
0000
,
0101
0000
0000
0000
0000
1000
0100
0000
0000
1100
0000
0000
0000
0000
0001
0010
0000
0000
0011
0000
0000
0000
0000
0000
,
2100
0100
0001
0010
3010
0000
1001
0000
,
0001
0000
0100
0010
0000
0000
0100
0000
0000
0010
0000
0000
1000
0000
0000
0001
0000
0000
1000
0000
0000
0000
0000
0000
,
0012
0010
0100
1000
1003
0000
1000
0200
,
0010
0000
0310
0002
0100
0000
0103
0010
,
0210
0010
0001
0010
0310
0000
1001
0000
,
0010
0000
1000
0001
0000
0000
0010
0000
0000
0001
0000
0000
0100
0000
0000
0000
0000
0000
0010
0000
0000
0000
0000
0000
,
0110
0110
0010
1001
1001
0000
1000
0100
,
1100
0000
0000
0001
,
0101
0100
0010
0100
0001
0100
0010
0100
,
0001
0010
0200
0000
1000
0000
0310
0000
,
1100
0000
0000
0100
0000
0000
1000
0000
0000
0010
0000
0100
0010
0000
0100
0010
0000
0000
1000
0000
0000
0100
0000
0010
,
0001
0000
0000
0100
0000
0000
0010
0000
0000
1000
0000
0001
1000
0000
0001
1000
0000
0000
0010
0000
0000
0000
0000
0000
,
0101
0000
0000
0100
0000
0000
0010
0000
0000
1000
0000
0100
0010
0000
0100
0010
0000
0000
0001
0000
0000
1000
0000
0010
,
0100
0000
0000
0001
0000
0000
1000
0000
0000
0100
0000
0000
0010
0000
0001
0100
0000
0000
0001
0000
0000
0000
0000
0000
,
1010
0000
0000
0001
0000
0010
0001
0000
0000
0100
0000
0000
0010
0000
0000
0100
0000
0000
0001
0000
0000
1000
0000
0000
,
2001
0000
0000
3100
,
1000
0000
0100
0010
0000
0100
0010
0000
0000
0100
0000
0010
0001
0000
0010
0001
0000
0000
1000
0000
0000
0000
0000
0000
,
0001
0000
0000
1000
0000
0000
0010
0000
0100
0010
0000
0000
1000
0000
0000
0001
0000
0000
0010
0000
0000
0000
0000
0000
,
0001
0000
0100
0010
0000
0100
0010
0000
0000
0100
0000
0010
1000
0000
0010
1000
0000
0000
0001
0000
0000
0200
0000
0000
,
0010
0000
0310
2000
0100
0000
3001
0000
,
1000
0000
0100
0010
0000
0100
0010
0000
0000
0001
0000
1000
0010
0000
1000
0010
0000
0000
0100
0000
0000
0001
0000
1000
,
0001
0000
0000
0100
0000
0000
0010
0000
1000
0010
0000
0000
0100
0000
0000
0100
0000
0000
0001
0000
0000
1000
0000
0000
,
0100
0000
0010
0100
0000
0010
0001
0000
0000
0100
0000
0010
0100
0000
0010
1000
0000
0000
0001
0000
0000
0100
0000
0000
,
0101
0000
0000
0100
0000
0010
1000
0000
0000
1100
0000
0000
0100
0000
0010
0001
0000
0000
0101
0000
0000
0000
0000
0000
;

//---------------dance-single - ----------------
#NOTEDATA:;
#CHARTNAME:;
#STEPSTYPE:dance-single;
#DESCRIPTION:;
#CHARTSTYLE:;
#DIFFICULTY:Medium;
#METER:5;
#RADARVALUES:0.292359,0.326087,0.169869,0.121335,0.000000,253.000000,232.000000,21.000000,15.000000,0.000000,0.000000,0.000000,0.000000,0.000000,0.292359,0.326087,0.169869,0.121335,0.000000,253.000000,232.000000,21.000000,15.000000,0.000000,0.000000,0.000000,0.000000,0.000000;
#CREDIT:Ben Speirs;
#NOTES:
0000
0000
0000
0000
,
0000
0000
0000
0000
,
0001
0000
0100
0000
0010
1000
0100
0000
,
0010
0001
0100
0000
0001
0000
0000
0000
,
1000
0000
1000
0000
0010
1000
0100
0000
,
1000
0001
0100
0000
0001
0000
0000
0000
,
0100
0010
0100
0000
0010
1000
0001
0000
,
1000
0100
1000
0000
0001
1000
0010
0000
,
0100
0001
0100
0000
0001
1000
0100
0000
,
2000
0000
0000
3100
,
2002
0000
3003
0000
0001
1000
0010
0000
,
2020
0000
3030
0000
0010
1000
0001
0000
,
0202
0303
2200
3300
,
0001
1000
0010
0010
,
0000
0000
1100
0000
0001
0100
0010
0000
,
1001
0000
0000
0000
0000
0000
0001
1000
,
0100
0000
0010
0000
0010
0000
0001
1000
,
0100
0000
0000
0000
1000
0001
0100
0000
,
1001
0000
0001
0000
1000
0010
0100
0000
,
0010
0010
1000
0000
0010
0000
1000
0001
,
0010
0000
0001
0000
0100
0001
1000
0000
,
1100
0000
0001
0001
0000
1000
1000
0000
,
0101
0000
1000
0000
0001
1000
0010
0000
,
1100
0000
0001
0000
1000
0010
0100
0000
,
1001
0000
0100
0000
0010
1000
0001
0000
,
0011
0000
0110
0000
0100
1000
0010
0100
,
0002
0203
0320
1030
,
1000
0000
0100
1000
0001
0000
0000
0000
,
1100
0001
0100
0000
,
0101
0000
1000
0001
0000
1000
0001
0000
,
1000
0100
1000
0100
1000
0000
0000
0000
,
0000
0000
0100
1000
0010
0000
0100
0000
,
0001
0100
0001
0100
0001
0000
0000
0000
,
0100
0100
0010
0010
,
1000
0001
1000
0001
1000
0000
0000
0000
,
0000
0000
0001
1000
0010
0000
1000
0000
,
0001
0100
0001
0100
0001
0000
0000
0000
,
1001
0000
0000
0100
,
1001
1000
0100
0100
,
0010
0001
0200
0000
0000
0000
0300
0000
,
0001
0100
0010
0000
0100
0000
0010
1000
,
0001
0000
1000
0100
0010
0000
0000
0000
,
0001
0010
0001
0000
1000
0000
0010
0000
,
0100
0100
0010
0000
1000
0000
0001
0000
,
1100
0010
0101
0010
,
2002
0000
0000
3003
,
0001
0100
0010
0100
0001
0001
0000
0000
,
0100
0000
0001
0010
0100
0000
0000
0000
,
1000
0100
0010
0100
1000
1000
0000
0000
,
0100
1000
0010
0010
,
1000
0010
0100
0010
1000
1000
0000
0000
,
0010
0000
1000
0001
0010
0000
0000
0000
,
0001
0010
0100
0010
0001
0001
0000
0000
,
0010
0001
0100
1001
;

//---------------dance-double - ----------------
#NOTEDATA:;
#CHARTNAME:;
#STEPSTYPE:dance-double;
#DESCRIPTION:;
#CHARTSTYLE:;
#DIFFICULTY:Challenge;
#METER:8;
#RADARVALUES:0.478405,0.500000,0.299292,0.080890,0.214358,414.000000,377.000000,37.000000,10.000000,0.000000,0.000000,0.000000,0.000000,0.000000,0.478405,0.500000,0.299292,0.080890,0.214358,414.000000,377.000000,37.000000,10.000000,0.000000,0.000000,0.000000,0.000000,0.000000;
#CREDIT:Ben Speirs;
#NOTES:
00000000
00000000
00000000
00000000
,
00000000
00000000
00000000
00000000
,
00000001
00000000
00000000
00000100
00000000
00000000
00000101
00000000
00000000
00000000
00000000
00000000
00000010
00000000
00000000
00001000
00000000
00000100
00001000
00000000
00000000
00000000
00000000
00000000
,
00000100
00010000
00001000
00100000
00010000
01000000
00100000
00000000
,
10000000
00000000
00000000
01000000
00000000
00000000
11000000
00000000
00000000
00000000
00000000
00000000
00010000
00000000
00100000
00010000
00000000
00000000
10000000
00000000
00000000
00000000
00000000
00000000
,
00100000
00000000
00000000
10000000
00000000
00000000
00010000
00000000
00000000
01000000
00000000
00100000
01000000
00000000
00000000
00010000
00000000
00000000
10000000
00000000
00000000
00000000
00000000
00000000
,
01000000
00000000
00000000
01000000
00000000
00000000
10000000
00000000
00000000
10000000
00000000
00000000
00010000
00000000
00100000
00010000
00000000
00000000
01000000
00000000
00000000
00000000
00000000
00000000
,
00010000
00000000
00000000
00010000
00000000
00000000
01000000
00000000
00000000
01000000
00000000
00000000
00010000
00000000
00100000
00001000
00000000
00000000
00010000
00000000
00000000
00000000
00000000
00000000
,
00001000
00000000
00000000
00010000
00000000
00000000
00000100
00000000
00000000
00001000
00000000
00000000
00000010
00000000
00000100
00000010
00000000
00000100
00000010
00000000
00000000
00000000
00000000
00000000
,
00000110
00000000
00000000
00000000
00000000
00000001
00001000
00000000
00000000
00001001
00000000
00000000
00000000
00000000
00001000
00000100
00000000
00000000
00001100
00000000
00000000
00000000
00000000
00000000
,
00000012
00000000
00000000
00000000
00000000
00000000
00001003
00000000
00000000
00000000
00000000
00000000
00000001
00000000
00000100
00000001
00000000
00000100
00000001
00000000
00000000
00001000
00000000
00000000
,
00001020
00000000
00000000
00000000
00000000
00000000
00001030
00000000
00000000
00000000
00000000
00000000
00000100
00000000
00001000
00000100
00000000
00001000
00000100
00000000
00000000
00010000
00000000
00000000
,
00020100
00000000
00031000
00100000
00020000
00000000
01030000
00010000
,
10010000
00000000
00000000
00000000
00000000
10000000
01000000
00000000
00000000
11000000
00000000
00000000
00000000
00000000
00010000
01000000
00000000
00000000
00000000
00000000
00000000
00000000
00000000
00000000
,
10000000
00000000
00000000
01000000
00000000
00000000
00100000
00000000
00000000
00000000
00000000
00000000
00010000
00000000
00000000
10000000
00000000
00000000
00100000
00000000
00000000
01000000
00000000
00010000
,
10000000
00000000
00000000
00000000
00000000
00000000
00010000
00000000
00000000
10000000
00000000
00000000
00100000
00000000
00000000
01000000
00000000
00000000
00010000
00000000
00100000
00010000
00000000
00000000
,
01000000
00010000
00100000
00001000
00010000
00000100
00001000
00000010
,
00000100
00000000
00000010
00000100
00000000
00000001
00001000
00000000
,
00000001
00000000
00000000
00000010
00000000
00000000
00000100
00000000
00000000
00000010
00000000
00000000
00000001
00000000
00000000
00001000
00000000
00000000
00000010
00000000
00000000
00000100
00000000
00000001
,
00001000
00000000
00000001
00001000
00000010
00000100
00000001
00002000
,
00000000
00003100
00001000
00000100
00010000
00001000
00100000
00010000
,
01010000
00000000
00000000
00000000
00000000
10000000
01000000
00000000
00000000
11000000
00000000
00000000
00000000
00000000
00010000
10000000
00000000
00000000
10010000
00000000
00000000
00000000
00000000
00000000
,
10000000
00000000
00000000
00100000
00000000
01000000
00100000
00000000
01000000
00100000
00000000
00000000
01000000
00000000
00000000
00010000
00000000
00100000
00010000
00000000
00000000
00100000
00000000
00000000
,
00001000
00000000
00000000
00100000
00000000
00001000
00010000
00000000
00000000
00001000
00000000
00000000
00010000
00000000
00000000
00000100
00000000
00010000
00000100
00000000
00000000
00001000
00000000
00000100
,
00001000
00000000
00000000
00000010
00000000
00001000
00000010
00000000
00000000
00000100
00000000
00000001
00000100
00000000
00000000
00000001
00000000
00000010
00000001
00000000
00000000
00001000
00000000
00000000
,
00000100
00001000
00000010
00000100
00000001
00001000
00000100
00010000
,
00010100
00011000
00101000
10001000
,
10000000
00000000
01000000
10000000
00000000
00000000
00010000
00000000
00000000
01000000
00000000
00000000
01010000
00000000
00000000
00000000
00000000
00000000
00100000
00000000
00000000
00000000
00000000
00000000
,
01000000
00000000
00010000
10000000
00000000
00000000
00010000
00000000
00000000
10000000
00000000
00000000
00100000
00000000
00000000
00000000
00000000
00000000
10010000
00000000
00000000
00000000
00000000
00000000
,
11000000
00000000
00000000
00000000
00000000
00010000
01000000
00000000
00000000
01010000
00000000
00000000
00000000
00000000
10000000
01000000
00000000
00000000
11000000
00000000
00000000
00000000
00000000
00000000
,
10000000
01000000
00010000
00001000
00000010
00000000
00000000
00000000
,
00000000
00000000
00000001
00001000
00000000
00000000
00000001
00000000
00000000
00001000
00000000
00000000
00001001
00000000
00000000
00000000
00000000
00000000
00001000
00000000
00000000
00001000
00000000
00000000
,
00000001
00000100
00001000
00010000
00100000
00000000
10000000
00100000
,
01000000
00000000
00010000
10000000
01000000
00000000
10010000
00000000
,
10000000
00100000
00010000
00001000
00000100
00000000
00000000
00000000
,
00000000
00000000
00000001
00001000
00000000
00000000
00000001
00000000
00000000
00001000
00000000
00000000
00001001
00000000
00000000
00000000
00000000
00000000
00001000
00000000
00000000
00001000
00000000
00000000
,
00000001
00000010
00001000
00010000
01000000
00000000
10000000
01000000
,
22000000
00000000
33000000
10010000
,
10000000
00100000
00010000
00001000
00010000
00100000
10000000
01000000
,
00010000
00001000
00020000
00000000
00030000
00000000
00011000
00000000
,
00001100
00000100
00000010
00000001
00001000
00000000
00000001
00001000
,
00000020
00000000
00000130
00000001
00002000
00000000
00003100
00000000
,
00001000
00000100
00000010
00000001
00000100
00000010
00000100
00000001
,
00000010
00000100
00001000
00000000
00000100
00001000
00000100
00000000
,
00010100
00000000
00010000
00001000
00011000
00000000
00010000
00001000
,
00101000
00000000
00000000
00100000
,
00010000
00000000
01000000
00010000
00000000
01000000
00010000
00000000
00000000
10000000
00000000
00100000
10000000
00000000
00100000
10000000
00000000
00000000
00010000
00000000
00000000
00000000
00000000
00000000
,
10000000
01000000
00010000
00001000
00010000
00000000
00011000
00000000
,
00010000
00000000
00000100
00010000
00000000
00000100
00010000
00000000
00000000
00000100
00000000
00001000
00000100
00000000
00001000
00000100
00000000
00000000
00001000
00000000
00000000
00000010
00000000
00000000
,
00000100
00000001
00000010
00000100
00001000
00000010
00001001
00000000
,
00000001
00000000
00000100
00000001
00000000
00000100
00000001
00000000
00000000
00001000
00000000
00000100
00001000
00000000
00000100
00001000
00000000
00000000
00000001
00000000
00000000
00000000
00000000
00000000
,
00001000
00000100
00010000
00001000
00100000
00100000
00010000
00000000
,
10000000
00000000
00100000
10000000
00000000
00100000
10000000
00000000
00000000
00010000
00000000
00100000
00010000
00000000
00100000
00010000
00000000
00000000
01000000
00000000
00000000
00000000
00000000
00000000
,
11000000
00000000
00000000
00000000
00000000
00010000
01000000
00000000
00000000
01001000
00000000
00000000
00000000
00000000
00010000
00000100
00000000
00000000
00011000
00000000
00000000
00000000
00000000
00000000
;

//---------------dance-single - ----------------
#NOTEDATA:;
#CHARTNAME:;
#STEPSTYPE:dance-single;
#DESCRIPTION:;
#CHARTSTYLE:;
#DIFFICULTY:Easy;
#METER:2;
#RADARVALUES:0.159468,0.173913,0.032356,0.080890,0.000000,138.000000,134.000000,4.000000,10.000000,0.000000,0.000000,0.000000,0.000000,0.000000,0.159468,0.173913,0.032356,0.080890,0.000000,138.000000,134.000000,4.000000,10.000000,0.000000,0.000000,0.000000,0.000000,0.000000;
#CREDIT:Ben Speirs;
#NOTES:
// measure 0
0000
0000
0000
0000
,  // measure 1
0000
0000
0000
0000
,  // measure 2
1000
0100
0010
0010
,  // measure 3
0001
1000
0010
0000
,  // measure 4
1000
0001
0100
0100
,  // measure 5
0001
1000
0010
0000
,  // measure 6
1000
0100
1000
0000
,  // measure 7
0001
0100
0001
0000
,  // measure 8
1000
0001
1000
0000
,  // measure 9
1001
0000
0000
0000
,  // measure 10
0020
0030
1000
0001
,  // measure 11
0200
0300
0001
1000
,  // measure 12
0100
0000
0100
0000
,  // measure 13
1000
0001
0100
0000
,  // measure 14
0001
0000
0100
0100
,  // measure 15
0010
0000
0000
0100
,  // measure 16
0001
1000
0100
0010
,  // measure 17
0001
0000
0000
1000
,  // measure 18
0010
0000
0100
0100
,  // measure 19
0010
0000
0000
1000
,  // measure 20
0010
0100
0001
1000
,  // measure 21
0001
0000
0000
0000
,  // measure 22
2000
3000
0001
0000
,  // measure 23
0200
0300
0001
0000
,  // measure 24
2000
3000
0100
0000
,  // measure 25
0020
0030
0001
0000
,  // measure 26
1000
1000
0001
0001
,  // measure 27
0100
0000
0100
0000
,  // measure 28
0001
1000
0001
0000
,  // measure 29
1000
0001
1000
0000
,  // measure 30
0100
0100
0010
0000
,  // measure 31
0000
0001
1000
0000
,  // measure 32
0010
0010
0100
0000
,  // measure 33
0002
0003
2000
3000
,  // measure 34
0010
0010
0100
0000
,  // measure 35
0000
0001
1000
0000
,  // measure 36
0100
0100
0010
0000
,  // measure 37
1001
0000
0000
0000
,  // measure 38
0002
0000
0003
0000
,  // measure 39
2000
0000
3000
0000
,  // measure 40
0001
0100
0100
0000
,  // measure 41
0010
1000
0001
0000
,  // measure 42
1000
0100
0100
0000
,  // measure 43
1000
0100
0010
0000
,  // measure 44
0001
0000
1000
0000
,  // measure 45
1001
0000
0000
0000
,  // measure 46
0001
0100
0010
0100
,  // measure 47
0001
0000
0000
0000
,  // measure 48
1000
0100
0010
0100
,  // measure 49
1000
0000
0000
0000
,  // measure 50
0010
0010
0100
0100
,  // measure 51
0010
0100
0010
0000
,  // measure 52
1000
1000
0001
0001
,  // measure 53
0000
0000
0000
1001
;

//---------------dance-single - ----------------
#NOTEDATA:;
#CHARTNAME:;
#STEPSTYPE:dance-single;
#DESCRIPTION:;
#CHARTSTYLE:;
#DIFFICULTY:Beginner;
#METER:1;
#RADARVALUES:0.102846,0.130435,0.048534,0.000000,0.000000,89.000000,83.000000,6.000000,0.000000,0.000000,0.000000,0.000000,0.000000,0.000000,0.102846,0.130435,0.048534,0.000000,0.000000,89.000000,83.000000,6.000000,0.000000,0.000000,0.000000,0.000000,0.000000,0.000000;
#CREDIT:Ben Speirs;
#NOTES:
// measure 0
0000
0000
0000
0000
,  // measure 1
0000
0000
0000
0000
,  // measure 2
0001
0000
1000
0000
,  // measure 3
0010
0000
0000
0000
,  // measure 4
1000
0000
0001
0000
,  // measure 5
0100
0000
0000
0000
,  // measure 6
0001
0001
0000
0000
,  // measure 7
1000
1000
0000
0000
,  // measure 8
0010
0010
0000
0000
,  // measure 9
0100
0000
0000
0000
,  // measure 10
1001
0000
0000
0000
,  // measure 11
1001
0000
0000
0000
,  // measure 12
1000
0000
0000
0000
,  // measure 13
0001
0000
0000
0000
,  // measure 14
1001
0000
0000
0000
,  // measure 15
0100
0000
0000
0000
,  // measure 16
0010
0000
0010
0000
,  // measure 17
0010
0000
0000
0000
,  // measure 18
1000
0000
0000
0000
,  // measure 19
0100
0000
0000
0000
,  // measure 20
0010
0000
0010
0000
,  // measure 21
0010
0000
0000
0000
,  // measure 22
0001
0000
0000
1000
,  // measure 23
1000
0000
0000
0010
,  // measure 24
0010
0000
0000
1000
,  // measure 25
1000
0000
0000
0000
,  // measure 26
0001
0001
0001
0000
,  // measure 27
0001
0000
0000
0000
,  // measure 28
0100
0100
0000
0000
,  // measure 29
1001
0000
0000
0000
,  // measure 30
0001
0001
0001
0000
,  // measure 31
0001
0000
0000
0000
,  // measure 32
1000
1000
1000
0000
,  // measure 33
1000
0000
0000
0000
,  // measure 34
0010
0010
0010
0000
,  // measure 35
0010
0000
0000
0000
,  // measure 36
0100
0100
0100
0000
,  // measure 37
0100
0000
0000
0000
,  // measure 38
1001
0000
0000
0000
,  // measure 39
0000
0000
0000
0010
,  // measure 40
0010
0000
0000
0000
,  // measure 41
1000
0000
0000
0000
,  // measure 42
0001
0000
0001
0000
,  // measure 43
0001
0000
0000
0000
,  // measure 44
1000
0000
1000
0000
,  // measure 45
1000
0000
0000
0000
,  // measure 46
0001
0001
0001
0000
,  // measure 47
0001
0000
0000
0000
,  // measure 48
0100
0100
0100
0000
,  // measure 49
0100
0000
0000
0000
,  // measure 50
0010
0010
0010
0000
,  // measure 51
0010
0000
0000
0000
,  // measure 52
1000
1000
1000
0000
,  // measure 53
0000
0000
0000
1001
;
