#TITLE:My Console 2 out of 3 Mix;
#ARTIST:Eiffel 65;
#FILE:Eiffel 65 - My Console.wav;
#BPM:130.580;
#GAP:140;
#SAMPLESTART:90.500;
#SAMPLELENGTH:14.650;
#CDTITLE:I.jpg;
#FREEZE:910.500=360.000;
#SINGLE:SMANIAC:8:
00000000
00000000
00000000
00000000
40604640
20802080
40604640
28284260
60406460
20802080
60406460
(B!B000B00280406060)
{B000000000000000B00000000000000000600000004000200040000000600000}
{00B000000000000000B000000000000000600000004000200040000000600000}
{00B000000000000000B000000000000000400000006000200060000000400000}
{00B000000000000000B000000000002000800000004000000060000000200000}
{00A000000000000000A000000000000000800000002000800040000000600000}
{00A000000000000000A000000000000000200000008000200060000000400000}
{00A000000000000000A000000000000000800000002000800040000000600000}
{00A000000000000000A000000000004000200000006000000060000000400000}
{002!20000000000000000000000000000000000000000020000000000000000000}
(0402040604020400)
(0602060406020600)
(0208020602080200)
(0802080408020800)
{0000040000000200000006000000020000000400000002000000060000000000}
{0000060000000200000004000000020000000600000002000000040000000000}
{0000006000000040000000800000002000000080000000800000008000000000}
{00000040000000600000002000000080000000A0000000000000004000000060}
{0000001000000000000000300000000000000010000000000000003000000000}
{000000B000000000000000A000000000000000B000000000000000A000000000}
{0000001000000000000000900000000000000010000000000000009000000000}
{0000008000000080000000800000008000000080000000000000001000000000}
(00B000B000406260)
(40B000B000604240)
(60B000B000406260)
(40B000B008208040)
{600000000A000000000000000A00000000000000020000000800020004000000}
{060000000A000000000000000A00000000000000040000000600020008000000}
{020000000A000000000000000A00000000000000020000000800020006000000}
`0004000000000000000000000000A00000000000000000000000000000000000000000000000A0000000000000000000000000000000000400000000000200000000000000000000000600000000000000000000000400000000000000000000'
{0800000000400000006000000020000000600000004000000020000000400000}
{0000000000600000004000000020000000400000006000000020000000600000}
{0000000000400000002000000060000000200000004000000020000000600000}
{0000000000400000006000000020000000000080002000000060000000400000}
{0020000000040000000600000002000000080000000400000002000000060000}
{0000000000060000000400000008000000020000000600000002000000040000}
{0000000000040000000600000004000000060000000200000008000000020000}
{0000000000060000000400000006000000000002000800000004000000020000}
{0006000000004!4000000000006!6000400000002!2000600000000000A!800000000000}
(07!406!6042!2608!8240A01)
(0006!6004!4608!8400A!200)
(03!604!4068!8404!4860103)
{000000000000001!1000000010009!9000000090003!30000000300000007!7000000070}
{000000B0000000A!A0000000A00010000000000030000000400000002000000060}
{00000000000000B000000060000000B000000040000000B000000060000000B0}
{00000040000000B000000060000000B000000040000000B!B00000000000B00000}
(4!400B!6002!2600A!80007!40)
(6!6042!2608!8240A01000)
(6!6004!4608!8400A!20003!60)
(4!4068!8404!4860103000)
(1!1019!9091!10107!7070B0)
(A!A0A1003040206000)
B6B4B6B4
B6B46240
{A!A0000000000000000000000000A0000000000000000000000000000000000000}
;
