#TITLE:Five Colours In Her Hair;
#ARTIST:McFly;
#FILE:Five Colours In Her Hair.mp3;
#BPM:196.000;
#GAP:60;
#SAMPLESTART:36.780;
#SAMPLELENGTH:17.980;
#FREEZE:256.000=940.000,308.000=920.000,440.000=620.000,656.000=900.000,692.000=920.000,744.000=920.000,924.000=920.000,1136.000=920.000;
#SINGLE:BEGINNER:2:
00000000
00000000
00000000
00000000
00000000
00000000
00000000
00000000
80008000
80000000
20002000
20000000
60006000
60000000
40004000
40000000
B0000000
00200000
00800000
00B00000
00002000
00008000
00004000
00006000
00004000
00002000
00008000
0000B000
00000000
00000000
80008000
80008000
80000000
00000000
20002000
20002000
20000000
60000000
40000000
80000000
40000000
B0000000
00000000
00A00000
00002000
00006000
0000A000
00000020
00000060
00000040
00000080
00000040
00000060
00000040
00000020
00000080
80808080
000000B0
00000000
20002000
20002000
20000000
00000000
60006000
60006000
60000000
40000000
80000000
40000000
20000000
80000000
B0000000
00202020
20200000
00606060
60600000
00404040
40400000
00A00000
;
#SINGLE:ANOTHER:8:
00000000
00000000
00000000
00000000
00000000
00000000
00000000
00000000
60408206
000B0000
80406208
00070000
20604208
000A0000
60406020
80402080
B0808080
80406202
60408202
80B02020
20208046
06408026
06208042
80604068
20408028
40604028
60408080
80807000
20604020
40802060
4!40106!6030
4!40106!6030
80206040
80608040
8!80A06!6030
8!80A06!6030
80406040
20806040
80208040
60802042
80604060
B0802600
20804200
40B08080
82804064
04602084
0480B080
80808040
62026080
24042040
82604060
82406040
84608060
26802080
80808060
20804010
101010B0
00282820
80406040
6!60304!4070
6!60304!4070
60402080
60402080
6!60308!80A0
6!60308!80A0
80406040
20806040
80608040
20806042
80604082
60408020
B0A0A0A0
A0602084
06000B00
00802046
02000300
00802064
08000700
00B00000
;
#SINGLE:MANIAC:12:
00000000
00000000
00000000
00000000
00000000
00000000
00000000
00000000
40602846!6
000B0000
20604282!2
000A0000
60408428!8
00090000
64646464
64646464
`B!B000B0000000000000000000000000000000000000000000800000000000000000000000000000000000000000000000800000000000000000000000000000000000000000000000800000000000000000000000000000000000000000000000'
80306424
60406242
`600000000000000000000000000000000000000000000000B!B000B0000000000000000000000000000000000000000000200000000000000000000000000000000000000000000000200000000000000000000000000000000000000000000000'
20207046
86406048
68403084
2040B042
80603086
2080A026
40804262
48263000
80424620
80262840
6!60B2!20246!6
0642!20200
40826460
40286460
2!2034!40462!2
0264!40400
60204860
40608620
80406820
40604260
10309070
B0208206
46208206
`4000000000000000000000006000000000000000000000003!300030000000000000000000000000000000000000000000800000000000000000000000000000000000000000000000800000000000000000000000000000000000000000000000'
82604064
24604086
`8000000000000000000000004000000000000000000000002000000000000000000000000000000000000000000000001!100010000000000000000000000000000000000000000000400000000000000000000000600000000000000000000000'
46464620
84246080
62426010
462840B0
42862030
826820A0
864280A0
901030B0
70B03084
2624826!60
B!407!80A!2030
42864286
2!2034!40482!2
0264!40400
84246820
86482640
8!8072!20268!8
0842!20200
10308460
10308260
90104620
A0304620
84262482
88424462
A0B0B0B0
B0284246
28462428
42864868
42862428
42864862
48268286
48200000
;
#SINGLE:BASIC:4:
00000000
00000000
00000000
00000000
00000000
00000000
00000000
00000000
60406000
2000B000
20402000
4000A000
60406000
8000B000
20402000
40604000
B0202020
20200080
00400060
00B02020
20202000
60004000
20004000
80004080
20008000
40006080
20004000
60003000
80002000
60004000
20204040
80802020
60004000
60008000
20208080
60604040
80004000
70000000
60002000
30000000
40208060
B0200020
00800080
00B02020
20202000
60004000
2000B020
20202020
00800040
00600040
00600040
80200060
00400060
80200040
40606040
40606020
8040802!20
000000A0
40006000
20206060
40402020
40008000
40006000
80806060
20208000
20602000
30000000
40604000
B0000000
80402080
60004000
B0208020
80402080
60408020
80406080
20806040
80208040
20806020
80B00000
;
