#VERSION:0.82;
#TITLE:Peanut Butter Jelly;
#SUBTITLE:;
#ARTIST:Galantis;
#TITLETRANSLIT:;
#SUBTITLETRANSLIT:;
#ARTISTTRANSLIT:;
#GENRE:No Baseball Bats;
#ORIGIN:;
#CREDIT:;
#BANNER:Peanut Butter Jelly.png;
#BACKGROUND:Peanut Butter Jelly-bg.png;
#PREVIEWVID:;
#JACKET:jacket.png;
#CDIMAGE:;
#DISCIMAGE:;
#LYRICSPATH:;
#CDTITLE:;
#MUSIC:Peanut Butter Jelly.ogg;
#OFFSET:0.022000;
#SAMPLESTART:62.676144;
#SAMPLELENGTH:15.374000;
#SELECTABLE:YES;
#BPMS:0.000=128.000;
#STOPS:261.000=0.938;
#DELAYS:;
#WARPS:;
#TIMESIGNATURES:0.000=4=4;
#TICKCOUNTS:0.000=4;
#COMBOS:0.000=1;
#SPEEDS:0.000=1.000=0.000=0;
#SCROLLS:0.000=1.000;
#FAKES:;
#LABELS:0.000=Song Start;
#BGCHANGES:4.000=Peanut Butter Jelly.avi=1.000=0=0=1=====,
99999=-nosongbg-=1.000=0=0=0 // don't automatically add -songbackground-
;
#KEYSOUNDS:;
#ATTACKS:
;

//---------------dance-single - ----------------
#NOTEDATA:;
#CHARTNAME:;
#STEPSTYPE:dance-single;
#DESCRIPTION:;
#CHARTSTYLE:;
#DIFFICULTY:Hard;
#METER:8;
#RADARVALUES:0.511906,0.519986,0.072980,0.255432,0.069331,446.000000,10.000000,35.000000,0.000000,0.000000,0.000000,0.000000,0.000000,0.511906,0.519986,0.072980,0.255432,0.069331,446.000000,10.000000,35.000000,0.000000,0.000000,0.000000,0.000000,0.000000;
#CREDIT:Ben Speirs;
#NOTES:
0000
0000
0000
0000
,
0000
0000
0000
0000
,
2000
3100
0010
0001
,
1000
0000
0010
0000
0100
0001
0100
0000
,
0020
0000
1030
0000
0001
0010
0100
1000
,
0001
0000
0000
0000
,
0002
0013
0100
1000
,
0001
0000
0100
0000
0010
1000
0010
0000
,
0200
0000
0301
0000
1000
0100
0010
0001
,
1000
0000
0000
0000
,
0010
1000
0100
0010
,
0001
0000
1000
0000
0010
0100
0010
0000
,
1000
0001
1000
0001
0100
0010
0100
0010
,
1000
0100
0010
0001
,
1000
0001
0100
0010
,
1000
0100
1000
0000
0001
0010
0001
0000
,
1000
0010
1000
0010
0100
0001
0100
0001
,
1000
0001
0100
0010
,
1000
0100
1000
0000
0001
0010
0001
1000
,
0010
0010
0100
0000
0001
0000
1000
0000
,
0001
0100
1000
0100
0001
0010
1000
0010
,
0002
0103
0010
1000
,
0100
1000
0001
0000
0010
0001
0100
0001
,
1000
1000
0010
0000
0100
0000
0001
0000
,
1000
0100
0001
0100
1000
0010
0001
0010
,
2000
0000
3100
0010
0002
0000
0103
0010
,
2000
3002
0023
0230
,
2300
3020
0230
0302
,
2003
3002
0023
0230
,
2300
3020
0230
0302
,
1003
0100
0010
0001
0100
0010
1000
0001
,
0010
0000
1000
0000
0010
0000
0001
0000
0100
0000
0010
0000
1000
0000
0001
0100
,
0002
0100
1000
0013
,
0001
0010
0100
1000
0010
0100
0001
0000
,
1100
0100
1000
0010
0100
0001
1000
0100
,
0010
0000
0001
0000
1000
0000
0010
0000
0100
0000
0001
1000
0000
1000
0001
0000
,
0100
0010
1000
0100
0010
0001
1000
0010
,
0100
0001
0100
0010
1000
0100
0010
0001
,
2000
0000
3001
1000
0100
0010
0001
0200
,
0000
0310
1000
0010
0100
0001
1000
0000
,
0001
0010
0100
0010
0001
1000
0010
1000
,
0001
0010
0100
1000
0010
0010
0100
0000
,
0201
0310
1200
0310
,
0101
0000
0000
0000
1001
0000
0000
0000
1000
0000
0100
0010
0000
0010
0001
0000
,
1000
0010
0100
0010
1000
0100
0010
0001
,
1000
0001
1000
0010
0100
0001
0010
0100
,
2000
0000
3100
0100
0010
0001
1000
0020
,
0000
0130
0001
0100
0010
1000
0001
0000
,
1000
1000
0100
0010
0001
0001
0100
0010
,
2000
0000
3001
0000
1000
0010
0100
0000
,
0101
0100
0010
1000
0100
0010
0001
1000
,
0010
0000
0010
0000
0100
0000
0000
0000
0001
1000
0000
0001
1000
0000
0001
0000
,
0100
0000
0010
0000
1000
0000
0100
0000
0010
0000
0001
0000
1000
0100
1000
0000
,
0010
1000
0100
0010
0001
1000
0010
0000
,
1010
0010
0100
0001
0010
0100
1000
0001
,
0100
0000
0100
0000
0010
0000
0000
0000
1000
0001
0000
1000
0001
0000
1000
0000
,
0010
0000
0100
0000
0001
0000
0010
0000
0100
0000
1000
0000
0001
0010
0001
0000
,
0100
0001
0010
0100
1000
0001
0100
0000
,
0001
0010
1000
0010
0001
0100
0010
1000
,
0100
0000
0010
0000
0100
0000
0010
0000
0001
1000
0000
1000
0001
0000
0100
0000
,
0010
0000
1000
0000
0100
0000
0010
0000
0001
0000
1000
0000
0010
0100
0010
0000
,
1000
0100
0010
0001
1000
0000
0101
0000
,
1000
0100
0001
0100
1000
0010
0100
0001
,
0010
0000
0100
0000
0010
0000
0100
0000
1000
0001
0000
0001
1000
0000
0010
0000
,
0100
0100
0001
0001
1000
1000
0100
0100
,
0010
0001
1001
0000
0101
0100
0010
1000
,
0100
0000
0010
0001
0000
0001
1000
0000
0010
0000
0100
0000
0001
0000
1000
0000
,
0010
0000
0100
0000
0001
1000
0001
0000
0100
0000
0100
0000
0010
0000
0010
0000
,
1000
0100
0010
0002
0000
1003
0100
2000
,
0000
3001
0100
0010
1000
1000
0100
0010
,
0001
2000
0000
0020
0000
0000
0000
0000
,
0000
3030
0000
0000
;

//---------------dance-single - ----------------
#NOTEDATA:;
#CHARTNAME:;
#STEPSTYPE:dance-single;
#DESCRIPTION:;
#CHARTSTYLE:;
#DIFFICULTY:Challenge;
#METER:11;
#RADARVALUES:0.829892,0.909975,0.043788,0.094875,1.000000,777.000000,6.000000,13.000000,0.000000,0.000000,0.000000,0.000000,0.000000,0.829892,0.909975,0.043788,0.094875,1.000000,777.000000,6.000000,13.000000,0.000000,0.000000,0.000000,0.000000,0.000000;
#CREDIT:;
#NOTES:
// measure 0
0000
0000
0000
0000
,  // measure 1
0000
0000
0000
0000
,  // measure 2
1000
0010
1000
0001
0000
0010
0100
0010
,  // measure 3
0001
0000
1000
0000
0000
0000
0000
0000
0010
0100
0000
0100
0010
0000
0100
0000
,  // measure 4
0000
0001
0100
0010
1000
0100
0010
0001
,  // measure 5
0000
0000
0000
0000
,  // measure 6
0001
0100
0001
1000
0000
0100
0010
0100
,  // measure 7
1000
0000
0001
0000
0000
0000
0000
0000
0100
0010
0000
0010
0100
0000
0010
0000
,  // measure 8
0000
1000
0010
0100
0001
0010
0100
1000
,  // measure 9
0000
0000
0000
0000
,  // measure 10
0001
0010
0001
0100
0001
0000
1000
0100
,  // measure 11
1000
0000
0010
0000
1000
0000
0000
0000
0001
1000
0000
1000
0001
0000
1000
0000
,  // measure 12
0010
0100
0001
0010
0100
1000
0010
0010
,  // measure 13
0200
0302
2003
3200
,  // measure 14
1300
0100
1000
0010
1000
0000
0001
0010
,  // measure 15
0001
0000
0100
0000
0001
0000
0000
0000
1000
0001
0000
0001
1000
0000
0001
0000
,  // measure 16
0100
0010
1000
0100
0010
0001
0100
0100
,  // measure 17
0020
2030
3002
0023
,  // measure 18
0031
0100
0010
1000
0100
0010
0001
1000
,  // measure 19
0010
0010
0100
0001
0010
0100
1000
0010
,  // measure 20
0100
0100
0001
1000
0010
0010
0100
0001
,  // measure 21
0001
0010
0100
0010
0001
1000
0010
0100
,  // measure 22
0010
0010
1000
0100
0010
0010
0001
1000
,  // measure 23
0010
0010
0100
0001
0010
0100
1000
0010
,  // measure 24
0100
0100
0001
1000
0010
0010
0100
0001
,  // measure 25
0001
1000
0100
0010
0010
0001
1000
0010
,  // measure 26
0100
0001
0000
0001
1000
0100
0000
0100
0010
0001
0000
0001
0100
0010
0000
0010
,  // measure 27
1000
0100
0000
0100
0010
0001
0000
0001
1000
0010
0000
0010
0100
0001
0000
0001
,  // measure 28
1000
0100
0000
0100
0010
0001
0000
0001
0100
0010
0000
0010
1000
0001
0000
0001
,  // measure 29
0010
0100
0000
0100
0010
0001
0000
0001
1000
0010
0000
0010
0100
0001
0000
0001
,  // measure 30
1000
0100
1000
0100
0010
0001
0010
0001
1000
0010
1000
0010
0100
0001
0100
0001
,  // measure 31
1000
0100
1000
0100
0010
0001
0010
0001
1000
0010
1000
0010
0100
0001
0100
0001
,  // measure 32
1000
0100
0010
0001
0100
0010
1000
0100
0010
0001
0100
0010
1000
0001
0010
0100
,  // measure 33
1000
0001
0100
0010
1000
0100
0010
0001
2000
0000
0100
0000
3001
0000
0000
0000
,  // measure 34
1000
0100
1000
0100
0010
0001
1000
0010
1000
0010
1000
0010
1000
0100
0010
0001
,  // measure 35
0010
0001
0010
0001
0010
0100
1000
0010
0100
0001
1000
0010
0100
0001
0010
0100
,  // measure 36
1000
0100
1000
0100
1000
0100
1000
0100
1000
0100
0010
0001
0100
0010
1000
0001
,  // measure 37
0100
0010
0100
0010
1000
0100
0010
0001
1000
0010
1000
0010
0100
0001
0010
0100
,  // measure 38
1000
0001
1000
0001
0010
0001
0010
0001
1000
0010
1000
0010
0100
0001
0010
0100
,  // measure 39
1000
0001
1000
0001
0100
0010
1000
0100
0010
0001
0010
0001
0100
0010
1000
0001
,  // measure 40
0010
0100
1000
0001
0100
0010
1000
0100
0010
0001
1000
0010
0100
0001
0010
0100
,  // measure 41
1000
0001
0100
0010
1000
0010
1000
0001
0200
0000
0001
0000
0301
0000
0000
0000
,  // measure 42
1000
0100
1000
0100
1000
0100
0010
0000
0000
0000
0000
0000
0001
0100
0001
0100
0001
0100
0010
0000
0000
0000
0000
0000
,  // measure 43
1000
0000
0100
0000
1000
0000
0100
0000
1000
0000
0100
0000
0010
0000
0000
0000
0000
0000
0000
0000
0000
0000
0000
0000
1001
0000
0000
0000
0000
0000
1000
0000
0000
0100
0000
0000
0010
0000
0000
0001
0000
0000
0100
0000
0000
0000
0000
0000
,  // measure 44
0010
1000
0010
0100
0001
0010
0100
1000
0010
0100
0001
0010
0100
0010
0001
1000
,  // measure 45
0010
0100
0001
0010
0100
1000
0001
0100
0010
1000
0100
0010
0001
1000
0010
0100
,  // measure 46
0001
1000
0001
1000
0010
0100
0010
0100
0001
0010
0100
1000
0001
0100
0010
1000
,  // measure 47
0001
0010
0001
0010
0100
1000
0100
1000
0001
0100
0010
1000
0100
0010
0001
1000
,  // measure 48
0010
0100
0010
0100
0001
0100
0010
1000
0010
0100
0010
0100
0001
0100
0010
1000
,  // measure 49
0001
0100
0010
1000
0100
0010
0001
1000
0020
0000
0100
0000
0130
0000
0000
0000
,  // measure 50
0101
0000
0010
0100
0010
0100
0001
0100
0001
0100
0010
1000
0010
1000
0100
0010
,  // measure 51
0001
0000
1000
0000
0010
0000
0000
0000
1000
0001
0010
0100
1000
0000
1100
0000
,  // measure 52
1000
0000
0001
0100
0001
0100
0010
1000
0010
1000
0100
0010
0001
1000
0010
0000
,  // measure 53
0100
0000
0001
0000
1000
0000
0001
0000
0010
0000
0100
1000
0001
1000
0010
0000
,  // measure 54
1010
0000
0100
0010
0100
0010
1000
0010
1000
0010
0100
0001
0100
0001
0010
0100
,  // measure 55
1000
0000
0001
0000
0100
0000
0000
0000
0001
1000
0100
0010
0001
0000
0011
0000
,  // measure 56
0001
0000
1000
0010
1000
0010
0100
0001
0100
0001
0010
0100
1000
0001
0100
0000
,  // measure 57
0010
0000
1000
0000
0001
0000
1000
0000
0100
0000
0010
0001
1000
0001
0100
0000
,  // measure 58
0010
1000
0010
1000
0001
0100
0001
0100
0010
1000
0010
1000
0001
0100
0001
0100
,  // measure 59
0010
1000
0100
0010
0001
0000
1000
0000
0010
0100
0010
0100
0010
0000
1000
0000
,  // measure 60
0001
0000
0010
0100
0010
0100
0010
0001
1000
0001
1000
0001
0100
0010
1000
0000
,  // measure 61
0001
0000
0100
0000
0010
0000
1000
0000
0100
0010
0001
0010
0100
0000
1000
0000
,  // measure 62
0001
0100
0001
0100
0010
1000
0010
1000
0001
0010
0001
0010
0100
1000
0100
1000
,  // measure 63
0001
0100
0001
0100
0010
1000
0010
1000
0001
0010
0100
0010
0100
0010
0001
0000
,  // measure 64
1000
0100
0010
0001
0100
0010
1000
0001
,  // measure 65
0100
0000
0010
0000
1001
0000
0000
0000
0100
0001
0100
0010
1000
0100
0010
0001
,  // measure 66
0100
0010
1000
0100
0010
0100
1000
0001
0100
0010
1000
0100
0010
0001
1000
0010
,  // measure 67
0100
0001
0010
0100
1000
0001
0100
0010
1000
0001
1000
0001
0100
0010
0100
0010
,  // measure 68
1000
0100
0010
0001
1000
0010
0100
0001
1000
0100
1000
0100
0010
0001
0010
0001
,  // measure 69
1000
0010
0100
0001
0010
0100
1000
0001
0100
0010
0100
0010
1000
0010
0100
0001
,  // measure 70
0100
0010
0100
0010
1000
0002
0200
0000
0000
0000
0000
0000
0000
0000
0000
0000
,  // measure 71
0000
0303
0000
0000
;

//---------------dance-single - ----------------
#NOTEDATA:;
#CHARTNAME:;
#STEPSTYPE:dance-single;
#DESCRIPTION:;
#CHARTSTYLE:;
#DIFFICULTY:Medium;
#METER:6;
#RADARVALUES:0.361775,0.467987,0.218941,0.248134,0.000000,283.000000,30.000000,34.000000,0.000000,0.000000,0.000000,0.000000,0.000000,0.361775,0.467987,0.218941,0.248134,0.000000,283.000000,30.000000,34.000000,0.000000,0.000000,0.000000,0.000000,0.000000;
#CREDIT:Ben Speirs;
#NOTES:
0000
0000
0000
0000
,
0000
0000
0000
0000
,
1000
0010
0100
0100
,
0010
1000
0002
0003
,
1000
0000
0001
0000
0010
0100
0010
0100
,
1000
0000
0000
0000
,
0001
1000
0010
0010
,
0200
0000
0300
0000
0001
1000
0001
0000
,
0010
0000
0001
0000
1000
0010
1000
0010
,
0100
0000
0000
0000
,
0001
0010
0100
1000
,
0010
0000
0100
0000
0001
1000
0001
0000
,
0100
0000
0010
0000
1000
0100
1000
0100
,
1000
0000
0000
0000
,
0001
1000
0010
0010
,
1000
0000
0001
0000
0100
0010
0100
0000
,
0001
0000
0010
0100
0010
0100
0010
0100
,
0010
0000
0000
0000
,
0001
0010
0001
0000
1000
0000
0001
0000
,
0020
0030
0001
0000
,
1000
0010
1000
0000
0001
0000
1000
0000
,
0020
0030
1000
0000
,
0001
0100
0001
0000
1000
0100
1000
0000
,
0020
0030
0000
0000
,
1000
0001
1000
0000
0001
1000
0001
0000
,
0200
0300
0020
0030
,
2000
3000
0002
0003
,
0020
0030
0200
0300
,
2000
3000
0020
0030
,
0200
0300
0002
0003
,
2000
3200
0320
0032
,
0203
0000
0320
0000
2030
0000
3001
0010
,
0002
0000
0000
0000
,
1003
0010
0100
0000
,
1001
1100
0010
0101
,
0010
0000
1100
0000
0001
0010
0100
1000
,
0001
0100
0010
1000
,
0100
0010
0100
0000
1000
0000
0010
0000
,
1010
0011
1010
0011
,
1001
0000
0100
0000
1000
0000
0010
0100
,
0001
0000
1000
0000
0100
0010
0001
0000
,
1000
0000
0010
0000
0100
0001
1000
0000
,
0010
1001
0100
1001
,
0010
0000
1001
0000
0100
0010
0100
0010
,
0001
0000
1000
0000
0010
1000
0010
0000
,
0100
0001
1000
0001
,
0010
0100
0010
0100
0010
0000
0001
0000
,
1000
0000
0010
0000
0100
0001
0100
0000
,
0020
1030
0200
0310
,
2002
3003
0010
0000
,
0101
1000
0100
0001
,
0010
0000
1000
0000
0001
0100
0001
0000
,
1000
0000
0001
0000
0010
0100
0010
0100
,
1000
0000
0001
0000
,
1000
0010
0001
0100
,
1000
0000
0001
0000
0010
0100
0010
0000
,
0001
0000
1000
0100
1000
0100
1000
0100
,
0010
0001
1000
0000
,
1010
1100
0001
0101
,
1000
0000
0001
0000
0010
0100
0010
0000
,
0001
0000
1000
0100
0010
0001
0100
0100
,
0010
1000
0001
0000
,
0101
1100
0010
1100
,
0101
0000
1000
0000
0001
0010
0100
1000
,
0020
0230
0302
2003
,
3020
0130
1001
0100
,
1000
0001
1000
0001
0100
0000
0010
0000
,
1000
0100
0010
0000
0011
0000
1010
0000
,
0011
1010
0101
1100
,
1001
0000
0110
0000
1000
0100
0010
0001
,
0100
0020
0000
2000
0000
0000
0000
0000
,
0000
3030
0000
0000
;

//---------------dance-single - ----------------
#NOTEDATA:;
#CHARTNAME:;
#STEPSTYPE:dance-single;
#DESCRIPTION:;
#CHARTSTYLE:;
#DIFFICULTY:Easy;
#METER:3;
#RADARVALUES:0.199132,0.311991,0.029192,0.131365,0.000000,169.000000,4.000000,18.000000,0.000000,0.000000,0.000000,0.000000,0.000000,0.199132,0.311991,0.029192,0.131365,0.000000,169.000000,4.000000,18.000000,0.000000,0.000000,0.000000,0.000000,0.000000;
#CREDIT:Ben Speirs;
#NOTES:
0000
0000
0000
0000
,
0000
0000
0000
0000
,
0100
0000
0001
0000
,
1000
0000
0010
0000
,
1000
0100
0010
0001
,
0000
0000
0000
0000
,
1000
0000
0010
0000
,
1000
0000
0100
0000
,
0010
0001
1000
0010
,
0000
0000
0000
0000
,
0100
0000
0001
0000
,
1000
0000
0100
0100
,
0010
0000
0001
1000
,
0001
0000
0100
0000
,
0010
0000
1000
0000
,
0100
0100
0010
0000
,
0001
1000
0001
0000
,
0100
0000
0010
0000
,
1000
0100
1000
0100
,
1000
0000
0000
0000
,
0001
0100
0001
0100
,
0001
0000
0000
0000
,
1000
0010
1000
0010
,
1000
0000
0000
0000
,
0001
0010
0001
0010
,
0001
0000
1000
0000
,
0010
0000
0100
0000
,
0001
0000
1000
0000
,
0100
0000
0010
0000
,
0001
0000
1000
0000
,
0010
0010
0100
0100
,
0001
0001
1000
1000
,
2002
0000
0000
0000
,
3003
0000
0010
0010
,
2000
3000
0002
0003
,
2000
3000
0100
0010
,
0001
0000
1000
0000
,
0010
0100
0010
0100
,
0002
0003
2000
3000
,
0200
0300
0020
0030
,
0001
0001
1000
1000
,
0010
0000
0100
0100
,
0002
0003
2000
3000
,
0000
1001
0000
0000
,
0010
1000
0010
1000
,
0100
0000
1000
0000
,
0001
0000
1000
0000
,
0010
0100
0010
0000
,
2000
3000
0002
0003
,
0010
0000
0100
0000
,
1001
0000
1000
0000
,
0010
0000
0100
0100
,
0001
0000
1000
0100
,
1000
0000
0001
0000
,
0100
0000
0010
0000
,
1000
1000
0100
0000
,
0010
0001
0010
0000
,
0001
0000
1000
0000
,
0010
0100
0010
0000
,
0100
0000
0001
1000
,
0001
0000
1000
1000
,
0100
0000
0010
0000
,
0001
0100
0001
0000
,
1000
0010
1000
0000
,
0002
0003
2000
3000
,
0000
1001
0000
0000
,
0100
0010
1000
0000
,
0001
0000
1000
0100
,
1000
0001
0100
0000
,
0010
0000
2000
3000
,
0002
0003
0200
0000
,
0000
0300
0000
0000
;

//---------------dance-single - ----------------
#NOTEDATA:;
#CHARTNAME:;
#STEPSTYPE:dance-single;
#DESCRIPTION:;
#CHARTSTYLE:;
#DIFFICULTY:Beginner;
#METER:2;
#RADARVALUES:0.116769,0.154354,0.021894,0.000000,0.000000,109.000000,3.000000,0.000000,0.000000,0.000000,0.000000,0.000000,0.000000,0.116769,0.154354,0.021894,0.000000,0.000000,109.000000,3.000000,0.000000,0.000000,0.000000,0.000000,0.000000,0.000000;
#CREDIT:Ben Speirs;
#NOTES:
0000
0000
0000
0000
,
0000
0000
0000
0000
,
1000
0000
0000
0000
,
0001
0000
0000
0000
,
0100
0000
0100
0000
,
0100
0000
0000
0000
,
0001
0000
0000
0000
,
1000
0000
0000
0000
,
0010
0000
0010
0000
,
0010
0000
0000
0000
,
1000
0000
0000
0000
,
0100
0000
0000
0000
,
0010
0000
0010
0000
,
0010
0000
0000
0000
,
0001
0000
0000
0000
,
0100
0000
0000
0000
,
0010
0000
0010
0000
,
0010
0000
0000
0000
,
1000
0000
0001
0000
,
0100
0000
0000
0000
,
0001
0000
1000
0000
,
0100
0000
0000
0000
,
1000
0000
0001
0000
,
0010
0000
0000
0000
,
0001
0000
1000
0000
,
0010
0000
0000
0000
,
1001
0000
0000
0000
,
0100
0000
0000
0000
,
0010
0000
0000
0000
,
1000
0000
0000
0000
,
0100
0000
0100
0000
,
0010
0000
0010
0000
,
0001
0000
0001
0000
,
1000
0000
0000
0000
,
0010
0010
0000
0000
,
1000
0000
0001
0000
,
0100
0100
0000
0000
,
0001
0000
0010
0000
,
0100
0100
0000
0000
,
1000
0000
0010
0000
,
0100
0000
0100
0000
,
0001
0000
0000
0000
,
0010
0000
0010
0000
,
0010
0010
0000
0000
,
1000
0000
0001
0000
,
1000
0000
0000
0000
,
0010
0000
0100
0000
,
0100
0000
0000
0000
,
0001
0001
0000
1000
,
1000
0000
0000
0000
,
1001
0000
0000
0000
,
0100
0000
0010
0010
,
0010
0000
1000
0000
,
0001
0000
0000
0000
,
1000
0000
0000
0000
,
0100
0000
0010
0010
,
0010
0000
0001
0000
,
1000
0000
0000
0000
,
0010
0010
0000
0000
,
1000
1000
0000
0000
,
0001
0001
0000
0000
,
0100
0000
0000
0000
,
0001
0000
0001
0000
,
1000
0000
1000
0000
,
0010
0000
0010
0000
,
0000
1001
0000
0000
,
0000
0000
1000
0000
,
1000
0000
0010
0010
,
0000
0100
0100
0000
,
0000
0000
0001
0000
,
0001
0000
1000
0000
;

//---------------dance-double - ----------------
#NOTEDATA:;
#CHARTNAME:;
#STEPSTYPE:dance-double;
#DESCRIPTION:;
#CHARTSTYLE:;
#DIFFICULTY:Challenge;
#METER:7;
#RADARVALUES:0.551524,0.493986,0.058384,0.780891,0.047437,414.000000,8.000000,107.000000,0.000000,0.000000,0.000000,0.000000,0.000000,0.551524,0.493986,0.058384,0.780891,0.047437,414.000000,8.000000,107.000000,0.000000,0.000000,0.000000,0.000000,0.000000;
#CREDIT:Ben Speirs;
#NOTES:
00000000
00000000
00000000
00000000
,
00000000
00000000
00000000
00000000
,
20000000
32000000
03200000
00320000
,
02030000
00000000
03200000
00000000
10300000
00010000
10000000
00000000
,
00020000
00000000
00230000
00000000
00301000
00010000
00001000
00010000
,
00000200
00000000
00000000
00000300
,
00002000
00003020
00000230
00000302
,
00000023
00000000
00000230
00000000
00001300
00000001
00001000
00000000
,
00000020
00000000
00002030
00000000
00003100
00010000
00000100
00010000
,
00002000
00000000
00000000
00003000
,
00100000
00010000
00200000
00000000
00320000
00000000
20030000
00000000
,
30100000
10000000
00200000
00000000
02300000
00000000
03020000
00000000
,
10030000
01000000
10000000
01000000
00100000
00010000
00100000
00010000
,
02000000
03200000
20300000
30020000
,
00230000
00000000
00302000
00000000
00013000
00000100
00010000
00000000
,
00000200
00000000
00002300
00000000
00003010
00000100
00000010
00000100
,
00000002
00000000
00002003
00000000
00003100
00000010
00000100
00000010
,
00000002
00002003
00003020
00000230
,
00000301
00001000
00000002
00000000
00000103
00000010
00001000
00000010
,
00000100
00000100
00000002
00000000
00002003
00000000
00003200
00000000
,
00010300
00000100
00010000
00000100
00100000
00001000
00100000
00001000
,
00002000
00023000
00230000
20300000
,
31000000
10000000
02000000
00000000
13000000
00010000
10000000
00010000
,
01000000
01000000
00200000
00000000
20300000
00000000
32000000
00000000
,
03100000
00010000
00100000
00010000
01000000
00001000
01000000
00001000
,
00020000
00000000
00031000
00010000
00000200
00000000
00001300
00000010
,
00000200
00000000
00000301
00001000
00000020
00000000
00000130
00000001
,
00002000
00000000
00003100
00010000
00002000
00000000
00103000
00010000
,
02000000
00000000
03010000
10000000
02000000
00000000
03100000
00010000
,
02000000
00000000
03010000
00100000
00002000
00000000
00013000
00000100
,
00001000
00000010
00000100
00000001
00000010
00000100
00001000
00000010
,
00000100
00000000
00000001
00000000
00001000
00000000
00000100
00000000
00010000
00000000
00001000
00000000
00100000
00000000
00001000
00010000
,
00001000
00100000
00010000
01000000
00100000
10000000
01000000
00100000
,
00010000
01000000
00100000
10000000
00020000
00000000
01030000
00000000
,
21000000
00000000
30010000
10000000
00200000
00000000
01300000
00010000
,
00200000
00000000
00000000
00000000
00310000
00000000
01000000
00000000
00001000
00000000
00100000
00010000
00000000
00010000
20000000
00000000
,
00000000
00000000
30200000
00000000
01300000
00010000
10000000
01000000
,
00100000
00100000
00010000
01000000
00100000
00100000
00010000
00001000
,
00200000
00000000
00302000
00000000
00013000
00000100
00001000
00000020
,
00000000
00000130
00000001
00002000
00000000
00003100
00000010
00000001
,
00002000
00000000
00003100
00000010
00000002
00000000
00000103
00000010
,
00002000
00000000
00003002
00000000
00001003
00000100
00010000
00000000
,
00020100
00031000
00102000
00013000
,
00010010
00000000
00000000
00000000
00011000
00000000
00000000
00000000
00100000
00001000
00000000
00001000
00100000
00000000
00001000
00000000
,
00010000
00100000
10000000
01000000
00100000
00010000
10000000
00100000
,
02000000
00000000
03020000
00000000
10030000
01000000
00100000
00000000
,
00010000
10000000
00010000
10000000
00100000
02000000
00000000
03020000
,
00000000
10030000
01000000
00200000
00000000
00310000
01000000
00010000
,
00200000
00000000
00301000
00010000
00000100
00020000
00000000
00030100
,
00002000
00000000
00003020
00000000
00000130
00000001
00001000
00000000
,
00000101
00000100
00000010
00001000
00000100
00000010
00000001
00001000
,
00000010
00000000
00001000
00000000
00000100
00000000
00000000
00000000
00000010
00000001
00000000
00000001
00001000
00000000
00000020
00000000
,
00000000
00000130
00000001
00000100
00000010
00001000
00000100
00010000
,
00002000
00100000
00010000
00103000
,
00100000
00010000
01000000
00100000
10000000
01000000
00100000
00010000
,
10000000
00000000
10000000
00000000
00100000
00000000
00000000
00000000
01000000
00010000
00000000
00010000
10000000
00000000
00020000
00000000
,
00000000
01030000
00100000
10000000
01000000
00100000
00010000
01000000
,
00020000
00230000
00302000
00023000
,
00030100
00001000
00000010
00000100
00000002
00000000
00001003
00000100
,
00001000
00000000
00000001
00000000
00000200
00000000
00000000
00000000
00000310
00001000
00000000
00001000
00000010
00000000
00000200
00000000
,
00000000
00000301
00000010
00000100
00001000
00000010
00010000
00000100
,
00200000
00001000
00310000
00101000
,
00001000
00100000
00010000
10000000
00100000
01000000
00010000
10000000
,
01000000
00000000
01000000
00000000
00100000
00000000
00000000
00000000
00010000
10000000
00000000
10000000
00010000
00000000
01000000
00000000
,
00200000
20300000
32000000
03200000
,
00310000
00000000
00101000
00000000
00001000
00010000
00001000
00100000
,
00001000
00010000
00000100
00001000
00000020
00000000
00000230
00000000
,
00000301
00001000
00000100
00000010
00000001
00001000
00000001
00001000
,
00000010
00000200
00000000
00000302
00000000
00001003
00000100
00020000
,
00000000
00030100
00100000
00001000
00010000
00010000
00001000
00100000
,
00010000
02000000
00000000
00002000
00000000
00000000
00000000
00000000
,
00000000
03003000
00000000
00000000
;
