#VERSION:0.83;
#TITLE:Fire;
#SUBTITLE:~Dororo OP~;
#ARTIST:Queen Bee;
#TITLETRANSLIT:;
#SUBTITLETRANSLIT:;
#ARTISTTRANSLIT:;
#GENRE:Anime;
#ORIGIN:;
#CREDIT:;
#BANNER:Fire.png;
#BACKGROUND:Fire-bg.png;
#PREVIEWVID:;
#JACKET:jacket.png;
#CDIMAGE:;
#DISCIMAGE:;
#LYRICSPATH:;
#CDTITLE:;
#MUSIC:Fire.ogg;
#OFFSET:0.720000;
#SAMPLESTART:57.172894;
#SAMPLELENGTH:13.714000;
#SELECTABLE:YES;
#BPMS:0.000=170.000;
#STOPS:;
#DELAYS:;
#WARPS:;
#TIMESIGNATURES:0.000=4=4;
#TICKCOUNTS:0.000=4;
#COMBOS:0.000=1;
#SPEEDS:0.000=1.000=0.000=0;
#SCROLLS:0.000=1.000;
#FAKES:;
#LABELS:0.000=Song Start;
#BGCHANGES:1.000=Fire.avi=1.000=0=0=1=====,
99999=-nosongbg-=1.000=0=0=0 // don't automatically add -songbackground-
;
#KEYSOUNDS:;
#ATTACKS:
;

//---------------dance-single - ----------------
#NOTEDATA:;
#CHARTNAME:;
#STEPSTYPE:dance-single;
#DESCRIPTION:;
#CHARTSTYLE:;
#DIFFICULTY:Hard;
#METER:8;
#RADARVALUES:0.581597,0.701831,0.268429,0.313168,0.173361,364.000000,340.000000,24.000000,28.000000,0.000000,0.000000,0.000000,0.000000,0.000000,0.581597,0.701831,0.268429,0.313168,0.173361,364.000000,340.000000,24.000000,28.000000,0.000000,0.000000,0.000000,0.000000,0.000000;
#CREDIT:Ben Speirs;
#NOTES:
0000
0000
0000
0000
,
0000
0000
0000
0000
,
0000
0000
0000
0000
,
0000
0000
0000
0000
,
0000
0000
0000
0000
1000
0100
1000
0010
,
0100
0001
1000
0100
0010
0000
2002
0000
,
0000
0000
0000
0000
,
0000
0000
0000
0000
,
0000
0000
3003
0000
1000
0100
0010
0001
,
1000
0000
0001
0000
0100
0010
1000
0000
,
0100
0000
1000
0000
0001
0000
0000
0000
1000
0100
1000
0100
1000
0000
0000
0000
,
0100
1000
0010
0000
0100
0010
1000
0000
,
0100
0000
0010
0000
0001
0000
0000
0000
0100
0001
0100
0001
0100
0000
0000
0000
,
0010
0100
0001
0000
1000
0001
0100
0000
,
0010
0000
1000
0000
0100
1000
0001
0000
,
1000
0100
0010
0001
0200
0000
0000
0000
,
0010
0000
0310
0000
0100
0010
0100
0000
,
0010
0100
0001
0100
0000
0010
0100
0001
,
1000
0100
1000
0001
0000
1100
0000
1000
,
0010
0100
0010
1000
0000
0001
1000
0010
,
0100
0010
1000
0001
0000
0101
0000
1000
,
0002
0000
0103
0010
0100
0001
2000
0000
,
3200
0000
0310
0000
0001
1000
0010
0000
,
1000
0100
1000
0001
0010
0001
1000
0010
,
1000
0000
0001
0000
0010
0000
0100
0000
1000
0000
0010
0100
0010
0000
0000
0000
,
1002
0100
0010
2003
,
0100
0100
0001
0100
,
0010
0001
0001
0100
,
0010
0010
0001
3100
,
1000
0100
0010
0001
1000
0001
2000
0000
,
0000
3001
0100
0010
0100
0001
0010
0100
,
1000
0001
1000
0000
0001
0000
0102
0000
,
1003
0000
1010
0000
0001
1000
0100
0000
,
0110
1001
0010
1010
,
1100
0000
0000
0000
0100
1000
0001
1000
,
1001
0101
1000
1010
,
0011
0000
0000
0000
0001
0010
0100
1000
,
0010
0100
0010
1000
0100
1000
0001
0010
,
0001
0100
0020
0000
1000
0000
0100
0000
,
1030
0000
0100
0000
0010
0000
0001
0000
0100
0010
0100
0010
0100
0010
0100
0010
,
0100
0000
0000
0000
0001
1000
0010
0000
,
1002
0000
0000
0103
0100
0010
0100
0001
,
2000
0000
0000
3100
0100
1000
0010
1000
,
0002
0000
0000
0013
0010
0001
1000
0010
,
0100
1001
0000
0001
0001
1000
0010
0100
,
0020
0000
1030
0100
1000
1000
0100
0010
,
0002
0000
0103
0001
1000
1000
0001
1000
,
0020
0000
0130
0010
1000
1000
0100
1000
,
0002
0000
0000
0000
0013
0000
0001
0000
1000
0000
1000
0000
0001
0100
0001
0100
,
0001
1010
0101
0011
,
1100
0000
1001
0000
0110
0000
0100
0010
,
0002
0203
0320
2030
,
3002
0000
0000
0000
0103
0010
0100
0010
,
2000
0000
0000
3000
,
0100
1000
0010
0100
0001
0000
1001
0000
,
1000
0100
0000
0000
0100
0010
0000
0000
0010
0001
0000
0000
0001
1000
0000
0000
,
1000
0010
0000
0000
0010
0100
0000
0000
0100
0001
0000
0000
0001
0010
0000
0000
,
0010
0100
0000
0000
0100
1000
0000
0000
1000
0001
0000
0000
0001
0100
0000
0000
,
0100
0010
0000
0000
0010
1000
0000
0000
1000
0100
0000
0000
0100
0010
0000
0000
,
2001
0000
0000
3002
0000
0000
0203
0000
,
0000
0301
2000
0000
0010
0000
3010
0000
,
1000
0000
0100
0000
1000
0000
0010
0000
0100
0001
0100
0001
0100
0001
0100
0001
,
1000
0100
0010
0001
0100
0010
1000
0000
;

//---------------dance-single - ----------------
#NOTEDATA:;
#CHARTNAME:;
#STEPSTYPE:dance-single;
#DESCRIPTION:;
#CHARTSTYLE:;
#DIFFICULTY:Challenge;
#METER:10;
#RADARVALUES:0.856418,1.158021,0.022369,0.111846,0.749365,536.000000,534.000000,2.000000,10.000000,0.000000,0.000000,0.000000,0.000000,0.000000,0.856418,1.158021,0.022369,0.111846,0.749365,536.000000,534.000000,2.000000,10.000000,0.000000,0.000000,0.000000,0.000000,0.000000;
#CREDIT:Ben Speirs;
#NOTES:
0000
0000
0000
0000
,
0000
0000
0000
0000
,
0000
0000
0000
0000
,
0000
0000
0000
0000
,
0000
0000
0000
0000
0001
0010
0100
0010
,
0001
1000
0010
0100
0010
0000
2002
0000
,
0000
0000
0000
0000
,
0000
0000
0000
0000
,
0000
0000
3003
0000
0001
1000
0010
0100
,
0001
0000
0001
0000
0100
0000
0010
0000
1000
0100
1000
0000
0010
0000
0100
0000
,
0001
0000
0001
0000
1000
0000
0100
0000
0010
0100
0010
0000
0001
0000
1000
0000
,
0010
0000
0010
0000
1000
0000
0100
0000
0010
0001
0010
0000
0100
0000
1000
0000
,
0010
0000
0010
0000
0100
0000
0001
0000
1000
0001
1000
0000
0010
0000
0100
0000
,
0001
0000
0001
0000
0010
0000
0100
1000
0100
1000
0100
1000
0100
0000
1000
0000
,
0010
0000
0010
0000
1000
0000
0001
0100
0001
0100
0001
0100
0001
0000
1000
0000
,
0001
0000
0100
0000
0100
0000
0010
1000
0010
1000
0010
1000
0010
0000
0100
0000
,
0001
0000
0001
0000
1000
0000
0100
0010
0100
0010
0100
0010
0100
0000
0010
0000
,
0001
0000
0010
0100
0010
0000
0001
0000
1000
0000
0010
0000
0100
0000
0001
0000
,
1000
0000
0100
1000
0100
0000
1000
0000
0010
0000
0100
0000
0001
0000
1000
0000
,
0100
0000
0010
0100
0010
0000
0001
0000
1000
0000
0010
0000
0100
0000
0001
0000
,
1000
0000
0010
1000
0010
0000
0100
0000
0001
0000
0010
0000
0100
0000
1000
0000
,
0001
0000
1000
0100
0010
0000
0001
0000
1000
0000
0010
0000
0100
0000
0001
0000
,
1000
0000
0001
0010
0100
0000
1000
0000
0001
0000
0100
0000
0010
0000
1000
0000
,
0001
0010
0001
0010
0001
0010
0100
0010
0100
0010
0100
0010
0100
1000
0100
1000
,
0100
1000
0001
1000
0001
1000
0001
1000
0001
0010
0100
1000
0010
0100
0001
1000
,
0010
0100
0001
1000
0001
1000
0010
0100
,
0001
1000
0001
1000
0010
0100
0010
0100
,
0001
1000
0010
0100
0010
0100
0001
1000
,
0010
0000
0100
0000
0010
0000
0100
0000
0001
0000
1000
0100
0010
0000
0001
0000
,
1000
1000
0010
0100
0010
0100
0001
0001
,
0010
0100
0010
0100
1000
0001
1000
0001
,
0100
0100
0010
1000
0010
1000
0100
0100
,
0010
0001
0010
0001
0100
0100
0010
1000
,
0001
0010
0001
0010
0100
0000
0010
0000
0001
0000
1000
0000
0010
1000
0010
1000
,
0100
1000
0010
0100
0001
1000
0010
0100
,
0001
0010
0001
0010
0100
0000
0010
0000
0001
0000
1000
0000
0010
0100
0010
0100
,
0001
0100
0010
1000
0001
0010
0100
1000
,
0001
0010
0001
0010
0100
0000
1000
0000
0001
0000
0100
0000
0010
1000
0010
1000
,
0100
1000
0010
0100
0001
0010
0100
1000
,
0001
0010
0100
1000
0010
0100
0001
1000
0100
0010
0001
1000
0010
0100
0001
1000
,
0010
0000
0000
0000
1000
0100
0010
0001
,
1000
0000
0010
0100
0010
0000
1000
0000
1000
0000
0100
0010
0001
0000
1000
0000
,
0010
0000
0100
0001
0100
0000
0010
0000
0010
0000
1000
0100
0010
0000
0001
0000
,
1000
0000
0010
0100
0010
0000
1000
0000
1000
0000
0001
0010
0100
0000
1000
0000
,
0010
0000
1001
0000
0000
0000
1000
0000
0100
0000
0010
0001
0010
0000
0001
0000
,
1000
0000
0010
0100
0000
0100
0001
0000
0001
0000
0100
0010
1000
0000
0001
0000
,
0010
0000
0100
1000
0000
1000
0001
0000
0001
0000
1000
0100
0010
0000
0001
0000
,
1000
0000
0010
0100
0000
0100
0001
0000
0001
0000
0100
0010
1000
0000
0001
0000
,
0010
0000
0100
1000
0000
1000
0001
0000
1000
0010
0100
0001
0010
0100
1000
0001
,
0100
0000
0000
0000
0010
1000
0000
0000
1000
0100
0000
0000
0100
0010
0000
0000
,
0010
0001
0000
0000
0001
1000
0000
0000
1000
0010
0000
0000
0010
0000
0100
0000
,
0001
0010
0000
0000
0010
0100
0000
0000
0100
1000
0000
0000
1000
0010
0000
0000
,
0200
0000
0000
0000
0301
0000
0000
0000
0100
0000
0010
1000
0010
0000
0100
0000
,
0002
0203
2300
3200
,
0302
0023
0230
1300
,
0100
1000
0000
1000
0010
0100
0000
0100
0001
0010
0000
0010
0100
1000
0000
1000
,
0010
0100
0000
0100
0001
0010
0000
0010
0100
1000
0000
1000
0001
0010
0000
0010
,
0100
1000
0000
1000
0001
0100
0000
0100
0010
1000
0000
1000
0100
1000
0000
0001
,
0100
0001
0000
1000
0100
1000
0000
0001
0010
0100
0000
1000
0010
0100
0000
0001
,
0100
0000
0010
0000
1000
0000
0100
0000
0010
0000
0001
1000
0001
0000
0100
0000
,
0010
0000
1000
0000
0100
0000
0010
0000
0001
0000
0100
0010
0100
0000
0001
0000
,
1000
0100
1000
0100
0010
0001
0010
0001
1000
0010
0100
0001
0010
0100
1000
0001
,
0100
0010
1000
0100
0010
0001
0100
0000
;

//---------------dance-double - ----------------
#NOTEDATA:;
#CHARTNAME:;
#STEPSTYPE:dance-double;
#DESCRIPTION:;
#CHARTSTYLE:;
#DIFFICULTY:Challenge;
#METER:8;
#RADARVALUES:0.595977,0.772014,0.290798,0.223691,0.162176,373.000000,347.000000,26.000000,20.000000,0.000000,0.000000,0.000000,0.000000,0.000000,0.595977,0.772014,0.290798,0.223691,0.162176,373.000000,347.000000,26.000000,20.000000,0.000000,0.000000,0.000000,0.000000,0.000000;
#CREDIT:Ben Speirs;
#NOTES:
00000000
00000000
00000000
00000000
,
00000000
00000000
00000000
00000000
,
00000000
00000000
00000000
00000000
,
00000000
00000000
00000000
00000000
,
00000000
00000000
00000000
00000000
00010000
00001000
00000100
00000001
,
00000100
00001000
00010000
00001000
00100000
00000000
00202000
00000000
,
00000000
00000000
00000000
00000000
,
00000000
00000000
00000000
00000000
,
00000000
00303000
00001000
00100000
,
00001000
00010000
00000100
00000000
00001000
00000010
00000100
00000000
,
00000010
00000000
00001000
00000000
00000100
00000000
00000000
00000000
00010000
00001000
00010000
00001000
00010000
00000000
00000000
00000000
,
00001000
00100000
00010000
00000000
01000000
00100000
10000000
00000000
,
00010000
00000000
00100000
00000000
00001000
00000000
00000000
00000000
00010000
00001000
00010000
00001000
00010000
00000000
00000100
00000000
,
00001000
00000010
00000100
00000010
00001000
00000100
00020000
00000000
,
00001000
00000100
00031000
00011000
,
00001000
00010000
00100000
10000000
02000000
00000000
03100000
00000000
,
00100000
00010000
01000000
00000000
01010000
00000000
11000000
00000000
,
00010000
01000000
00010000
10000000
00000000
00100000
10000000
01000000
,
00100000
00010000
01000000
00010000
00000000
01001000
00000000
01000000
,
00010000
00100000
00001000
00010000
00000000
00000100
00010000
00001000
,
00010000
00000100
00001000
00000010
00000000
00000110
00000000
00000100
,
00000010
00001000
00000100
00000010
00000001
00000010
00000100
00001000
,
00000010
00000100
00000001
00001000
00000010
00000100
00000001
00000000
,
00000200
00000000
00001300
00020000
00000000
00130000
20000000
00000000
,
31000000
00200000
00000000
00310000
10000000
00100000
01000000
00010000
,
00210000
00001000
00000100
00001000
,
00010000
00001000
00000100
00001000
,
00010000
00001000
00000100
00001000
,
00010000
00001000
00000100
00301000
,
00100000
00001000
00010000
00000100
00010000
00000100
00020000
00000000
,
00001000
00000100
00001000
00000100
,
00000010
00030010
00010000
00011000
,
00000100
00000000
00010100
00000000
00000100
00001000
00000010
00000000
,
00001010
00000101
00000010
00000110
,
00001001
00000000
00000000
00000000
00000001
00000100
00001000
00000000
,
00011000
00101000
00100000
00110000
,
01010000
00000000
00000000
00000000
10000000
00100000
01000000
00000000
,
00010000
00100000
01000000
00100000
00010000
01000000
00100000
01000000
,
00010000
00100000
00001000
00010000
00000100
00001000
00000010
00000100
,
00000010
00001000
00000010
00000000
00001000
00000000
00000100
00000000
00000010
00000100
00000010
00000000
00000001
00000000
00001000
00000001
,
00001000
00000000
00000000
00000000
00000001
00000100
00001000
00010000
,
00002000
00000000
00000000
00013000
00010000
00001000
00100000
00010000
,
02000000
00000000
00000000
03100000
00100000
10000000
00100000
01000000
,
00020000
00000000
00000000
00130000
00100000
00010000
01000000
00100000
,
10000000
11000000
00000000
00010000
00010000
10000000
01000000
00100000
,
00020000
00000000
00000000
01030000
00010000
00100000
00001000
00010000
,
00000020
00000000
00000000
00000000
00000000
00000030
00000100
00000000
00000010
00000000
00001000
00000000
00000100
00000000
00000010
00000000
,
00000002
00000000
00000000
00000103
00001000
00000100
00000010
00001000
,
00000200
00000000
00000000
00001300
00000100
00010000
00001000
00100000
,
00010000
00110000
11000000
00010000
,
10000000
00000000
01100000
00000000
10010000
00000000
10000000
01000000
,
00010000
00011000
00001100
00000110
,
00002002
00000000
00000000
00000000
00003003
00000000
00000000
00000000
00000001
00000000
00000100
00000010
00000100
00000000
00000010
00000000
,
00001000
00000000
00000010
00001000
00000100
00000000
00000010
00000000
,
00000001
00001000
00000001
00000100
00000010
00001000
00000001
00000000
,
00000001
00000100
00000000
00000000
00000100
00000010
00000000
00000000
00000010
00001000
00000000
00000000
00001000
00000100
00000000
00000000
,
00000100
00010000
00000000
00000000
00010000
00001000
00000000
00000000
00001000
00100000
00000000
00000000
00100000
00010000
00000000
00000000
,
00010000
01000000
00000000
00000000
01000000
00100000
00000000
00000000
00100000
10000000
00000000
00000000
10000000
01000000
00000000
00000000
,
01000000
00100000
00000000
00000000
00100000
00010000
00000000
00000000
00010000
01000000
00000000
00000000
01000000
00001000
00000000
00000000
,
00010000
00001000
00010000
00000100
00001000
00000010
00000100
00000001
,
00000010
00000100
00001000
00000010
00000100
00001000
00010000
00000100
,
00010000
00001000
00010000
00000000
00001000
00000000
00100000
00000000
00010000
01000000
00010000
01000000
00010000
01000000
00010000
01000000
,
00010000
10000000
01000000
00100000
00002000
00000000
00013000
00000000
;

//---------------dance-single - ----------------
#NOTEDATA:;
#CHARTNAME:;
#STEPSTYPE:dance-single;
#DESCRIPTION:;
#CHARTSTYLE:;
#DIFFICULTY:Medium;
#METER:6;
#RADARVALUES:0.401046,0.491282,0.257245,0.178953,0.044738,251.000000,228.000000,23.000000,16.000000,0.000000,0.000000,0.000000,0.000000,0.000000,0.401046,0.491282,0.257245,0.178953,0.044738,251.000000,228.000000,23.000000,16.000000,0.000000,0.000000,0.000000,0.000000,0.000000;
#CREDIT:Ben Speirs;
#NOTES:
0000
0000
0000
0000
,
0000
0000
0000
0000
,
0000
0000
0000
0000
,
0000
0000
0000
0000
,
0000
0000
1000
0100
,
0010
0010
0001
1000
,
0000
0000
0000
0000
,
0000
0000
0000
0000
,
0000
0000
0000
0000
,
0001
1000
0010
0100
,
0001
0000
0010
0000
0100
1000
0100
0000
,
1000
0010
0100
0010
,
1000
0000
0100
0000
0010
0001
0010
0000
,
0001
1000
0010
0100
,
0001
0000
1000
0000
0010
0100
0010
0000
,
1000
0000
0100
0010
0001
0000
0000
0000
,
0100
0100
0010
1000
,
0001
0000
0010
0001
0000
0001
0010
0000
,
0001
0000
1000
0010
0000
0000
0000
0000
,
1000
0000
0010
0100
0000
0100
0010
0000
,
1000
0000
0001
0100
0000
0000
0000
0000
,
0001
0000
1000
0100
0000
0100
1000
0000
,
0001
0000
1000
0010
0000
0000
0000
0000
,
1010
0000
0000
0011
0000
0000
0101
0000
,
0000
2100
0000
0000
0001
0000
3001
0000
,
1000
0100
0010
0001
,
1000
0100
0010
0001
,
1000
0100
0010
0001
,
1000
0000
0100
0000
0010
0001
0100
0000
,
0001
0100
0010
1000
,
0001
0100
0010
1000
,
0001
0100
0010
1000
,
0001
0000
0100
0000
0010
1000
0100
0000
,
1100
0110
0000
0011
,
0110
0000
1001
0000
,
0101
0110
0000
1010
,
0110
0000
1001
0000
,
0001
0000
0010
0000
0100
0010
0100
0000
,
1000
0000
0010
0000
0100
0010
0100
0000
,
0001
0100
0001
0000
1000
0000
0100
1000
,
0100
0000
1000
0100
,
1100
0000
0000
0000
0000
0000
0000
0000
0001
0000
0000
1000
0000
0000
0001
0000
,
0100
0000
0000
0000
0000
0000
0000
0000
0001
0000
0000
0100
0000
0000
0100
0000
,
0010
0000
0000
0000
0000
0000
0000
0000
1000
0000
0000
0100
0000
0000
1000
0000
,
0010
0000
0000
0000
0000
0000
0000
0000
1000
0000
0000
1000
0000
0000
1000
0000
,
0100
0000
0000
0000
0000
0000
0000
0000
1000
0000
0000
0001
0000
0000
0010
0000
,
0001
0000
0000
0000
0000
0000
0000
0000
0100
0000
0000
0100
0000
0000
0001
0000
,
1000
0000
0000
0000
0000
0000
0000
0000
0010
0000
0000
0010
0000
0000
0100
0000
,
0010
0000
0000
0000
0000
0000
0000
0000
1000
0000
0000
1000
0000
0000
0010
0000
,
0100
0101
0110
1000
,
0100
0000
1100
0000
0110
0000
0010
0001
,
0100
0010
1000
1010
,
2002
0000
3003
0000
0001
1000
0001
0000
,
0200
0000
0000
0300
,
0001
0100
0001
0000
1000
0000
1001
0000
,
2000
0000
3010
0100
0020
0000
1030
0100
,
2000
0000
3001
0010
0002
0000
0103
0010
,
0200
0000
0301
0100
0002
0000
1003
0010
,
2000
0000
3001
0010
0002
0000
1003
0100
,
2000
0000
0000
3002
0000
0000
0203
0000
,
0000
0320
0000
0000
0100
0000
0130
0000
,
0010
0100
0010
0000
1000
0000
0100
0010
,
0001
0000
0010
1001
;

//---------------dance-single - ----------------
#NOTEDATA:;
#CHARTNAME:;
#STEPSTYPE:dance-single;
#DESCRIPTION:;
#CHARTSTYLE:;
#DIFFICULTY:Easy;
#METER:4;
#RADARVALUES:0.257245,0.315824,0.022369,0.078292,0.000000,161.000000,159.000000,2.000000,7.000000,0.000000,0.000000,0.000000,0.000000,0.000000,0.257245,0.315824,0.022369,0.078292,0.000000,161.000000,159.000000,2.000000,7.000000,0.000000,0.000000,0.000000,0.000000,0.000000;
#CREDIT:Ben Speirs;
#NOTES:
// measure 0
0000
0000
0000
0000
,  // measure 1
0000
0000
0000
0000
,  // measure 2
0000
0000
0000
0000
,  // measure 3
0000
0000
0000
0000
,  // measure 4
0000
0000
0001
0000
,  // measure 5
1000
0000
0010
0100
,  // measure 6
0000
0000
0000
0000
,  // measure 7
0000
0000
0000
0000
,  // measure 8
0000
0000
0000
0000
,  // measure 9
0010
0010
1000
1000
,  // measure 10
0100
0000
1000
0000
,  // measure 11
0001
0001
0010
0010
,  // measure 12
0100
0000
0010
0000
,  // measure 13
0001
0001
0100
0000
,  // measure 14
0010
0010
1000
0000
,  // measure 15
0001
1000
0100
0000
,  // measure 16
1000
1000
0001
0000
,  // measure 17
1000
0000
0100
0010
,  // measure 18
0100
0000
1000
0000
,  // measure 19
0001
0000
1000
0010
,  // measure 20
1000
0000
0001
0000
,  // measure 21
0100
0000
0001
0010
,  // measure 22
0001
0000
1000
0000
,  // measure 23
0100
0010
0100
0010
,  // measure 24
0001
1000
0001
0000
,  // measure 25
1000
0010
0100
0002
,  // measure 26
0000
0000
0000
0000
,  // measure 27
0000
0000
0000
0000
,  // measure 28
0000
0000
0003
0000
,  // measure 29
0001
0010
0100
2000
,  // measure 30
3000
0100
0200
0300
,  // measure 31
0010
0000
0000
0001
,  // measure 32
1000
0001
0100
0000
,  // measure 33
0010
0010
0000
0100
,  // measure 34
0100
0000
0001
1000
,  // measure 35
0010
0010
0000
1000
,  // measure 36
1000
0000
1000
0100
,  // measure 37
0010
0010
0001
0010
,  // measure 38
0010
0100
0010
0010
,  // measure 39
0001
1000
0001
1000
,  // measure 40
0010
0000
0000
0000
,  // measure 41
1001
0000
0001
0100
,  // measure 42
0010
0000
1000
0100
,  // measure 43
0010
0000
0001
1000
,  // measure 44
0010
0000
1000
0010
,  // measure 45
0200
0300
0010
1000
,  // measure 46
0100
0000
1000
0001
,  // measure 47
0020
0030
0001
1000
,  // measure 48
0020
0030
0100
0100
,  // measure 49
0000
0001
0100
0010
,  // measure 50
0010
1000
0100
0010
,  // measure 51
0010
0001
1000
0010
,  // measure 52
0200
0000
0000
0300
,  // measure 53
0001
0000
0000
0000
,  // measure 54
1000
1000
0001
0001
,  // measure 55
0100
0010
1000
0010
,  // measure 56
0100
0001
1000
0000
,  // measure 57
0001
0010
0001
1000
,  // measure 58
0010
0100
0001
0000
,  // measure 59
0100
0100
0010
0010
,  // measure 60
1000
1000
0001
0000
,  // measure 61
1000
0100
0010
0001
,  // measure 62
0100
0000
0010
1001
;

//---------------dance-single - ----------------
#NOTEDATA:;
#CHARTNAME:;
#STEPSTYPE:dance-single;
#DESCRIPTION:;
#CHARTSTYLE:;
#DIFFICULTY:Beginner;
#METER:2;
#RADARVALUES:0.146997,0.209710,0.033554,0.000000,0.000000,92.000000,89.000000,3.000000,0.000000,0.000000,0.000000,0.000000,0.000000,0.000000,0.146997,0.209710,0.033554,0.000000,0.000000,92.000000,89.000000,3.000000,0.000000,0.000000,0.000000,0.000000,0.000000,0.000000;
#CREDIT:Ben Speirs;
#NOTES:
// measure 0
0000
0000
0000
0000
,  // measure 1
0000
0000
0000
0000
,  // measure 2
0000
0000
0000
0000
,  // measure 3
0000
0000
0000
0000
,  // measure 4
0000
0000
0000
0000
,  // measure 5
0000
0000
0000
0000
,  // measure 6
0000
0000
0000
0000
,  // measure 7
0000
0000
0000
0000
,  // measure 8
0000
0000
0000
0000
,  // measure 9
1000
0000
1000
0000
,  // measure 10
1000
0000
0000
0000
,  // measure 11
0010
0000
0000
0000
,  // measure 12
0010
0000
0000
0000
,  // measure 13
0100
0000
0100
0000
,  // measure 14
0100
0000
0000
0000
,  // measure 15
0001
0000
0000
0000
,  // measure 16
0001
0000
0000
0000
,  // measure 17
1000
1000
0000
1000
,  // measure 18
1000
0000
0000
0000
,  // measure 19
0001
0001
0000
0001
,  // measure 20
0001
0000
0000
0000
,  // measure 21
0100
0100
0000
0100
,  // measure 22
0100
0000
0000
0000
,  // measure 23
0010
0000
0010
0000
,  // measure 24
0010
0000
0000
0000
,  // measure 25
1001
0000
0000
0000
,  // measure 26
1000
0000
0000
0000
,  // measure 27
0010
0000
0000
0000
,  // measure 28
0100
0000
0000
0000
,  // measure 29
0001
0000
0000
0000
,  // measure 30
1000
0000
0000
0000
,  // measure 31
0100
0000
0000
0000
,  // measure 32
0100
0000
0000
0000
,  // measure 33
1000
1000
0000
1000
,  // measure 34
1000
0000
0000
0000
,  // measure 35
0010
0010
0000
0010
,  // measure 36
0010
0000
0000
0000
,  // measure 37
0100
0000
0100
0000
,  // measure 38
0100
0000
0000
0000
,  // measure 39
0001
0001
0001
0000
,  // measure 40
0001
0000
0000
0000
,  // measure 41
1001
0000
0000
1000
,  // measure 42
1000
0000
0000
0100
,  // measure 43
0100
0000
0000
1000
,  // measure 44
1000
0000
0000
0001
,  // measure 45
0001
0000
0000
0100
,  // measure 46
0100
0000
0000
0010
,  // measure 47
0010
0000
0000
0010
,  // measure 48
0010
0000
0000
0000
,  // measure 49
0000
0001
0001
0001
,  // measure 50
0001
0000
0001
0000
,  // measure 51
0001
0000
0001
0000
,  // measure 52
0001
0000
0000
0000
,  // measure 53
0000
1000
1000
1000
,  // measure 54
1000
0000
1000
0000
,  // measure 55
1000
0000
0000
0000
,  // measure 56
0010
0000
0000
0000
,  // measure 57
0100
0000
0100
0000
,  // measure 58
0100
0000
0000
0000
,  // measure 59
0001
0000
0001
0000
,  // measure 60
0001
0000
0000
0000
,  // measure 61
1000
1000
1000
0000
,  // measure 62
1000
0000
1001
0000
;
