#TITLE:Caramelldansen (Speedycake Mix);
#ARTIST:Caramell;
#FILE:Caramelldansen (Speedycake Mix).mp3;
#BPM:164.200;
#GAP:1500;
#SAMPLESTART:51.180;
#SAMPLELENGTH:16.180;
#SINGLE:BEGINNER:1:
00000000
00000000
00000000
00000000
80000000
00000000
20000000
60000000
B0000000
00000000
20000000
40000000
80000000
40000000
60000000
80000000
60000000
20000000
A0000000
40400000
40000000
80800000
80000000
20200000
20000000
60600000
60000000
80800000
80000000
20200000
20000000
40400000
40000000
00606060
60000000
40000000
80008000
80000000
40000000
60000000
80000000
20002000
20000000
40000000
80000000
40000000
60000000
40000000
20000000
80000000
B0000000
20200000
20000000
40400000
40000000
60600000
60000000
80800000
80000000
20000000
40000000
60000000
20002000
20000000
80008000
00404040
40000000
60000000
80008000
80008000
80000000
60000000
40000000
20202020
;
#SINGLE:ANOTHER:9:
00000000
00000000
00000000
00000000
80402020
40608060
40408080
20804060
B!B0000000
0000B0B0
20204240
80802620
60608680
60604240
80802820
60608280
40408280
60408420
40406060
40604060
20208080
20802080
428!8060A0
60802040
628!8040A0
80402040
84848020
64646020
68686040
28282040
8!8020A020
60408040
2!208080A0
00901030
80464080
2060A0A0
60424060
8020B0B0
80424080
20603030
80464020
8020B0B0
24242424
00800040
62626262
00800020
84848484
00600040
28282828
00000000
40406040
82840000
60604060
82860000
40602080
40208060
10602080
40626260
B0B02020
B0B08080
B0B02482
60402040
82846040
60428628
40802060
00A0B0A0
40242080
6020A0B0
60428060
4080A010
60428064
8260A030
40682048
2640A0B0
;
#SINGLE:MANIAC:13:
00000000
00000000
00000000
00000002
60402482!2
03208040
24248282
60208042
2!20800080
00A064B0
(8008008004006080)
(2002002004006040)
(2002002004006080)
(6006006004008020)
(6004002004008020)
(8004006008002040)
(2008006004008020)
(8004002000406000)
(2000800042406020)
(8000406860208040)
(6000200084802060)
(4000804240608020)
8!80942!2040
A0424826
4!40726!6080
30826400
A0402460
86482080
42468060
48684020
4!40726!6020
90262846
4!402080B0
00A03010
6!60B82!20A4
24601030
8!80764!4014
82603010
6!60B68!80A8
6480B0A0
4!40728042
10A06240
28282846
040602A0
48484826
40802060
86868626
04080410
82828246
(9000000000626000)
(7000200068604080)
(2000604240802060)
(4000800026208040)
(6000206860402080)
2!20168!8060
A0686284
6!60384!4020
72846460
A2668640
24628020
66448280
62426080
6!60384!4080
10848264
6!602080B0
00A07090
4!40B28!80A6
86469070
2!20346!6096
28421090
4!40B42!20A2
4626B0A0
6!60382068
90B0A070
10000000
;
#SINGLE:BASIC:5:
00000000
00000000
00000000
00000000
80000000
40000000
60006000
40004000
2!20000000
00002020
20004000
80004000
60604040
80802020
80004000
60004000
20204040
60608000
60408020
80402000
40204060
80204000
80406020
80206000
80604080
20804000
20204040
80804040
60608080
60604040
80804040
20208080
60604040
00B0B0B0
B0002000
40802060
40006000
80604080
40002000
40208060
20804060
8020A0A0
00400060
00208040
00600040
00200080
00600040
00804060
00200060
80000000
60600000
40400000
80800000
20200000
80400000
60200000
40200000
80600000
20802040
20602080
20602040
20608020
80402080
60408060
80208040
00B0B0B0
20004000
20408020
60004000
60802040
80004000
60408020
60802040
8020A0A0
;
