#VERSION:0.82;
#TITLE:Trap Queen;
#SUBTITLE:;
#ARTIST:Fetty Wap;
#TITLETRANSLIT:;
#SUBTITLETRANSLIT:;
#ARTISTTRANSLIT:;
#GENRE:Cookin Pies;
#ORIGIN:;
#CREDIT:;
#BANNER:Trap Queen.png;
#BACKGROUND:Trap Queen-bg.png;
#PREVIEWVID:;
#JACKET:jacket.png;
#CDIMAGE:;
#DISCIMAGE:;
#LYRICSPATH:;
#CDTITLE:;
#MUSIC:Trap Queen.ogg;
#OFFSET:-0.002000;
#SAMPLESTART:51.892254;
#SAMPLELENGTH:13.714000;
#SELECTABLE:YES;
#BPMS:0.000=74.000,
64.000=148.000,
128.000=74.000,
144.000=148.000;
#STOPS:238.000=0.203,
238.500=0.203;
#DELAYS:;
#WARPS:;
#TIMESIGNATURES:0.000=4=4;
#TICKCOUNTS:0.000=4;
#COMBOS:0.000=1;
#SPEEDS:0.000=1.000=0.000=0;
#SCROLLS:0.000=1.000;
#FAKES:;
#LABELS:0.000=Song Start;
#BGCHANGES:4.000=Trap Queen.avi=1.000=0=0=1=====,
99999=-nosongbg-=1.000=0=0=0 // don't automatically add -songbackground-
;
#KEYSOUNDS:;
#ATTACKS:
;

//---------------dance-single - ----------------
#NOTEDATA:;
#CHARTNAME:;
#STEPSTYPE:dance-single;
#DESCRIPTION:;
#CHARTSTYLE:;
#DIFFICULTY:Hard;
#METER:8;
#RADARVALUES:0.443454,0.496013,0.233877,0.092133,0.124026,392.000000,33.000000,13.000000,0.000000,0.000000,0.000000,0.000000,0.000000,0.443454,0.496013,0.233877,0.092133,0.124026,392.000000,33.000000,13.000000,0.000000,0.000000,0.000000,0.000000,0.000000;
#CREDIT:Ben Speirs;
#NOTES:
0000
0000
0000
0000
,
0000
0000
0000
0000
,
0000
0000
0000
0000
,
0000
0000
0000
0000
,
0001
0000
0000
0010
0000
0000
0001
0000
0000
0000
0100
0000
0000
0100
0000
0000
,
0010
0000
0000
1000
0000
0000
0100
0000
0000
0000
1000
0000
0000
1000
0000
0000
,
0010
0000
0000
1000
0000
0000
0001
0000
0000
0000
0100
0000
0000
0100
0000
0000
,
0010
0000
0000
1000
0000
0000
0001
0000
0000
0000
0010
0000
0000
0010
0000
0000
,
0100
0000
0000
1000
0100
0000
1000
0000
0001
0000
0100
0000
0010
1000
0010
0000
,
0100
0000
0000
0001
0100
0000
0010
0000
1000
0000
0001
0000
0010
0001
0010
0000
,
0001
0000
0000
1000
0001
0000
0100
0000
0010
0000
1000
0000
0001
1000
0001
0000
,
1000
0000
0000
0100
1000
0000
0010
0000
0100
0000
0001
0000
0010
0100
0010
0000
,
0001
0000
0000
1000
0100
0000
1000
0000
0000
0000
2100
0000
0000
3001
0000
0000
,
0101
0000
0000
0100
0001
0000
1000
0000
0000
0000
1020
0000
0000
0130
0000
0000
,
1001
0000
0000
1000
0100
0000
0010
0000
0000
0000
0012
0000
0000
1003
0000
0000
,
0110
0000
0000
1000
0010
0000
0100
0000
0001
0000
1000
0100
0010
0001
1000
0000
,
0101
0000
1000
0000
0001
0100
0010
1000
,
0100
0000
0010
0001
1000
0001
1000
0001
,
0100
0100
0010
0100
0001
0010
0100
1000
,
0001
0000
1000
0010
0100
0010
2000
0000
,
3002
0000
0013
0000
0001
0100
0010
1000
,
0001
0000
0010
0100
1000
0100
1000
0100
,
0010
0010
0001
1000
0010
0010
0100
0001
,
1000
0000
0001
0100
0010
0100
0001
0000
,
1010
0000
0001
0000
1000
0010
0100
0001
,
0010
0000
0100
1000
0001
1000
0001
1000
,
0010
0010
0100
0010
1000
0100
0010
0001
,
1000
0000
0001
0100
0010
0100
0002
0000
,
2003
0000
3100
0000
1000
0010
0100
0001
,
1000
0000
0100
0010
0001
0010
0001
0010
,
0100
0100
1000
0001
0100
0100
0010
1000
,
0001
0000
1000
0010
0100
0010
2000
0000
,
3001
0000
0000
0010
0000
0000
0000
0000
0001
0000
1000
0000
0010
0100
0010
0100
,
0001
0000
0000
1000
0000
0000
0000
0000
0100
0000
1000
0000
0010
0100
0002
0000
,
1003
0000
0000
0100
0000
0000
0000
0000
1000
0000
0010
0000
0100
0001
0100
0001
,
1000
0000
0000
0001
0000
0000
0010
0000
0000
0000
0100
0000
0010
0001
1000
0000
,
1010
0000
0000
0001
0000
0000
0100
0010
,
0100
0001
0010
0100
1000
0001
0100
0000
,
0101
0000
0000
1000
0000
0000
0010
1000
,
0100
0010
0001
0010
0100
1000
0001
0000
,
1001
0000
0000
0010
0000
0000
0100
0001
,
0100
0010
1000
0100
0010
0001
1000
0000
,
1010
0000
0000
0001
0000
0000
0010
0001
,
1000
0010
0100
0001
1000
0100
0010
0000
,
1001
0000
0101
0000
0010
0001
0100
0000
,
1001
0000
0100
0001
0010
0100
1000
0000
,
1100
0000
1001
0000
0010
1000
0100
0000
,
1001
0000
1000
0010
0100
0001
1000
0000
,
0101
0000
1000
0100
1000
0001
0010
0001
,
1000
0001
0100
0010
1000
0100
0010
0000
,
1001
0000
0001
0010
0001
1000
0100
1000
,
0001
1000
0010
0100
0001
0010
0100
0000
,
2001
0000
0001
0100
3010
0010
0100
0001
,
0010
0010
0001
1000
0010
0100
0001
0000
,
1002
0000
1000
0010
0103
0100
0010
1000
,
0100
0100
1000
0001
0100
0010
1000
0000
,
0101
0000
1000
1100
0000
0001
1000
0100
,
0010
0001
0011
0000
1000
1010
0000
0001
,
1001
0000
0100
0101
0000
0001
1001
0000
,
1000
0100
1000
0001
0101
1100
0011
0000
,
0001
0010
0100
1000
0002
0000
1003
0000
,
0010
1000
0100
0010
0001
0000
1001
0000
,
1000
0010
0100
0001
2000
0000
3001
0000
,
0001
0010
1000
0100
0001
1000
0000
0000
;

//---------------dance-single - ----------------
#NOTEDATA:;
#CHARTNAME:;
#STEPSTYPE:dance-single;
#DESCRIPTION:;
#CHARTSTYLE:;
#DIFFICULTY:Medium;
#METER:6;
#RADARVALUES:0.312848,0.359320,0.113395,0.198441,0.024805,265.000000,16.000000,28.000000,0.000000,0.000000,0.000000,0.000000,0.000000,0.312848,0.359320,0.113395,0.198441,0.024805,265.000000,16.000000,28.000000,0.000000,0.000000,0.000000,0.000000,0.000000;
#CREDIT:Ben Speirs;
#NOTES:
0000
0000
0000
0000
,
0000
0000
0000
0000
,
0000
0000
0000
0000
,
0000
0000
0000
0000
,
1000
0000
0001
0000
0100
0010
1000
0000
,
0001
0000
1000
0000
0100
0010
0001
0000
,
0100
0000
0010
0000
0100
0001
1000
0000
,
0010
0000
1000
0000
0100
0010
0001
0000
,
1000
0000
0000
1000
0000
0000
1000
0000
0000
0000
0010
0000
1000
0000
0001
0000
,
0010
0000
0000
0010
0000
0000
0010
0000
0000
0000
0001
0000
0100
0000
0001
0000
,
1000
0000
0000
1000
0000
0000
1000
0000
0000
0000
0100
0000
1000
0000
0010
0000
,
0100
0000
0000
0100
0000
0000
0100
0000
0000
0000
0001
0000
0100
0000
0010
0000
,
1000
0000
0100
0010
0001
1000
0010
0000
,
0100
0000
0010
0100
0001
0010
0100
0000
,
1000
0000
0010
1000
0001
0100
0010
0000
,
0100
0000
0001
0010
0100
2002
0000
3003
,
0010
0000
1000
0001
,
0010
0000
0010
0000
0001
1000
0001
0000
,
0100
0010
0010
1000
,
0001
0000
1000
0000
0100
0010
0002
0000
,
1003
0000
0010
1000
,
0001
0000
0010
0000
0001
1000
0001
0000
,
0100
0000
0010
0000
0100
0001
0100
0000
,
0010
0000
1000
0100
0020
0000
0031
0000
,
1001
0000
0001
1000
,
0100
0000
0100
0000
1000
0001
1000
0000
,
0010
0100
0100
0001
,
1000
0000
0001
0000
0010
0100
2000
0000
,
3001
0000
0100
0001
,
1000
0000
0100
0000
1000
0001
1000
0000
,
0010
0000
0100
0000
0010
1000
0010
0000
,
0100
0000
0001
0010
0200
0000
1300
0000
,
0002
0000
0000
0000
0203
0000
0000
0000
0000
0000
0010
0000
0000
0010
0000
0000
,
0320
0000
0000
0000
2030
0000
0000
0000
0000
0000
0100
0000
0000
0100
0000
0000
,
3200
0000
0000
0000
0320
0000
0000
0000
0000
0000
0001
0000
0000
0001
0000
0000
,
0032
0000
2003
0000
0000
0010
3010
0000
,
0101
0000
1000
0001
,
0010
0000
0010
0000
0001
1000
0001
0000
,
0100
0000
0010
0100
,
0001
0000
0001
0000
1000
0100
1000
0000
,
0001
0000
1000
0001
,
0100
0000
0100
0000
0010
1000
0010
0000
,
0100
0000
0001
1000
,
0100
0000
0100
0000
1000
0001
1000
0000
,
0020
0000
0000
0000
0130
0001
1000
0000
,
0001
1100
0110
0011
,
2000
0000
0000
0000
3010
1000
0001
0000
,
0100
0101
0110
1010
,
0002
0000
0000
0000
0013
0100
1000
0000
,
0001
0101
0110
1001
,
0020
0000
0000
0000
0130
0010
0001
0000
,
1000
0000
0001
0000
0100
0010
1000
0000
,
0002
0103
2000
3100
,
0001
0000
1000
0000
0010
0100
0001
0000
,
2000
3010
0002
0013
,
0001
0000
1000
0000
0010
0100
0001
0000
,
1100
0000
0001
0000
1000
0010
0100
0000
,
0001
0000
1000
0000
0100
0010
0001
0000
,
0011
0000
1000
0000
0001
0100
0010
0000
,
1000
0000
0001
0000
1001
1001
0020
0000
,
0000
2030
0000
0000
3200
0000
0000
0000
,
0010
0000
0000
0010
0000
0000
0320
0000
,
0000
0032
0000
0000
2003
0000
0000
0000
,
0010
0000
0000
3010
0000
0000
0000
0000
;

//---------------dance-single - ----------------
#NOTEDATA:;
#CHARTNAME:;
#STEPSTYPE:dance-single;
#DESCRIPTION:;
#CHARTSTYLE:;
#DIFFICULTY:Easy;
#METER:3;
#RADARVALUES:0.185279,0.225018,0.042523,0.085046,0.000000,165.000000,6.000000,12.000000,0.000000,0.000000,0.000000,0.000000,0.000000,0.185279,0.225018,0.042523,0.085046,0.000000,165.000000,6.000000,12.000000,0.000000,0.000000,0.000000,0.000000,0.000000;
#CREDIT:Ben Speirs;
#NOTES:
0000
0000
0000
0000
,
0000
0000
0000
0000
,
0000
0000
0000
0000
,
0000
0000
0000
0000
,
0100
0001
1000
1000
,
0010
1000
0100
0100
,
0010
0001
1000
1000
,
0010
0100
0001
0001
,
2000
3000
0100
1000
,
0020
0030
0100
0001
,
0020
0030
0001
1000
,
0200
0300
1000
0001
,
1001
0000
0000
0000
0100
0100
0100
0000
,
0010
0000
0000
0000
1000
1000
1000
0000
,
0100
0000
0000
0000
0010
0010
0010
0000
,
0001
0000
0000
0000
1000
1000
0000
0000
,
1001
0000
0010
0000
,
1000
0100
0010
0000
,
0001
1000
0001
1000
,
0010
0000
0010
0000
,
0100
0000
0001
0000
,
0010
0100
1000
0000
,
0001
1000
0001
1000
,
0001
0000
0100
0000
,
1001
0000
0010
0000
,
0100
0010
1000
0000
,
0001
1000
0001
1000
,
0001
0000
0100
0100
,
0010
0000
1000
0000
,
0100
0010
0001
0000
,
1000
0001
1000
0001
,
0010
0000
0100
0100
,
2000
0000
0000
3000
0200
0000
0000
0300
,
0020
0000
0000
0030
0002
0000
0000
0003
,
0200
0000
0000
0300
0020
0000
0000
0030
,
2000
0000
0000
3000
0002
0000
0000
0003
,
1001
0000
0000
0000
,
0100
0100
0010
0010
,
1000
0000
0000
0000
,
0100
0100
0010
0010
,
0001
0000
0000
0000
,
0100
0100
0001
0001
,
1000
0000
0000
0000
,
0010
0010
1000
1000
,
0100
0000
1000
0000
,
0010
0010
0010
0000
,
0100
0000
0001
0000
,
1000
0100
0010
0001
,
1000
0000
0010
0000
,
0100
0100
0100
0000
,
0001
0000
1000
0000
,
0001
0010
0100
1000
,
0010
0000
0100
0000
,
0001
0001
0001
0000
,
0100
0000
0010
0000
,
1000
1000
1000
0000
,
0100
0000
0000
0100
0000
0000
0000
0000
,
0010
0000
0001
0000
,
1000
0000
0000
1000
0000
0000
0000
0000
,
0010
0000
1001
1001
,
0000
0000
0000
0010
,
0010
0000
0000
1000
,
0000
0000
0000
0001
,
0001
0001
1000
0000
;

//---------------dance-single - ----------------
#NOTEDATA:;
#CHARTNAME:;
#STEPSTYPE:dance-single;
#DESCRIPTION:;
#CHARTSTYLE:;
#DIFFICULTY:Beginner;
#METER:2;
#RADARVALUES:0.101245,0.180014,0.042523,0.000000,0.000000,94.000000,6.000000,0.000000,0.000000,0.000000,0.000000,0.000000,0.000000,0.101245,0.180014,0.042523,0.000000,0.000000,94.000000,6.000000,0.000000,0.000000,0.000000,0.000000,0.000000,0.000000;
#CREDIT:Ben Speirs;
#NOTES:
0000
0000
0000
0000
,
0000
0000
0000
0000
,
0000
0000
0000
0000
,
0000
0000
0000
0000
,
0100
0000
0000
0000
,
0001
0000
0000
0000
,
1000
0000
0000
0000
,
0100
0000
0000
0000
,
0010
0000
0001
0000
,
1000
0000
0010
0000
,
0100
0000
0001
0000
,
1000
0000
0100
0000
,
0010
0000
0001
0001
,
0001
0000
1000
1000
,
1000
0000
0010
0010
,
0010
0000
1001
0000
,
1001
0000
0000
0000
,
0100
0000
0000
0000
,
0010
0010
0010
0000
,
0010
0000
1000
0000
,
0001
0000
0000
0000
,
1000
0000
0000
0000
,
0100
0100
0100
0000
,
0100
0000
0010
0000
,
1001
0000
0000
0000
,
1000
0000
0000
0000
,
0001
0001
0001
0000
,
0001
0000
1000
0000
,
0010
0000
0000
0000
,
0100
0000
0000
0000
,
0010
0010
0010
0000
,
0010
0000
1000
0000
,
0001
0000
0000
0000
,
1000
0000
0000
0000
,
0100
0000
0000
0000
,
0010
0000
0010
0000
,
1001
0000
0000
0000
,
0100
0000
0000
0000
,
0001
0000
0000
0000
,
1000
0000
0000
0000
,
0010
0000
0000
0000
,
1000
0000
0000
0000
,
0001
0000
0000
0000
,
0010
0000
0000
0000
,
1001
0000
0000
0000
,
0100
0100
0000
0000
,
0010
0000
0000
0000
,
1000
1000
0000
0000
,
0001
0000
0000
0000
,
0010
0010
0000
0000
,
0100
0000
0000
0000
,
1000
0000
0001
0000
,
0100
0000
0000
0000
,
0010
0000
0010
0000
,
1000
0000
0000
0000
,
0100
0000
0100
0000
,
0010
0000
0000
0000
,
0001
0000
0001
0000
,
1000
0000
0000
0000
,
0010
0000
0010
0000
,
0000
0000
0000
1000
,
1000
0000
0000
0001
,
0000
0000
0000
0010
,
0010
0000
1001
0000
;

//---------------dance-single - ----------------
#NOTEDATA:;
#CHARTNAME:;
#STEPSTYPE:dance-single;
#DESCRIPTION:;
#CHARTSTYLE:;
#DIFFICULTY:Challenge;
#METER:9;
#RADARVALUES:0.653032,0.766566,0.148831,0.127569,0.513820,606.000000,21.000000,18.000000,0.000000,0.000000,0.000000,0.000000,0.000000,0.653032,0.766566,0.148831,0.127569,0.513820,606.000000,21.000000,18.000000,0.000000,0.000000,0.000000,0.000000,0.000000;
#CREDIT:Ben Speirs;
#NOTES:
0000
0000
0000
0000
,
0000
0000
0000
0000
,
0000
0000
0000
0000
,
0000
0000
0000
0000
0000
0000
0000
0000
0000
0000
0001
0100
0001
1000
0100
1000
,
1010
0000
0001
1000
0010
0010
0100
0001
1000
1000
0100
0010
0001
1000
0010
0000
,
1001
0000
0100
0001
1000
1000
0100
0010
0001
0001
0010
0100
1000
0001
0100
0010
,
1000
0000
0001
1000
0001
0100
0010
1000
0100
0100
1000
1000
0010
1000
0100
0010
,
0001
0000
0100
0001
0010
0010
0001
1000
0010
0100
0001
1000
0010
0010
1000
0100
,
1100
0000
0000
1001
0001
0100
0020
0000
2030
0000
3001
0010
0100
1000
0001
1000
,
0020
0000
0130
0100
0001
0100
0010
1000
0100
0100
0010
0001
0010
0100
1000
0001
,
0011
0000
0000
1001
1000
0010
0200
0000
0302
0000
1003
0100
0010
0001
1000
0001
,
0200
0000
0310
0010
1000
0010
0100
0001
0010
0010
0100
1000
0100
0010
0001
1000
,
0010
0000
0101
0000
1000
1000
0010
1000
0100
0010
0001
1000
0100
1000
0001
0000
,
0100
0000
1010
0000
0001
1000
0010
0010
0100
0100
0001
0010
0100
1000
0001
0000
,
1000
0000
0011
0000
1000
0100
1000
0001
0010
0010
0001
1000
0010
0100
0001
0000
,
1000
0000
0000
0000
0101
0000
0000
0000
1000
0000
0010
0000
0100
0000
0001
0000
1000
0000
0010
0000
0010
0000
1000
0000
0100
0000
0010
0000
0001
1000
0001
0000
,
0100
0010
1000
0100
0010
0001
1000
0010
,
0100
0000
0100
0000
0001
0000
1000
0000
0010
1000
0001
0000
0010
0000
0001
0000
,
1000
0000
1000
0000
0100
0000
1000
0001
1000
0000
0010
0000
0100
0000
0001
0000
,
1000
0000
1000
0000
0010
0000
0100
0010
1000
0000
0100
0000
0020
0000
0000
0000
,
0032
0000
1003
0100
1000
0001
0100
0010
,
1000
0000
0001
0000
0100
0000
0001
1000
0001
0000
0100
0000
0010
0000
1000
0000
,
0100
0000
0100
0000
0010
0000
0001
1000
0001
0000
0100
0000
0010
0000
1000
0000
,
0100
0000
0010
0000
0001
0000
1000
0010
1000
0001
0100
0001
0100
0010
1000
0001
,
0100
0000
0010
0000
1000
0000
0100
0000
0010
0001
0010
0000
0100
0000
1000
0000
,
0001
0100
0001
0000
1000
0100
1000
0000
0001
0010
0100
0000
1000
0000
0001
0000
,
0100
0000
0100
0010
1000
0000
0100
0000
0100
0010
0001
0000
1000
0000
0010
0100
,
0010
0000
1000
0000
0100
0000
0010
0000
0001
0010
0100
1000
0002
0000
0000
0000
,
0103
0000
0010
0000
0100
0000
0001
0000
1000
0100
1000
0000
0001
0000
0100
0000
,
0010
0000
1000
0000
0100
0000
0100
0000
0010
0001
0010
0000
0100
0000
1000
0000
,
0001
0000
0001
1000
0100
0000
0100
0010
0001
0000
0100
0000
0010
0100
0010
0000
,
1000
0000
0001
0000
0100
0000
0010
1000
0010
1000
0010
1000
0100
0010
0001
1000
,
0010
0000
0100
0010
0000
1000
0020
0000
0000
0000
0100
0000
0130
0000
0000
0000
,
0100
0000
0010
0100
0000
1000
0200
0000
0000
0000
0010
0000
0310
0100
0002
0000
,
0023
0000
0230
0000
1300
0000
0001
0000
1000
0000
0100
0010
0100
0010
0000
0000
,
0001
0010
0001
0010
0100
1000
0100
1000
0020
0000
0130
0000
0001
0100
0010
1000
,
1001
0000
1000
0100
1000
1000
0001
0010
,
0100
0100
0010
0001
0100
0100
0010
1000
,
1002
0000
0103
0010
0100
0100
0001
0010
,
0100
0100
1000
1000
0100
0010
0001
1000
,
0020
0000
0130
0010
1000
0010
0100
0001
,
1000
1000
0001
0001
0010
0001
1000
0100
,
0020
0000
0000
0000
0031
0000
1000
0001
1000
0000
0010
0000
0100
0000
0001
0000
,
1000
1000
0010
0100
0001
0001
1000
0000
,
1001
0000
1000
0000
0100
0000
0010
0000
0001
0000
0100
0000
0010
0100
0010
0000
,
1000
0000
0001
0000
0100
0000
0010
0000
1000
0100
1000
0100
0010
0000
0000
0000
,
0001
0000
0010
0000
0100
0000
1000
0000
0001
0000
0100
0000
0001
1000
0001
0000
,
0100
0000
0010
0000
1000
0000
0001
0000
0010
0001
0010
0001
1000
0000
0000
0000
,
0001
0000
0100
0000
0010
0000
1000
0000
0001
1000
0001
0000
0100
0000
0010
0000
,
1000
0000
0001
0000
0010
0000
0100
0000
1000
0100
1000
0100
0010
0000
0000
0000
,
0001
0000
0010
0000
0100
0000
1000
0000
0001
1000
0001
0000
0100
0000
0010
0000
,
1000
0000
0001
0000
1000
0000
0010
0000
0100
0010
0100
0010
0100
0000
0000
0000
,
0101
0100
0010
1000
0100
0100
0110
0010
,
0001
0000
1000
0000
0010
0000
0010
0000
1000
0100
1000
0000
0010
0000
0100
0000
,
0101
0100
0010
1000
0001
0010
0011
0010
,
0001
0000
1000
0000
0100
0000
0010
0000
0001
1000
0001
0000
0100
0000
0010
0000
,
1000
0100
1000
0000
0010
0000
0100
0001
0100
0000
0010
0000
1000
0000
0100
0000
,
0010
0000
0001
0000
1000
0100
1000
0000
0001
0000
0100
0010
0100
0000
0001
0000
,
1000
0010
1000
0000
0001
0000
0010
0001
0010
0000
0001
0000
1000
0000
0010
0000
,
0100
0001
0100
0000
0010
0000
1000
0000
1010
0000
1001
0000
0001
0000
0100
0000
,
0010
0000
1000
0100
0010
0000
0010
0000
0001
0000
1000
0100
1000
0000
0001
0000
,
0100
0000
0010
0000
0010
0000
0100
0000
0001
0000
0010
0001
1000
0000
1000
0000
,
0001
0000
0100
0010
0100
0000
0001
0000
1000
0000
1000
0100
0010
0000
0001
0000
,
0100
0010
0010
0100
0101
1001
0000
0000
;

//---------------dance-double - ----------------
#NOTEDATA:;
#CHARTNAME:;
#STEPSTYPE:dance-double;
#DESCRIPTION:;
#CHARTSTYLE:;
#DIFFICULTY:Challenge;
#METER:9;
#RADARVALUES:0.627721,0.766566,0.092133,0.411056,0.411056,549.000000,13.000000,58.000000,0.000000,0.000000,0.000000,0.000000,0.000000,0.627721,0.766566,0.092133,0.411056,0.411056,549.000000,13.000000,58.000000,0.000000,0.000000,0.000000,0.000000,0.000000;
#CREDIT:Ben Speirs;
#NOTES:
// measure 0
00000000
00000000
00000000
00000000
,  // measure 1
00000000
00000000
00000000
00000000
,  // measure 2
00000000
00000000
00000000
00000000
,  // measure 3
00000000
00000000
00000000
00000000
00000000
00000000
00000000
00000000
00000000
00000000
00001000
00010000
00001000
00001000
00010000
00001000
,  // measure 4
00200000
00000000
00000000
00000000
00310000
00100000
01000000
10000000
00200000
00000000
10300000
01000000
10000000
00010000
02000000
00000000
,  // measure 5
03200000
00000000
10300000
00000000
00010000
10000000
00010000
10000000
00200000
00000000
01300000
00010000
10000000
01000000
00100000
00010000
,  // measure 6
02000000
00000000
00000000
00000000
03010000
00100000
00010000
00100000
00001000
00001000
00100000
00001000
00010000
00000100
00001000
00001000
,  // measure 7
00000020
00000000
00000130
00000010
00001000
00001000
00000100
00000010
00000001
00000001
00001000
00001000
00000010
00000100
00000001
00000000
,  // measure 8
00002001
00000000
00000000
00000000
00003100
00010000
00002000
00000000
00203000
00000000
00301000
00010000
00100000
10000000
02000000
00000000
,  // measure 9
03100000
00000000
00020000
00000000
00130000
01000000
00100000
00010000
10000000
10000000
00100000
10000000
01000000
00100000
00020000
00000000
,  // measure 10
02030000
00000000
00000000
00000000
03010000
00100000
00010000
00100000
00002000
00000000
00103000
00010000
10000000
00100000
02000000
00000000
,  // measure 11
03020000
00000000
01030000
00100000
01000000
00010000
00100000
00100000
00010000
00100000
00001000
00010000
00000100
00000100
00001000
00000010
,  // measure 12
00000200
00000000
00000301
00000100
00000010
00000010
00001000
00001000
00000100
00010000
00001000
00001000
00010000
00000100
00000020
00000000
,  // measure 13
00000032
00000000
00000103
00000000
00000010
00000100
00000002
00000000
00002003
00000000
00003100
00010000
00001000
00100000
00010000
10000000
,  // measure 14
00200000
00000000
01300000
00010000
10000000
10000000
01000000
01000000
10000000
00100000
01000000
00010000
00100000
00100000
00010000
01000000
,  // measure 15
00002000
00000000
00103000
00010000
00100000
00001000
00010000
00000100
00001000
00001000
00000010
00000100
00000001
00000000
00001001
00000000
,  // measure 16
00001000
00000100
00000010
00000001
00000100
00000100
00000010
00001000
,  // measure 17
00000100
00000000
00010000
00000000
00001000
00000000
00100000
00000000
00010000
00100000
00010000
00000000
10000000
00000000
00100000
00000000
,  // measure 18
01000000
00000000
01000000
00010000
01000000
00000000
00100000
00000000
10000000
01000000
10000000
00000000
00010000
00000000
00100000
01000000
,  // measure 19
00200000
00000000
00310000
00100000
01000000
10000000
10020000
00000000
,  // measure 20
01030000
00000000
00100000
00000000
01000000
00000000
00010000
00000000
00100000
00001000
00100000
00000000
00010000
00000000
10000000
00000000
,  // measure 21
00100000
00000000
01000000
00010000
01000000
00000000
00100000
00000000
10000000
01000000
10000000
00000000
00010000
00000000
00100000
00000000
,  // measure 22
00001000
00000000
00001000
00010000
00000100
00000000
00001000
00000000
00000010
00000000
00000010
00000100
00000001
00000000
00001000
00000000
,  // measure 23
00000100
00000000
00000010
00000000
00000001
00000000
00001000
00000010
00001000
00000010
00001000
00000010
00001000
00000100
00000010
00000001
,  // measure 24
00000200
00000000
00000000
00000000
00000310
00000000
00000100
00000000
00000001
00000000
00001000
00000000
00000100
00000000
00000010
00000001
,  // measure 25
00000010
00000000
00000001
00000000
00001000
00000000
00000100
00000000
00010000
00001000
00010000
00000000
00000100
00000000
00001000
00000000
,  // measure 26
00000010
00000000
00000010
00000100
00000001
00000000
00001000
00000000
00001000
00000100
00010000
00000000
00001000
00000000
00100000
00000000
,  // measure 27
00002000
00000000
00013000
00100000
10000000
01000000
21000000
00000000
,  // measure 28
30010000
00000000
01000000
00000000
00100000
00000000
10000000
00010000
10000000
00000000
00100000
00000000
01000000
00010000
01000000
00000000
,  // measure 29
00100000
00000000
10000000
00000000
01000000
00000000
00100000
00000000
00010000
10000000
00010000
10000000
00100000
00000000
01000000
00000000
,  // measure 30
00010000
00000000
10000000
01000000
10000000
00000000
00010000
00000000
01000000
00100000
01000000
00000000
00010000
00000000
00100000
00000000
,  // measure 31
00002000
00000000
00000000
00000000
00013000
00000000
00000100
00001000
00000100
00001000
00000100
00001000
00000010
00000100
00000001
00001000
,  // measure 32
00000020
00000000
00000000
00000230
00000000
00000000
00000302
00000000
00000000
00000000
00000100
00000000
00000000
00001003
00000000
00000000
,  // measure 33
00002000
00000000
00000000
00000100
00000000
00000000
00003020
00000000
00000000
00000000
00001000
00000000
00000000
00020030
00000000
00000000
,  // measure 34
00032000
00000000
00000000
00203000
00000000
00000000
00320000
00000000
00000000
00000000
01000000
00000000
00000000
10000000
00000000
00000000
,  // measure 35
20030000
00000000
00000000
00100000
00000000
00000000
30020000
00000000
00000000
00000000
01000000
00000000
01030000
00000000
00000000
00000000
,  // measure 36
20020000
00000000
30030000
00000000
10000000
10000000
01000000
10000000
,  // measure 37
00200000
00000000
01300000
00010000
10000000
01000000
00100000
00010000
,  // measure 38
20000000
00000000
30100000
01000000
00010000
00010000
00100000
00001000
,  // measure 39
00010000
00010000
00001000
00010000
00000100
00001000
00000010
00000100
,  // measure 40
00000002
00000000
00000103
00000010
00001000
00001000
00000100
00000010
,  // measure 41
00000001
00000001
00000010
00000100
00001000
00000100
00010000
00000100
,  // measure 42
00002000
00000000
00003010
00000100
00000001
00001000
00000010
00000100
,  // measure 43
00000010
00000010
00001000
00001000
00000100
00010000
00001000
00100000
,  // measure 44
00110000
00000000
00010000
10000000
00100000
00100000
02000000
00000000
,  // measure 45
03020000
00000000
00130000
00001000
00010000
00100000
20000000
00000000
,  // measure 46
32000000
00000000
13000000
00100000
01000000
01000000
00010000
10000000
,  // measure 47
00100000
00100000
01000000
00010000
00100000
00001000
00010000
00000100
,  // measure 48
00000020
00000000
00000031
00001000
00000010
00000010
00000100
00000100
,  // measure 49
00000002
00000000
00000103
00000010
00001000
00000100
00020000
00000000
,  // measure 50
00030200
00000000
00001300
00000010
00000100
00001000
00000100
00000010
,  // measure 51
00001000
00000100
00010000
00001000
00100000
00100000
00010000
10000000
,  // measure 52
10100000
00100000
01000000
00010000
10000000
01000000
01200000
00000000
,  // measure 53
00310000
00000000
00100000
00000000
01000000
00000000
10000000
00000000
00100000
10000000
00100000
00000000
10000000
00000000
00010000
00000000
,  // measure 54
01010000
01000000
00100000
10000000
00010000
00100000
10020000
00000000
,  // measure 55
01030000
00000000
00100000
00000000
10000000
00000000
01000000
00000000
00100000
00010000
00100000
00000000
00001000
00000000
00010000
00000000
,  // measure 56
00001000
00010000
00000100
00000000
00010000
00000000
00001000
00100000
00010000
00000000
00100000
00000000
00001000
00010000
00000100
00000000
,  // measure 57
00001000
00000000
00000010
00000000
00000100
00000001
00000100
00000000
00000010
00000000
00001000
00000000
00000100
00000000
00010000
00000000
,  // measure 58
00001000
00100000
00010000
00000000
00100000
00000000
00001000
00010000
00000100
00000000
00010000
00000000
00001000
00100000
00010000
00000000
,  // measure 59
10000000
00100000
01000000
00010000
01010000
10010000
10000000
00100000
,  // measure 60
01000000
00000000
00010000
10000000
01000000
00000000
01000000
00000000
00100000
00000000
00010000
10000000
00100000
00000000
00100000
00000000
,  // measure 61
01000000
00000000
00010000
00000000
00010000
00000000
00100000
00000000
00001000
00000000
00010000
00000100
00002000
00000000
00000000
00000000
,  // measure 62
00003010
00000000
00000100
00000001
00000100
00000000
00000010
00000000
00001000
00000000
00000001
00001000
00000010
00000000
00000010
00000000
,  // measure 63
00000100
00000000
00000001
00001000
00000100
00000000
00010000
00000000
00001000
00000000
00101000
00000000
00000000
00000000
00000000
00000000
;
