#VERSION:0.82;
#TITLE:Hot n Cold;
#SUBTITLE:;
#ARTIST:Katy Perry;
#TITLETRANSLIT:;
#SUBTITLETRANSLIT:;
#ARTISTTRANSLIT:;
#GENRE:Opposites Attract;
#ORIGIN:;
#CREDIT:;
#BANNER:Hot N Cold.png;
#BACKGROUND:Hot N Cold-bg.png;
#PREVIEWVID:;
#JACKET:jacket.png;
#CDIMAGE:;
#DISCIMAGE:;
#LYRICSPATH:;
#CDTITLE:cdtitle.png;
#MUSIC:Hot N Cold.ogg;
#OFFSET:0.008000;
#SAMPLESTART:86.981232;
#SAMPLELENGTH:14.339993;
#SELECTABLE:YES;
#DISPLAYBPM:132.000000;
#BPMS:0.000=132.000,
172.000=33.000,
177.000=132.000;
#STOPS:;
#DELAYS:;
#WARPS:;
#TIMESIGNATURES:0.000=4=4;
#TICKCOUNTS:0.000=4;
#COMBOS:0.000=1;
#SPEEDS:0.000=1.000=0.000=0;
#SCROLLS:0.000=1.000;
#FAKES:;
#LABELS:0.000=Song Start;
#BGCHANGES:4.000=Hot N Cold.avi=1.000=0=0=1=====,
99999=-nosongbg-=1.000=0=0=0 // don't automatically add -songbackground-
;
#KEYSOUNDS:;
#ATTACKS:
;

//---------------dance-single - ----------------
#NOTEDATA:;
#CHARTNAME:;
#STEPSTYPE:dance-single;
#DESCRIPTION:;
#CHARTSTYLE:;
#DIFFICULTY:Hard;
#METER:7;
#RADARVALUES:0.491270,0.502892,0.288423,0.325400,0.000000,382.000000,39.000000,44.000000,0.000000,0.000000,0.000000,0.000000,0.000000,0.491270,0.502892,0.288423,0.325400,0.000000,382.000000,39.000000,44.000000,0.000000,0.000000,0.000000,0.000000,0.000000;
#CREDIT:Ben Speirs;
#DISPLAYBPM:132.000000;
#NOTES:
// measure 0
0000
0000
0000
0000
,  // measure 1
0000
0000
0000
0000
,  // measure 2
0001
0000
0101
0000
0000
0000
0100
0010
,  // measure 3
1000
0000
1100
0000
0000
0000
0100
1000
,  // measure 4
0001
0000
1001
0000
0000
0000
0010
0001
,  // measure 5
1000
0000
1001
0000
0000
0000
0100
1000
,  // measure 6
0020
0000
0130
0000
0000
0001
0100
0001
,  // measure 7
2000
0000
3001
0000
0000
1000
0100
1000
,  // measure 8
0002
0000
1003
0000
0000
0001
0010
0100
,  // measure 9
2000
0000
3001
0000
1000
0010
0200
0000
,  // measure 10
0301
0000
1010
0000
0001
0010
0001
0000
,  // measure 11
1000
0000
0011
0000
1000
0100
1000
0000
,  // measure 12
0010
0000
1001
0000
0100
0010
0100
0000
,  // measure 13
0001
0000
0101
0000
1000
0100
1000
0000
,  // measure 14
0012
0000
1003
0000
0010
0000
0100
0001
,  // measure 15
1000
0000
0100
1000
0001
0000
0010
0001
,  // measure 16
2000
0000
0100
0000
0010
0000
0001
0001
,  // measure 17
3002
0100
1003
1001
,  // measure 18
1000
0010
0110
0000
0101
0000
0010
1000
,  // measure 19
1000
0001
0100
0000
1010
0000
0001
0010
,  // measure 20
0000
0010
0100
1000
0001
0000
1000
0010
,  // measure 21
0000
0010
0100
0001
1000
0000
0010
1000
,  // measure 22
0001
0100
0110
0000
1010
0000
0100
0001
,  // measure 23
0001
1000
0010
0000
0101
0000
1000
0100
,  // measure 24
0000
0100
0010
0001
1000
0000
0001
0100
,  // measure 25
0000
0100
0010
1000
0001
0000
0100
0000
,  // measure 26
1002
0000
1003
0100
0001
0100
1000
0001
,  // measure 27
0200
0000
0310
1000
0200
0000
0310
0000
,  // measure 28
2001
0000
3001
0010
1000
0010
0001
1000
,  // measure 29
0020
0000
0130
0001
0020
0000
0130
0000
,  // measure 30
1100
0000
0110
0000
0011
0000
1000
0001
,  // measure 31
1000
0010
0020
0000
0230
0000
0301
0010
,  // measure 32
0100
1000
1100
0000
0011
0000
1000
0100
,  // measure 33
0010
0001
0101
0000
1010
0000
1001
0000
,  // measure 34
0200
0000
0310
1000
0010
1000
0010
0000
,  // measure 35
0100
0001
1000
0100
0010
0001
1000
0000
,  // measure 36
0001
0010
0001
2000
0000
3010
1000
0002
,  // measure 37
0000
0100
0000
1000
0000
1003
0200
0000
,  // measure 38
0310
0001
0010
0100
1000
0010
0100
0000
,  // measure 39
0001
1000
0001
0100
0010
1000
0001
0000
,  // measure 40
2100
0000
3020
0000
0130
0001
1000
0001
,  // measure 41
0200
0000
0010
0000
1000
0000
0310
0100
,  // measure 42
0002
0000
1000
0000
0103
0010
2000
0000
,  // measure 43
3100
0001
1000
0010
,  // measure 44
0000
0000
1001
0001
0100
0010
1000
1000
,  // measure 45
0100
0010
0001
1000
0010
1000
0001
0001
,  // measure 46
0010
0100
0000
0100
1000
0010
0100
0100
,  // measure 47
0010
1000
1000
0100
0020
0000
0031
1000
,  // measure 48
0001
0000
0011
0010
0100
1000
0002
0000
,  // measure 49
0103
0000
1010
0010
0100
0001
2000
0000
,  // measure 50
3100
0000
1000
0001
0200
0000
0320
0000
,  // measure 51
1030
0100
0010
0001
1000
0001
0100
0100
,  // measure 52
0010
0000
0101
0100
0010
1000
0100
0100
,  // measure 53
0010
0001
1000
0010
1000
0001
0020
0000
,  // measure 54
0031
0010
0100
1000
2100
0000
3002
0000
,  // measure 55
1003
0100
0010
0001
0201
0000
0320
0000
,  // measure 56
1030
0010
0100
0001
2000
0000
3100
0000
,  // measure 57
1000
0010
0010
0100
0001
1000
0200
0000
,  // measure 58
0310
0001
0000
0001
0010
0100
1000
1000
,  // measure 59
0001
1000
0000
1000
0010
0100
0001
0001
,  // measure 60
1000
0000
1002
0000
1003
0100
0001
0100
,  // measure 61
1000
0001
0200
0000
0310
1000
0200
0000
,  // measure 62
0310
0000
2001
0000
3001
0010
1000
0010
,  // measure 63
0001
1000
0020
0000
0130
0001
0020
0000
,  // measure 64
0130
0000
1100
0100
0010
0000
1001
0000
,  // measure 65
0010
0000
0101
0100
0010
0000
1000
0000
,  // measure 66
1001
0000
0100
0100
1000
0010
0100
0100
,  // measure 67
0010
1000
0100
0010
0002
0000
0100
0100
,  // measure 68
0103
0000
0000
0000
;

//---------------dance-double - ----------------
#NOTEDATA:;
#CHARTNAME:;
#STEPSTYPE:dance-double;
#DESCRIPTION:;
#CHARTSTYLE:;
#DIFFICULTY:Challenge;
#METER:7;
#RADARVALUES:0.469084,0.477747,0.310610,0.214468,0.000000,373.000000,42.000000,29.000000,0.000000,0.000000,0.000000,0.000000,0.000000,0.469084,0.477747,0.310610,0.214468,0.000000,373.000000,42.000000,29.000000,0.000000,0.000000,0.000000,0.000000,0.000000;
#CREDIT:Ben Speirs;
#DISPLAYBPM:132.000000;
#NOTES:
00000000
00000000
00000000
00000000
,
00000000
00000000
00000000
00000000
,
10000000
00000000
11000000
00000000
00000000
00000000
10000000
01000000
,
00010000
00000000
01010000
00000000
00000000
00000000
01000000
00010000
,
00001000
00000000
00011000
00000000
00000000
00000000
00010000
00001000
,
00000100
00000000
00001100
00000000
00000000
00000000
00001000
00000100
,
00000001
00000000
00000102
00000000
00000003
00000000
00000001
00000010
,
00001000
00000000
00001010
00000000
00000000
00000000
00000010
00001000
,
00010000
00000000
00011000
00000000
00000000
00000000
00001000
00010000
,
00100000
00000000
00110000
00000000
00000000
00000000
00010000
00100000
,
20000000
00000000
31000000
00000000
00100000
00010000
00100000
00000000
,
00020000
00000000
01030000
00000000
00100000
10000000
00100000
00000000
,
20000000
00000000
32000000
00000000
03100000
00010000
00100000
00000000
,
00002000
00000000
00023000
00000000
00030100
00001000
00000100
00000000
,
00002000
00000000
00003001
00000000
00000100
00000010
00000100
00000001
,
00002000
00000000
00003100
00000010
00000002
00000000
00000103
00000010
,
00002000
00000100
00000001
00003010
,
00000002
00000100
00001000
00000013
,
00001000
00000100
00001000
00000000
00010001
00000000
00001000
00000100
,
00001000
00000100
00001000
00000000
00010001
00000000
00001000
00000100
,
00000010
00000001
00000100
00000000
00000101
00000000
00000100
00000001
,
00000010
00000100
00001000
00000000
00001100
00001000
00000100
00000000
,
00010000
00001000
00010000
00000000
00101000
00100000
00010000
01000000
,
00100000
10000000
00010000
00000000
10010000
00000000
10000000
01000000
,
00100000
00010000
01000000
00000000
01000000
00000000
00010000
00100000
,
01000000
10000000
00100000
00000000
00100000
10000000
01000000
00000000
,
01020000
00000000
10030000
01000000
10000000
00010000
00100000
00010000
,
20000000
00000000
30100000
01000000
00020000
00000000
00130000
00000000
,
00102000
00000000
00013000
00001000
00100000
00001000
00010000
00000100
,
00002000
00000000
00003010
00000100
00000002
00000000
00001003
00000000
,
00010100
00000000
00011000
00000000
00110000
00000000
10000000
01000000
,
00100000
00010000
01000000
00100000
10000000
00000000
00010000
01000000
,
00000000
01000000
00100000
10000000
00010000
00000000
10000000
01000000
,
00000000
01000000
00100000
00010000
01000000
01000000
01000000
00000000
,
01010000
00000000
10000000
01000000
10000000
00010000
10000000
00000000
,
00100000
10000000
01000000
00100000
00010000
01000000
00010000
00000000
,
00100000
00001000
00100000
00002000
00000000
00013000
00000100
00020000
,
00000000
00030020
00000000
00000230
00000000
00000301
00001000
00000000
,
00001010
00000000
00000001
00000010
00000001
00001000
00000001
00000000
,
00000100
00000001
00000010
00000100
00001000
00000010
00001000
00000000
,
00000100
00010000
00000100
00010000
00001000
00100000
00010000
01000000
,
00200000
00000000
10000000
00000000
01000000
00000000
10300000
01000000
,
00200000
00000000
00010000
00000000
01300000
00100000
00010000
10000000
,
00100000
00000010
01000000
00000100
,
00000000
00000000
00010000
00100000
00010000
00000000
10001000
00000000
,
00010000
00100000
00010000
00100000
00010000
00000000
10001000
00000000
,
00010000
00100000
01000000
10000000
00100000
00000000
10100000
00000000
,
00100000
10000000
01000000
00100000
00010000
00000000
00110000
00010000
,
00100000
00000000
00001000
00010000
00001000
00000000
00010100
00000100
,
00001000
00000010
00000100
00000001
00001000
00000000
00001001
00000000
,
00000001
00000010
00000100
00001000
00000010
00000000
00000010
00000000
,
00001000
00000100
00000010
00000001
00000100
00000000
00000100
00000001
,
00000010
00000000
00000011
00000001
00001000
00000100
00000010
00000010
,
00000001
00000100
00000010
00001000
00000100
00010000
00001000
00001000
,
00100000
00010000
00000000
10000000
01000000
00000000
10001000
00000000
,
00010000
00100000
00000000
10000000
01000000
00000000
10001000
00000000
,
01000000
00000000
11000000
10000000
00010000
00100000
01000000
01000000
,
10000000
00100000
01000000
00010000
00100000
00001000
00010000
00010000
,
00000100
00001000
00000000
00000001
00000010
00000000
00010001
00000000
,
00001000
00000100
00000000
00000001
00000010
00000000
00010001
00000000
,
00000010
00000000
00000101
00000000
00000001
00000100
00001000
00010000
,
01000000
10000000
00020000
00000000
10030000
01000000
00100000
00010000
,
10000000
00000000
10100000
00000000
10000000
00100000
00010000
00001000
,
00000010
00000001
00000200
00000000
00000310
00001000
00000200
00000000
,
00000310
00000011
00000110
00001100
,
00000001
00001100
00011000
00110000
,
00001000
00100000
00010000
01000000
00100000
00000000
10100000
00000000
,
10000000
01000000
00100000
00010000
02000000
00000000
03002000
00000000
,
10003000
00000000
00000000
00000000
;

//---------------dance-single - ----------------
#NOTEDATA:;
#CHARTNAME:;
#STEPSTYPE:dance-single;
#DESCRIPTION:;
#CHARTSTYLE:;
#DIFFICULTY:Medium;
#METER:5;
#RADARVALUES:0.368717,0.427458,0.399355,0.303214,0.000000,254.000000,54.000000,41.000000,0.000000,0.000000,0.000000,0.000000,0.000000,0.368717,0.427458,0.399355,0.303214,0.000000,254.000000,54.000000,41.000000,0.000000,0.000000,0.000000,0.000000,0.000000;
#CREDIT:Ben Speirs;
#DISPLAYBPM:132.000000;
#NOTES:
0000
0000
0000
0000
,
0000
0000
0000
0000
,
2000
0000
3000
0000
0000
0001
0100
0002
,
0000
0003
0000
0000
0000
1000
0100
2000
,
0000
3000
0000
0000
0000
0001
0010
0200
,
0000
0300
0000
0000
1000
0001
1000
0000
,
0020
0000
0030
0000
0000
0100
0001
0200
,
0000
0300
0000
0000
0000
0001
1000
0002
,
0000
0003
0000
0000
0000
1000
0100
2000
,
0000
3000
0000
0000
0010
1000
0001
0000
,
0202
0000
0303
0000
0001
1000
0001
1000
,
0000
0000
0000
0000
0010
1000
0010
1000
,
0000
0000
0000
0000
0001
0100
0001
0100
,
0000
0010
1000
0100
,
2200
0000
3300
0000
0000
0000
0001
2000
,
0000
0000
3010
0200
0000
0000
0301
2000
,
0000
0000
0000
0000
3100
0000
0010
0002
,
0000
0000
0103
0010
,
1010
0000
0001
0100
0001
0000
0000
0000
,
1100
0000
0001
0100
0001
0000
0000
0000
,
1000
0100
1000
0000
0010
0000
0100
0000
,
0001
1000
0001
0000
0010
0000
0000
0000
,
0011
0000
0100
0010
0100
0000
0000
0000
,
0011
0000
0100
0010
0100
0000
0000
0000
,
0001
0000
0010
0100
0010
0000
0001
0000
,
1000
0000
0010
0100
0010
0000
0000
0000
,
2002
0000
3003
0000
0010
1000
0010
1000
,
0200
0310
0001
0000
,
2002
0000
3003
0000
0001
0100
0001
0100
,
0020
1030
0100
0000
,
1100
0101
1100
0000
,
1100
0101
1100
0000
,
0001
0010
0100
0000
1000
0000
0001
0000
,
1000
0010
0100
0000
0001
0000
0000
0000
,
1100
1100
0000
0010
,
1000
0001
0100
0100
,
0000
0001
1000
0001
,
0010
0100
0010
0000
0001
0000
1000
0000
,
0100
0100
0000
1100
,
0001
0000
1000
0000
0010
1000
0010
0000
,
1100
0101
0011
1010
,
2002
0000
0000
0000
3003
0000
0010
1000
,
0002
0103
0020
1030
,
0100
0010
0001
1000
,
0000
1001
0110
1001
,
0010
1001
0110
1001
,
0010
0000
1000
0100
2000
0000
3001
0000
,
0000
0000
0001
0100
0002
0000
1003
0000
,
0000
1001
0110
1001
,
0100
1001
0110
1001
,
0100
0000
0001
1000
0002
0000
0103
0000
,
0000
0000
1000
0001
2000
0000
3100
0000
,
0000
0011
1100
0011
,
0000
0101
1010
0101
,
0000
0000
1000
0100
0020
0000
0031
0000
,
1000
0000
0001
0100
0020
0000
1030
0000
,
0000
0101
1010
0101
,
0000
0101
1010
0101
,
0000
0000
1000
0010
0200
0000
0301
0000
,
2000
0000
3100
0010
0002
0000
1003
0000
,
0000
0000
2200
0000
3300
0000
0001
0100
,
0001
0100
0020
0000
1030
0000
0100
0000
,
0000
0000
0022
0000
0033
0000
1000
0100
,
1000
0100
0020
0000
0031
0000
1000
0000
,
0000
1001
0110
1001
,
0010
1001
0110
1001
,
0010
0100
0000
0100
0001
0000
1000
0000
,
0100
0010
0000
0010
0001
0000
1000
0100
,
0100
0000
0000
0000
;

//---------------dance-single - ----------------
#NOTEDATA:;
#CHARTNAME:;
#STEPSTYPE:dance-single;
#DESCRIPTION:;
#CHARTSTYLE:;
#DIFFICULTY:Easy;
#METER:3;
#RADARVALUES:0.198621,0.276590,0.059164,0.073955,0.000000,170.000000,8.000000,10.000000,0.000000,0.000000,0.000000,0.000000,0.000000,0.198621,0.276590,0.059164,0.073955,0.000000,170.000000,8.000000,10.000000,0.000000,0.000000,0.000000,0.000000,0.000000;
#CREDIT:Ben Speirs;
#DISPLAYBPM:132.000000;
#NOTES:
0000
0000
0000
0000
,
0000
0000
0000
0000
,
0100
0000
0000
0001
,
0001
0000
0000
1000
,
1000
0000
0000
0010
,
0010
0000
1000
0100
,
0010
0000
0000
0001
,
0001
0000
0000
1000
,
1000
0000
0000
0010
,
0010
0000
1000
0001
,
0100
0000
0000
0001
,
0001
0000
0000
0010
,
0010
0000
0000
0100
,
0100
0000
1000
0001
,
1000
0000
0000
0010
,
0010
0100
0100
0001
,
0002
0003
1000
0000
,
0200
0300
0000
0000
,
0010
0001
0010
0000
,
0001
0100
0001
0000
,
1000
0100
1000
0000
,
0010
1000
0010
0000
,
0100
0100
0001
0000
,
1000
1000
0100
0000
,
1000
0001
1000
0000
,
0001
1000
0001
0000
,
2002
3003
0000
0000
,
0010
0100
0010
0000
,
2002
3003
0000
0000
,
0100
0010
0100
0000
,
1001
0000
0100
0000
,
1000
1000
0010
0000
,
1000
0100
0010
0001
,
0010
0100
1000
0000
,
1001
0000
0010
0000
,
1000
0010
0100
0000
,
0001
0001
1000
1000
,
0100
0100
0100
0000
,
1000
0000
0010
0000
,
0100
0100
0010
0000
,
1000
1000
0001
0001
,
0010
0000
0001
0000
,
1000
0000
0010
0000
,
0100
0000
0000
0000
,
0000
1001
0000
0000
,
0000
0010
1000
0010
,
0000
1000
0100
1000
,
0000
0010
0000
0100
,
0000
0001
1000
0001
,
0000
1000
0001
1000
,
0000
0001
0000
0100
,
0000
0010
0010
1000
,
0000
1001
0000
1000
,
0000
0100
0100
0010
,
0000
0001
0010
0001
,
0000
1000
0010
1000
,
0000
0001
0000
0100
,
0000
0010
0010
1000
,
0000
0100
0100
1000
,
0000
0010
0010
0100
,
0000
2002
3003
0000
,
0000
0001
1000
0010
,
0000
2002
3003
0000
,
0000
1000
0001
0010
,
0000
0001
0100
0001
,
0000
1000
0100
1000
,
0000
0001
0010
0100
,
0100
1000
0010
0100
,
0100
0000
0000
0000
;

//---------------dance-single - ----------------
#NOTEDATA:;
#CHARTNAME:;
#STEPSTYPE:dance-single;
#DESCRIPTION:;
#CHARTSTYLE:;
#DIFFICULTY:Beginner;
#METER:1;
#RADARVALUES:0.116214,0.176012,0.007395,0.000000,0.000000,109.000000,1.000000,0.000000,0.000000,0.000000,0.000000,0.000000,0.000000,0.116214,0.176012,0.007395,0.000000,0.000000,109.000000,1.000000,0.000000,0.000000,0.000000,0.000000,0.000000,0.000000;
#CREDIT:Ben Speirs;
#DISPLAYBPM:132.000000;
#NOTES:
0000
0000
0000
0000
,
0000
0000
0000
0000
,
0010
0000
0000
0000
,
1000
0000
0000
0000
,
0001
0000
0000
0000
,
0010
0000
0000
0001
,
0001
0000
0000
0000
,
1000
0000
0000
0000
,
0010
0000
0000
0000
,
0100
0000
0000
0010
,
0010
0000
0000
0000
,
1000
0000
0000
0000
,
0100
0000
0000
0000
,
0010
0000
0000
0001
,
0001
0000
0000
1000
,
1000
0000
1000
0000
,
0010
0000
0000
0000
,
0100
0000
0000
0000
,
0001
0001
0000
0000
,
1000
1000
0000
0000
,
0010
0000
0010
0000
,
0100
0000
0100
0000
,
0001
0001
0000
0000
,
0010
0010
0000
0000
,
0001
0000
0001
0000
,
1000
0000
1000
0000
,
0010
0000
0000
0000
,
0100
0000
0100
0000
,
0010
0000
0000
0000
,
1000
0000
0001
0000
,
0100
0100
0000
0000
,
0100
0100
0000
0000
,
0001
0000
0001
0000
,
1000
0000
1000
0000
,
0010
0000
0000
0000
,
1000
0000
0000
0000
,
0001
0000
0001
0000
,
0100
0100
0100
0000
,
0010
0000
0000
0000
,
1000
0000
0000
0000
,
0100
0100
0100
0100
,
0100
0000
0000
0000
,
0010
0000
0010
0000
,
0001
0000
0000
0000
,
0000
1001
0000
0000
,
0000
1000
0000
0000
,
0000
0010
0000
0000
,
0000
0100
0100
0000
,
0000
0001
0001
0000
,
0000
1000
1000
0000
,
0000
0010
0000
0010
,
0000
1000
0000
1000
,
0000
0001
0001
0000
,
0000
1000
1000
0000
,
0000
0100
0000
0100
,
0000
0010
0000
0000
,
0000
0001
0000
0000
,
0000
1000
0000
0000
,
0000
0010
0010
0010
,
0000
0010
0010
0010
,
0000
0100
0000
0000
,
0000
0001
0000
0000
,
0000
1000
0000
0000
,
0000
0010
0000
0000
,
0000
1000
1000
0000
,
0000
0001
0001
0000
,
0000
0100
0000
0000
,
0000
0010
0010
0010
,
0010
0000
0000
0000
;
