#TITLE:THANK YOU FOR PLAYING;
#SUBTITLE:;
#ARTIST:SUPER STAR -MITSURU-;
#TITLETRANSLIT:;
#SUBTITLETRANSLIT:;
#ARTISTTRANSLIT:;
#CREDIT:;
#BANNER:Thank You For Playing-bn.png;
#BACKGROUND:Thank You For Playing-bg.png;
#LYRICSPATH:;
#CDTITLE:;
#MUSIC:Thank You For Playing.mp3;
#OFFSET:-0.630;
#SAMPLESTART:62.740;
#SAMPLELENGTH:14.540;
#SELECTABLE:YES;
#BPMS:0.000=170.000,264.000=160.000,265.500=145.000,267.000=140.000,268.000=128.000,269.000=117.000,270.000=99.000,271.000=45.000;
#STOPS:;
#BGCHANGES:;

//---------------dance-single - ----------------
#NOTES:
     dance-single:
     :
     Beginner:
     2:
     0.147,0.281,0.128,0.000,0.000: // measure 1
0000
0000
0000
0000
,  // measure 2
0000
0000
0000
0000
,  // measure 3
0000
0000
0000
0000
,  // measure 4
0000
0000
0000
0000
,  // measure 5
0000
0000
0000
0000
,  // measure 6
0000
0000
0000
0000
,  // measure 7
0000
0000
0000
0000
,  // measure 8
0000
0000
0000
0000
,  // measure 9
0000
0000
0000
0000
,  // measure 10
0000
0000
0000
0000
,  // measure 11
1001
0000
0000
0000
,  // measure 12
1000
0000
0100
0000
,  // measure 13
0010
0000
0000
0000
,  // measure 14
0001
0000
1000
0000
,  // measure 15
0010
0000
0000
0000
,  // measure 16
1000
0000
0100
0000
,  // measure 17
0010
0000
0000
0000
,  // measure 18
0001
0000
0000
0000
,  // measure 19
0110
0000
0000
0000
,  // measure 20
0010
0000
1000
0000
,  // measure 21
0100
0000
0000
0000
,  // measure 22
1000
0000
0001
0000
,  // measure 23
0010
0000
0000
0000
,  // measure 24
0001
0000
1000
0000
,  // measure 25
0010
0000
0000
0000
,  // measure 26
1000
0000
0000
0000
,  // measure 27
1001
0000
0000
0000
,  // measure 28
0100
0000
0100
0000
,  // measure 29
0100
0000
0000
0000
,  // measure 30
1000
0000
1000
0000
,  // measure 31
1000
0000
0000
0000
,  // measure 32
0001
0000
0001
0000
,  // measure 33
0001
0000
0000
0000
,  // measure 34
1001
0000
1001
0000
,  // measure 35
1001
0000
0000
0000
,  // measure 36
0100
0100
0100
0100
,  // measure 37
0100
0000
0000
0000
,  // measure 38
1000
0000
0000
0000
,  // measure 39
0001
0000
0000
0000
,  // measure 40
0010
0000
0000
0000
,  // measure 41
0001
0001
0001
0001
,  // measure 42
0001
0001
0001
0001
,  // measure 43
1000
1000
1000
1000
,  // measure 44
0000
0000
0000
0000
,  // measure 45
0010
0000
0010
0000
,  // measure 46
1000
0000
1000
0000
,  // measure 47
0001
0000
0001
0000
,  // measure 48
0100
0000
0100
0000
,  // measure 49
0001
0000
0001
0000
,  // measure 50
0010
0000
0010
0000
,  // measure 51
0100
0000
0100
0000
,  // measure 52
1000
0000
1000
0000
,  // measure 53
1001
0000
0000
0000
,  // measure 54
0100
0100
0100
0100
,  // measure 55
0100
0000
0000
0000
,  // measure 56
1000
0000
0000
0000
,  // measure 57
0010
0000
1000
0000
,  // measure 58
0100
0000
0010
0000
,  // measure 59
0001
0000
1000
0000
,  // measure 60
0001
0001
0001
0001
,  // measure 61
0001
0000
0000
0000
,  // measure 62
0000
0000
1001
0000
,  // measure 63
1001
0000
0000
0000
,  // measure 64
0000
0000
1001
0000
,  // measure 65
1001
0000
0000
0000
,  // measure 66
0000
0000
1001
0000
,  // measure 67
1001
0000
0000
0000
,  // measure 68
0010
0000
0100
0000
,  // measure 69
0110
0000
0000
0000
;

//---------------dance-single - ----------------
#NOTES:
     dance-single:
     :
     Medium:
     7:
     0.369,0.535,0.266,0.083,0.009:
0000
0000
0000
0000
,
0000
0000
0000
0000
,
0000
0000
0000
0000
,
0000
0000
0000
0000
,
0000
0000
0000
0000
,
0000
0000
0000
0000
,
0000
0000
0000
0000
,
0000
0000
0000
0000
,
2002
0000
0000
0000
,
0000
0000
0000
3003
,
0010
1000
0100
0010
,
0001
0100
0101
0000
,
0101
1000
0100
0010
,
0001
0100
0110
0000
,
0110
1000
0100
0010
,
0001
0100
1010
0000
,
1100
0000
0000
0100
0000
0000
0010
0000
,
0001
0000
0000
0100
0010
0000
0000
0000
,
0001
0100
1000
0010
,
0100
0000
0001
1000
0200
0000
0000
0000
,
1300
0010
0100
0001
,
1000
0000
0100
0010
0002
0000
0000
0000
,
0103
0010
0100
0001
,
1000
0000
0100
1000
0020
0000
0000
0000
,
0130
0000
0000
0010
0000
0000
0110
0000
,
0101
0000
1100
0000
,
0100
0000
1000
0000
0010
1000
0100
0000
,
0010
0000
0001
0000
1000
0001
0100
0001
,
1000
0000
0100
0000
0010
0000
0001
0100
,
0010
0100
0001
0000
,
0010
0000
0001
0000
1000
0100
0010
0000
,
0001
0000
1000
0000
0010
0100
0010
1000
,
0200
0000
0000
2300
0000
0000
0000
0000
,
3001
1000
0110
1001
,
0100
0000
1000
0000
0001
0000
0100
0010
,
0100
0000
0001
0000
1000
0100
0010
0001
,
1000
0000
0100
0000
1000
0000
0010
0100
,
0010
0000
0100
0001
,
0101
0010
1000
0001
,
1100
0001
0101
0010
,
1000
0100
1000
0100
0010
0100
0010
0100
,
0010
0001
0010
0001
1000
0001
1000
0001
,
0100
0001
0100
0001
1000
0100
1000
0100
,
0000
1000
0000
0000
0001
0000
0000
0100
0000
0000
0010
0000
1001
0000
0000
0000
,
0100
0010
1000
0001
0000
0000
0100
0000
,
0010
1000
1010
0000
,
1000
0100
0010
0001
0000
0000
1000
0000
,
0001
0100
0110
0000
,
0001
0100
0010
1000
0000
0000
0100
0000
,
0010
0001
1100
0000
,
0101
0000
0000
0010
0000
0000
1000
0000
,
1100
0000
0000
0010
0010
0000
0000
0000
,
0100
0110
1001
0000
,
1000
0100
1000
0100
0010
0001
0010
0001
,
0100
0010
1000
0000
,
0100
1000
0001
0100
,
0010
1000
0100
0000
1000
0100
1000
0000
,
0010
1000
0001
0000
0100
0001
0100
0000
,
0010
1000
0010
1000
0100
1000
0100
1000
,
0001
0100
0010
1000
0100
0010
0001
0100
,
0010
0000
0000
0000
,
0110
0000
0101
0000
,
1100
0000
0000
0000
,
0010
0000
1000
0000
0100
0010
0001
0000
,
0100
0000
0000
0000
,
0010
0100
0001
0000
,
1000
0000
0000
0001
0000
0000
0100
0000
,
0110
0000
0101
0000
,
2200
0000
0000
0000
0000
3300
0000
0000
;

//---------------dance-single - ----------------
#NOTES:
     dance-single:
     :
     Hard:
     12:
     0.507,0.629,0.394,0.128,0.083:
0000
0000
0000
0000
,
0000
0000
0000
0000
,
0000
0000
0000
0000
,
0000
0000
0000
0000
,
0000
0000
0000
0000
,
0000
0000
0000
0000
,
0000
0000
0000
0000
,
0000
0000
0000
0000
,
2002
0000
0000
0000
,
0000
0000
0000
3003
,
0100
0000
0001
0000
1000
0100
0001
0000
,
1000
0010
1010
0001
,
0101
0000
1000
0000
0001
0010
1000
0000
,
0100
1000
1001
0010
,
0110
0000
1000
0000
0010
1000
0100
0000
,
0010
0001
0011
1000
,
1001
0000
0100
1000
0010
0000
0110
0000
,
0101
0000
1000
0001
1000
0000
0100
0000
,
0110
0000
0001
0100
0000
0010
0100
0000
,
0001
0000
1000
0100
0010
0000
0001
0001
,
0100
0000
0010
0100
0000
0001
0010
0000
,
0100
0000
0000
0000
1000
0000
0010
0000
0100
0000
0000
0001
0100
0000
0010
0000
,
1000
0000
0100
1000
0000
1000
0010
0100
,
0001
0010
0100
0000
0010
0001
1000
0010
,
0100
0000
0010
1000
0000
0100
0010
0000
,
0011
0000
0100
1000
1001
0000
0010
0100
,
0210
0000
0301
0000
0100
0010
1000
0100
,
0001
0000
0100
0000
1000
0000
0000
0000
0010
0000
0000
0000
0001
0000
1000
0100
,
1000
0000
0010
0000
1000
0001
0100
0010
,
0100
0000
0001
0000
1000
0000
0000
0000
0100
0000
0010
0000
0001
0000
0010
0100
,
0010
0000
0001
0000
0010
0100
1000
0001
,
1000
0010
0100
0000
0010
1000
0100
0000
,
1010
0000
0000
0101
0000
0000
0010
0000
,
0110
0000
0000
0000
0110
0000
0000
0000
0001
1000
0000
1000
0001
0000
0100
0010
,
0100
0001
0100
1000
0100
0010
0100
0001
,
0100
1000
0100
0010
0100
0001
1000
0100
,
0010
0001
0010
1000
0010
0100
0010
0001
,
0010
0000
0100
0000
1000
0000
0001
0000
1000
0000
0000
0010
1000
0000
0100
0000
,
0110
0001
0000
1000
0000
0010
0000
0100
,
0100
0001
0000
0100
0100
0010
0000
1010
,
2010
3200
0320
0031
,
0201
0320
2030
3001
,
1200
0310
2001
3100
,
0000
1000
0000
1000
0010
0000
0100
0001
0000
0001
0100
0000
0020
0000
0000
0000
,
1030
0100
0001
0100
0000
1000
0010
0100
,
0001
0010
0100
0010
0011
0000
0100
0000
,
1100
1000
0001
0100
0000
0010
0100
0001
,
0010
1000
0010
0100
0110
0000
1000
0000
,
1100
1000
0010
0100
0000
0001
0100
0010
,
0100
0001
1000
0100
1100
0000
0010
0000
,
0110
0000
0000
0101
0000
0000
1100
0000
,
1001
0000
0000
0000
0000
0000
0010
1000
0100
0000
0000
0000
1000
0000
0100
0000
,
0010
0000
0000
0001
0000
0000
1000
0000
0000
0000
0010
0000
0100
0000
0001
0000
,
0001
0010
0010
0100
0100
1000
1000
0010
,
0100
0000
0000
0001
0000
0000
1000
0000
0010
0000
0000
0000
0000
0000
0100
0001
,
1000
0010
1000
0100
0010
0001
0100
0010
,
1000
0100
0010
0001
0100
1000
0100
0010
,
1000
0100
0010
0001
1000
0010
0100
0001
,
1000
0100
1000
0000
0010
0000
0100
0001
0100
0000
0010
0000
1000
0001
1000
0000
,
0010
1000
0100
0010
0001
0100
1000
0100
,
0010
0000
0000
0000
,
0100
0001
1100
0010
,
0101
0000
0000
0000
,
1000
0001
1001
0010
,
0110
0000
0000
0000
,
0001
0100
1100
0010
,
0101
0000
0000
1100
0000
0000
1001
0000
,
0101
0000
1010
0000
,
0220
0000
0000
0000
0000
0330
0000
0000
;

//---------------dance-single - ----------------
#NOTES:
     dance-single:
     :
     Easy:
     5:
     0.275,0.378,0.183,0.037,0.000:
0000
0000
0000
0000
,
0000
0000
0000
0000
,
0000
0000
0000
0000
,
0000
0000
0000
0000
,
0000
0000
0000
0000
,
0000
0000
0000
0000
,
0000
0000
0000
0000
,
0000
0000
0000
0000
,
2002
0000
0000
0000
,
0000
0000
0000
3003
,
0010
0010
1000
0100
,
0010
0001
1000
0000
,
0001
0001
0010
0001
,
1000
0001
0100
0000
,
0010
0010
0100
0001
,
0010
0100
1000
0000
,
0100
0100
1000
0010
,
0100
0000
0010
0000
,
1001
0000
0100
1000
,
0010
0100
0001
0000
,
0100
0000
0001
0100
,
0010
1000
0100
0000
,
1100
0000
1000
0010
,
1000
0001
0100
0000
,
0010
0000
0100
0001
,
1000
0000
0001
0000
,
1010
0000
0001
0000
,
1000
0000
0100
0000
1000
0000
0001
0100
,
0001
0000
0100
0000
,
0001
0000
0010
0000
0100
0000
1000
0010
,
1000
0000
0100
0000
,
1000
0000
0001
0000
0100
0000
0010
0100
,
0010
0000
1000
0000
,
1001
1001
0110
0110
,
0001
0000
0100
0000
,
0010
0000
1000
0000
0100
1000
0100
0000
,
1000
0000
0100
0000
,
1000
0001
0010
0000
,
0001
0000
1000
0000
,
0010
0000
0100
0000
,
0001
0001
1000
1000
,
0001
0001
1000
1000
,
0010
0010
0100
0100
,
0000
0000
0000
1001
,
0100
1000
0010
0100
,
0001
0010
0100
0110
,
0001
1000
0010
0100
,
0001
1000
0100
1100
,
0010
1000
0001
0100
,
0010
1000
0001
0101
,
0010
1000
0001
1000
,
1100
0000
0101
0000
,
0010
1000
0100
0000
,
1000
1000
0100
0000
0010
0010
0001
0000
,
0100
0010
1000
0000
,
0010
1000
0001
0100
,
0110
0001
0100
1000
,
0010
0100
0001
1000
,
0100
1000
0100
0000
1000
0000
0001
0000
,
0100
0010
0100
0000
0001
0000
0010
0000
,
1001
0000
0000
0000
,
0100
0000
1100
0000
,
0001
0000
0000
0000
,
0100
0000
0101
0000
,
1000
0000
0000
0000
,
0010
0000
1010
0000
,
0001
0000
0000
1000
0000
0000
0100
0000
,
0010
0000
0001
0000
,
2002
0000
0000
0000
0000
3003
0000
0000
;

//---------------dance-single - ----------------
#NOTES:
     dance-single:
     :
     Challenge:
     14:
     0.671,0.975,0.431,0.238,0.293:
0000
0000
0000
0000
,
0000
0000
0000
0000
,
0000
0000
0000
0000
,
0000
0000
0000
0000
,
0000
0000
0000
0000
,
0000
0000
0000
0000
,
0000
0000
0000
0000
,
0000
0000
0000
0000
,
0220
0000
0000
0000
,
0000
0000
0000
0330
,
0101
0100
0010
1000
0000
0100
1000
0010
,
0100
0001
1000
0100
2100
0000
3010
0000
,
0110
0100
0001
1000
0000
0001
0010
0100
,
1000
0001
0100
0010
0210
0000
0301
0000
,
0011
0010
0001
0100
0000
0010
0100
0001
,
1000
0100
0010
0100
2100
0000
3010
0000
,
1020
0000
0130
0001
1000
0000
0110
0000
,
1001
0000
0000
0000
0010
0000
1000
0100
0010
0000
0000
0000
0001
0000
1000
0000
,
1001
1000
0100
1000
0010
0100
0001
0010
,
0100
1000
0010
0100
0001
0100
0001
0010
,
0100
1000
0001
0100
0010
0100
0001
0010
,
1000
0010
0001
1000
0100
1000
0100
0010
,
0001
0100
0010
0100
0001
1000
0100
0010
,
0001
1000
0010
0100
0001
0100
0001
1000
,
0010
0100
0001
1000
0100
0010
0001
1000
,
2100
0000
3010
0100
0210
0000
0301
1000
,
1001
0000
0020
0000
1030
0100
0010
0002
,
1000
0000
0000
0003
0100
0000
0010
0000
0100
0000
0001
0000
0010
0000
0100
1000
,
0200
0000
1300
0001
0010
0100
1000
0020
,
0001
0000
0000
0000
0130
0000
0001
0000
0100
0000
0010
0000
1000
0000
0100
1000
,
0200
0000
1300
0010
0100
0001
0010
0002
,
1000
0000
0103
0010
0100
0001
1000
0100
,
1100
0000
0010
0110
0000
0001
0101
0000
,
1100
0000
0000
0000
0101
0000
0000
0000
0010
1000
0000
1000
0001
0000
0100
0010
,
0100
0000
0001
0100
1000
0000
0020
0200
,
0000
0330
0001
0100
1000
0100
0001
0010
,
1000
0000
0000
0010
0000
0000
0100
0000
0000
0000
1000
0000
0100
0000
0010
0001
,
0010
0000
0000
0000
0100
0000
0000
0000
1000
0000
0000
1000
0010
0000
0100
0000
,
0101
0010
0000
1000
0000
0001
0000
1100
,
1100
0010
0000
0101
0101
1000
0000
0010
,
0100
0001
0100
0001
0100
0001
0100
0001
0100
0001
0000
0000
,
0010
1000
0010
1000
0010
1000
0010
1000
0010
1000
0000
0000
,
0100
1000
0100
1000
0100
1000
0100
0010
0100
0010
0100
0010
,
0000
0001
0000
0100
0010
0000
1000
0100
0000
0001
0100
0000
2001
0000
0000
0000
,
3010
0100
0001
0010
1000
0010
0001
1000
,
0100
0000
0010
0000
0001
0000
1000
0000
1010
0000
0100
0000
0001
0000
1000
0100
,
1000
0010
0100
0001
0010
0100
1000
0010
,
0001
0000
0010
0000
1000
0000
0100
0000
0110
0000
0001
0000
1000
0000
0010
0100
,
0010
1000
0100
0010
0001
1000
0010
0100
,
0001
0000
0010
0000
1000
0000
0010
0000
0011
0000
1000
0000
0001
0000
0100
0001
,
0100
0010
1000
0100
0010
0001
1000
0010
,
0100
0000
0001
0000
0010
0000
0100
1000
0001
0010
0000
0010
0001
0000
0100
0010
,
1000
0000
0000
1001
0000
0000
0100
0000
0001
0000
0100
0000
0010
0000
1000
0100
,
1000
0000
0001
0010
0001
0000
0100
0010
0100
0000
1000
0001
1000
0000
0010
0000
,
0110
0000
0000
0101
0000
0000
1100
0000
0110
0000
0000
0000
0001
0000
1000
0100
,
1000
0010
0100
0001
0010
0100
1000
0010
,
0110
0100
1000
1000
0100
0100
0010
0010
,
1000
0000
1000
0000
0001
0000
0001
0000
0100
1000
0100
0000
0010
0100
0010
0000
,
0001
0100
0001
0100
0010
0000
1000
0100
1000
0100
0010
0000
0001
0100
0001
0100
,
0010
1000
0010
1000
0100
1000
0100
1000
0001
1000
0001
0010
0100
0010
0100
0010
,
0002
0000
2003
0100
0000
3000
0010
0100
,
0001
1000
2100
3010
,
0201
0000
0320
1000
0000
0030
0100
0010
,
0001
1000
1100
0101
,
2010
0000
3002
1000
0000
0003
0100
0001
,
1000
0100
1000
0000
0011
0000
1100
0000
,
1001
0000
0010
0110
0000
0000
0101
0000
,
1010
0000
0100
0000
0001
0000
1000
0000
1100
0000
0010
0000
0100
0001
0000
0000
,
2002
0000
0000
0000
0000
3003
0000
0000
;
