#TITLE:We Found Love;
#ARTIST:Rihanna ft. Calvin Harris;
#FILE:We Found Love.mp3;
#BPM:128.000;
#GAP:260;
#SAMPLESTART:82.720;
#SAMPLELENGTH:14.360;
#SINGLE:BEGINNER:1:
00000000
00000000
00000000
00000000
80000000
80000000
20000000
20000000
60000000
60000000
20000000
20000000
80000000
40000000
20000000
40000000
60000000
80000000
60000000
20000000
80008000
80000000
40004000
40000000
20002000
20000000
60006000
60000000
B0000000
00000000
A0000000
00000000
40004000
40000000
60006000
60000020
20002000
20002000
20002000
20000000
80008000
80008000
80008000
80000000
B0000000
20000000
80000000
40404000
00000000
80008000
80000000
20202020
;
#SINGLE:BASIC:2:
00000000
00000000
00000000
00000000
80008000
20002000
60006000
40004000
20002000
40004000
60006000
80008000
A0006000
20008000
40002000
80006000
20006000
40008000
40002000
80006000
B0002000
40404000
80004000
60606000
20006000
80808000
60004000
20202000
B!B00000B0
A!A00000A0
B!B00000B0
A!A00000A0
40404000
60606000
20202000
808080A0
B0002000
40006060
60002000
60004040
40008000
40008080
80002000
60004040
B0002000
40200000
40006000
20600000
20006000
80200000
80006000
40204020
;
#SINGLE:MANIAC:8:
00000000
00000000
00000000
00000000
60482060
4!40B2!20020
80464020
8!8009!6003!20
20826080
2!2018!80080
20628040
2!2001!400B!60
30604640
20806260
80604840
80206460
20804260
40802680
60406820
40604820
A0602040
7!40210000
40802060
B!4007!800A!20
A2602060
B!60230000
80206040
7!800A!2003!60
(B004004060060060)
(2002002080080080)
(2002002060060060)
(4004004020020020)
(4008002060080060)
(4002004080020080)
(4002008060040080)
(2006004002008060)
2!20A06240
8!80702460
4!40108620
6!60308260
4!40801482
8!80207642
8!8060A864
6!6020B248
A0408060
3!60890000
60208040
B!6003!200A!80
A8408040
B!40870000
20804060
3!200A!8007!40
00004000
;
#SINGLE:ANOTHER:5:
00000000
00000000
00000000
00000000
00206040
2!20002000
00602080
4!4007!800A!20
20602080
4!40004000
00802060
8!8009!6003!20
A0402000
40602000
80206000
80204000
80406000
20604000
20806000
20804000
B0402080
6!60600000
60208040
2!20001!4000
70406020
8!80800000
20604080
4!4000B!6000
30202020
80808080
40404040
60606060
80806060
20208080
40402020
46464640
70206040
60802460
40802080
40608620
80206040
80208420
40608060
40802640
B0204080
2!20200000
80406080
6!6000B!4000
70406020
8!80800000
20604020
4!40048!8000
80000000
;
#SINGLE:SMANIAC:13:
00000000
00000000
00000000
00000000
(8008008004006020)
(8008008002006040)
(2002002004006080)
(2002002008006040)
(6006006004008020)
(6006006002006080)
(2002002008006040)
(2002002004008020)
(A006004008208040)
(1004008002802060)
(3008006004204080)
(7002008004204060)
(B002008002602080)
(A002006004204060)
(1004008002802060)
(3004002004804020)
14804062
(6!6000203002008040)
24628048
7!4012!20A8!80
92604642
(8!8000609006002080)
48264082
A!2036!60B4!40
(7002006040020040)
(8002006080040080)
(6002008040020060)
(2004008020080040)
(1004006020080040)
(7004006080020080)
(9002006040080020)
(6464646464646000)
(2808404202408020)
(6808606404802060)
(4808202606802040)
(8202606808408060)
(2604204802804020)
(8604204602802060)
(4208602802604020)
(8602804204802080)
(7026208040646080)
(2042408020646020)
(8042408020848020)
(6042406080282080)
(9026208040626040)
(7042408020848020)
(3042408020646080)
(A046408026264848)
;
