#TITLE:PonPonPon;
#ARTIST:Kyary Pamyu Pamyu;
#FILE:PonPonPon.mp3;
#BPM:128.000;
#GAP:980;
#SAMPLESTART:75.960;
#SAMPLELENGTH:14.360;
#SINGLE:BEGINNER:1:
00000000
00000000
00000000
00000000
00000000
00000000
00000000
00000000
80000000
40000000
60000000
40000000
20000000
20000000
20002000
00202000
40404000
80004000
60606000
80006000
20202000
80002000
60606000
40002000
40404000
20004000
80808000
20006000
80808000
60004000
80808000
40002000
40008000
40006000
80002000
40006000
20008000
20006000
B0000000
20000000
40404000
60000000
80808000
60000000
20202020
20000000
80808080
80000000
B0000000
20004000
40000000
80002000
20000000
40006000
60000000
80002000
20000000
00000000
A0000000
;
#SINGLE:ANOTHER:6:
00000000
00000000
00000000
00000000
8!80000000
A!20000000
3!60000000
4!400000B0
20408020
60008080
60208040
20004040
70000000
B0000000
A000B00B
00202000
B0B00460
20804000
B0B00460
80602000
B0B00460
20804000
B0B00460
80602820
30604220
40802000
70406220
80206000
90604880
20608000
A0204660
28284640
24246!6000
38284!4000
B2628!80A!20
3!60B!402010
42428!8000
94642!2002
A0009000
40602840
A0A00220
82828280
B0B00660
46464640
10100220
42424240
90900660
86868620
6!60B!40B!603!20
A!80728!8000
9!60B!407!80A!20
3!60B62!2000
A!807!40B!609!80
A!20184!4000
B!60B!407!80A!20
32826428
6!60000000
00000060
B0000000
;
#SINGLE:MANIAC:10:
00000000
00000000
60204020
60008682
40604080
20008264
20806048
02062426
90020301
00248460
B008030B
00248460
A!20A00B!401
20408460
9020B088!8
00402090
B0B00460
42406260
70700480
24204640
A0A00280
26206460
90900680
24642860
10304620
82804240
B0908620
82624260
10702640
68486420
A0B08460
26426480
A2642!2080
A6284!4020
74686!603!20
A2684!4000
76282!2080
32846!6046
90001000
A0B02460
28284848
42624!4000
74846262
82642!2000
A6864242
86242!2000
A2826464
28624260
9010B070
82642!20A0
A0907030
42624!4010
A0B01030
86484!4010
90104624
28428648
2!20000000
80808080
A0000000
;
#SINGLE:BASIC:4:
00000000
00000000
00000000
00000000
00800080
00800080
00800080
00800080
A0006000
20008040
20004000
60008060
90000000
A0000000
10001000
00808000
20604020
40404000
80406080
60606000
80604080
20202000
80406080
602080B0
20202000
40804000
60606000
80608000
20202000
80208000
60606040
80402020
4!40001000
6!60003000
4!40007000
80206000
8!80009000
2!2000A000
B000B000
A0008020
60602020
40206000
40408080
40806000
80806060
80602000
80802020
80406000
70802020
80406040
10208080
60408020
A0804040
60806060
30604040
80206040
A!A0000000
000000A0
A0000000
;
