#VERSION:0.83;
#TITLE:Wild Wild West;
#SUBTITLE:;
#ARTIST:Will Smith;
#TITLETRANSLIT:;
#SUBTITLETRANSLIT:;
#ARTISTTRANSLIT:;
#GENRE:;
#ORIGIN:;
#CREDIT:;
#BANNER:;
#BACKGROUND:;
#PREVIEWVID:;
#JACKET:jacket.png;
#CDIMAGE:;
#DISCIMAGE:;
#LYRICSPATH:;
#CDTITLE:;
#MUSIC:Wild Wild West.ogg;
#OFFSET:0.020000;
#SAMPLESTART:45.373047;
#SAMPLELENGTH:14.694003;
#SELECTABLE:YES;
#BPMS:0.000=107.000;
#STOPS:115.000=0.841,
117.500=0.841,
120.000=0.841,
122.500=0.841;
#DELAYS:;
#WARPS:;
#TIMESIGNATURES:0.000=4=4;
#TICKCOUNTS:0.000=4;
#COMBOS:0.000=1;
#SPEEDS:0.000=1.000=0.000=0;
#SCROLLS:0.000=1.000;
#FAKES:;
#LABELS:0.000=Song Start;
#BGCHANGES:4.500=Wild Wild West.avi=1.000=0=0=1=====,
99999=-nosongbg-=1.000=0=0=0 // don't automatically add -songbackground-
;
#KEYSOUNDS:;
#ATTACKS:
;

//---------------dance-single - ----------------
#NOTEDATA:;
#CHARTNAME:;
#STEPSTYPE:dance-single;
#DESCRIPTION:;
#CHARTSTYLE:;
#DIFFICULTY:Hard;
#METER:7;
#RADARVALUES:0.405545,0.409746,0.141157,0.250945,0.058815,362.000000,344.000000,18.000000,32.000000,0.000000,0.000000,0.000000,0.000000,0.000000,0.405545,0.409746,0.141157,0.250945,0.058815,362.000000,344.000000,18.000000,32.000000,0.000000,0.000000,0.000000,0.000000,0.000000;
#CREDIT:Ben Speirs;
#NOTES:
0000
0000
0000
0000
,
0000
0000
0000
0000
,
0000
0000
0000
0000
,
0000
0100
0100
0100
,
0100
0010
1001
0000
0001
0100
0001
0000
,
1000
0000
0010
1000
0010
0000
0100
0001
,
1000
0000
0001
0010
0001
1000
0100
1000
,
0010
0010
0100
0100
0010
1000
0001
1000
,
0100
0000
1001
0100
1000
0001
1000
0001
,
0100
0000
0010
1000
0001
1000
0100
0100
,
0200
0000
0310
0001
1000
0001
0100
0010
,
1000
0000
0010
0100
0001
0000
0100
0001
,
1000
0001
0200
0000
0310
1000
0100
0100
,
0100
0000
1000
0001
1000
0100
0010
0010
,
0010
0000
0001
0010
0100
0010
0001
0100
,
0010
0100
0002
0000
0100
0000
0100
0000
,
1003
0000
0000
0000
1000
0000
0010
0100
0010
0000
1000
0000
0100
0000
0100
0000
,
0020
0000
0000
0000
0031
0000
0010
0100
0010
0000
0001
0000
0100
0000
0100
0000
,
0020
0000
1030
0010
1000
0001
0100
0001
,
1000
0100
0010
0000
0010
0000
0010
0100
,
0010
0001
0100
0100
2002
0000
3003
0000
,
0001
1000
0010
0010
2002
0000
3003
0000
,
1000
0001
0010
0010
2002
0000
3003
0000
,
0001
1000
0100
0100
2002
0000
3003
1000
,
0001
0100
0020
0000
1030
0000
2000
0000
,
3100
0000
0100
1000
0001
1000
0100
0010
,
0001
1000
0002
0000
0103
0000
0020
0000
,
1030
0000
1000
1100
0000
0110
0000
0011
,
0000
1001
1000
0001
0100
0010
1000
1000
,
0100
0010
0001
0100
0100
0001
0010
1000
,
0010
0010
0001
0100
1000
0100
0101
0001
,
1000
0000
0010
0000
0100
0000
0001
1000
0001
0000
0000
0000
1000
0000
0100
0000
,
1000
0010
0100
0001
1000
0001
0100
0010
,
1000
0100
0010
0010
0001
0000
1000
0100
,
1000
0010
1000
0020
0000
0000
0000
0000
0130
0000
0000
0000
0010
0000
1000
0000
,
0001
1000
0100
0100
0010
0000
0001
0010
,
0100
0000
1000
0001
1000
0000
0001
0000
0100
0000
0000
0000
0001
0100
0001
0000
,
0100
0010
1000
0100
0100
0000
1000
0010
,
1000
0002
0000
0000
0000
0000
0103
0100
,
0010
0000
1000
0000
0001
0010
0001
0010
0000
0000
0000
0000
0001
0000
0001
0000
,
0010
0000
0001
0000
1000
0010
1000
0010
0000
0000
0000
0000
1000
0000
0010
0000
,
0100
0000
0001
0000
1000
0000
1000
0100
0000
0000
0000
0000
0001
0000
0001
0100
,
0000
0000
0000
0000
1000
0000
1000
0010
0000
0000
0000
0000
1001
0000
0100
0000
,
1000
0001
1000
0001
0100
0000
1001
0100
,
0001
1000
0001
1000
0100
0000
2000
0010
,
3010
0000
0002
0010
0013
0000
0002
1003
,
0002
1003
0002
1003
0010
0100
0001
0001
,
2010
0000
3001
1000
0100
1000
0010
0010
,
0102
0000
1003
0010
1000
0100
0010
0010
,
2100
0000
3001
1000
0100
1000
0010
0010
,
0102
0000
1003
0001
0100
0010
2000
0000
,
0100
0000
3002
0000
0100
0000
1003
0100
,
0001
0100
1000
0010
0001
0010
2000
0000
,
0010
0000
3002
0000
0010
0000
0103
0100
,
1001
0000
0000
0000
0001
0000
1000
0000
0010
0000
0000
0100
0001
0000
0001
0000
,
1000
0000
0000
0000
;

//---------------dance-single - ----------------
#NOTEDATA:;
#CHARTNAME:;
#STEPSTYPE:dance-single;
#DESCRIPTION:;
#CHARTSTYLE:;
#DIFFICULTY:Challenge;
#METER:9;
#RADARVALUES:0.629603,0.690099,0.305839,0.101946,0.729309,562.000000,523.000000,39.000000,13.000000,0.000000,0.000000,0.000000,0.000000,0.000000,0.629603,0.690099,0.305839,0.101946,0.729309,562.000000,523.000000,39.000000,13.000000,0.000000,0.000000,0.000000,0.000000,0.000000;
#CREDIT:Ben Speirs;
#NOTES:
0000
0000
0000
0000
,
0000
0000
0000
0000
,
0000
0000
0000
0000
,
0000
0000
0000
0000
0100
0000
0000
0000
0010
0100
0010
0000
0100
0010
0100
0010
,
0100
0000
1100
0000
0102
0000
0000
0000
1003
0000
0100
0000
1000
0010
0000
0010
,
0100
0001
0000
0000
1000
0000
0100
1000
0000
0100
0000
1000
0001
0000
1000
0000
,
0010
0100
0000
0000
0001
0100
0001
0000
1000
0000
0010
0100
0010
0000
1000
0100
,
1000
0100
0010
0000
0001
0010
0001
0000
1000
0000
0001
0000
1000
0010
1000
0001
,
1000
0000
0001
0000
0100
0000
0001
0010
0100
0000
1000
0100
1000
0000
0010
0000
,
0010
0000
1000
0001
1000
0001
0100
0000
0001
0000
1000
0010
1000
0000
1010
0000
,
0101
0000
0000
0000
0001
0000
0010
0100
1000
0000
0001
0100
0001
0000
1000
0100
,
0000
0000
1000
0001
1000
0000
0010
0100
0001
0000
1000
0010
1000
0010
0100
0001
,
0000
0000
0001
0010
0100
1000
0000
0000
0000
0001
0100
0001
1000
0000
0001
0100
,
0000
0000
0010
1000
0010
0100
0010
0100
0001
0000
1000
0100
0010
0000
0001
1000
,
0000
0001
0010
0001
0010
0000
0100
0000
1000
0001
1000
0000
0010
0100
0001
0100
,
0000
0000
0010
0000
0010
0000
1000
0100
0010
0001
0000
1000
0100
1000
0100
1000
,
0000
0000
0001
0000
0100
0010
0100
1000
0100
0000
0010
1000
0100
0000
0100
0000
,
0210
0000
0000
0000
0310
0100
0001
0100
0010
0000
0100
0000
0010
0001
1000
0000
,
2001
0000
0000
0000
3001
0010
0100
0010
0001
0000
1000
0000
0010
0100
0001
1000
,
0010
0000
0100
0002
0000
0000
0000
0000
0100
0000
0000
0000
0103
0000
0110
0000
,
1001
0000
1000
0100
0010
0000
0010
0000
1002
0000
0000
0000
0003
1000
0100
1000
,
0000
0001
0010
0001
0100
0000
0100
0000
2001
0000
0000
0000
3000
0001
0010
0001
,
0000
1000
0100
1000
0010
0000
0010
0000
0102
0000
0000
0000
1003
0010
0100
0010
,
0000
1000
0001
1000
0100
0000
0100
0000
2010
0000
0000
0000
3100
0000
1000
0000
,
0010
0000
0100
0000
0001
0010
0100
0000
1100
0000
0000
0000
1000
0010
0100
0000
,
0101
0000
0000
0000
0001
0010
0100
0000
1000
0010
0100
0001
1000
0000
0001
0000
,
0010
0000
0100
0000
1000
0010
0100
0000
1010
0000
0000
0000
0001
0010
0100
0000
,
0011
0000
1000
1010
0101
0011
1100
0101
,
1010
0000
0011
0000
0001
0010
0100
1000
0010
0100
0001
1000
0010
0000
0010
0100
,
0001
0010
0100
1000
0010
0100
0001
0000
0001
0100
1000
0100
0010
1000
0100
0010
,
0001
0000
0001
1000
0100
1000
0010
0100
1000
0100
0010
0000
1000
0000
0100
0000
,
0010
0001
0100
0000
0001
1000
0001
1000
0001
0100
0000
0000
0010
1000
0000
1000
,
0100
0000
0010
0000
0001
1000
0001
1000
0001
0000
0100
0000
0010
0000
1000
0100
,
0010
0000
0001
0100
0001
1000
0001
0010
0000
0000
0001
0010
0100
0000
1000
0000
,
0010
0000
1000
0001
1000
0100
0000
0100
0000
0000
1000
1100
0000
0101
0000
1000
,
0020
0000
0130
0001
1000
0001
0010
0100
0000
0000
1000
0100
1000
0000
0001
0100
,
0001
0000
1000
0010
1000
0001
0010
0100
0000
0000
1000
0010
1000
0001
0010
0100
,
1000
0000
0001
0000
0000
1000
0001
0000
0100
0001
0000
1000
0010
0000
0100
0000
,
0001
1000
0001
0000
0000
0000
0000
0000
0000
0000
0000
0000
1100
0000
0100
0000
,
1000
0000
0010
0000
0100
0001
1000
0001
0100
0000
0010
0000
1000
0000
0100
0000
,
0010
0000
0001
0000
1000
0100
1000
0001
0100
0000
0010
1000
0010
0000
1000
0000
,
0100
0000
1000
0100
1000
0100
1000
0001
0000
0000
0001
0100
0001
0100
0001
1000
,
0000
0000
0001
0010
0100
0010
0100
0010
0100
0010
0001
0000
1000
0100
0010
0100
,
1000
0010
0100
0010
0000
0000
0100
0000
0100
0001
1000
0001
0000
0000
1000
0100
,
1000
0001
1000
0001
0000
0000
0001
0100
0001
1000
0001
1000
0010
0100
0000
0010
,
0100
0000
0001
0000
1000
0000
0000
0000
0001
0000
1000
0100
0010
0000
0000
0001
,
1000
0001
0000
1000
0010
0000
0000
0000
0110
0000
0000
0000
0100
0000
0100
0000
,
2001
0000
0000
0000
3000
0001
0010
0001
0000
1000
0100
1000
0010
0000
0010
0000
,
1002
0000
0000
0000
0003
1000
0100
1000
0000
0001
0010
0001
0100
0000
0100
0000
,
2010
0000
0000
0000
3001
0100
0010
0100
0000
0001
1000
0001
0010
0000
0010
0000
,
0102
0000
0000
0000
0013
0000
0001
0000
0100
0000
0010
0000
1000
0100
0010
0000
,
0011
0000
0000
0000
0001
0100
0010
0000
1010
0000
0000
0000
1000
0100
0010
0000
,
0001
0100
0010
1000
0001
0000
1000
0000
0100
0000
0010
0000
0001
0100
0010
0000
,
0101
0000
0000
0000
1000
0100
0010
0000
1100
0000
0000
0000
1010
0000
0101
0000
,
1001
0000
0001
0010
0000
0100
0000
0000
0000
0000
0000
1000
0001
0000
0100
0000
,
1001
0000
0000
0000
;

//---------------dance-double - ----------------
#NOTEDATA:;
#CHARTNAME:;
#STEPSTYPE:dance-double;
#DESCRIPTION:;
#CHARTSTYLE:;
#DIFFICULTY:Challenge;
#METER:8;
#RADARVALUES:0.500770,0.496008,0.211735,0.086262,0.250945,447.000000,420.000000,27.000000,11.000000,0.000000,0.000000,0.000000,0.000000,0.000000,0.500770,0.496008,0.211735,0.086262,0.250945,447.000000,420.000000,27.000000,11.000000,0.000000,0.000000,0.000000,0.000000,0.000000;
#CREDIT:Ben Speirs;
#NOTES:
00000000
00000000
00000000
00000000
,
00000000
00000000
00000000
00000000
,
00000000
00000000
00000000
00000000
,
00000000
00002000
00010000
00010000
,
00013000
00000000
00001000
00000000
00210000
00000000
00000000
00000000
00310000
00000000
00100000
00000000
01000000
00000000
10000000
00100000
,
10000000
00000000
00100000
10000000
01000000
00100000
00010000
01000000
,
00010000
10000000
00010000
00000000
01000000
00000000
00100000
00000000
10000000
00000000
01000000
10000000
01000000
00000000
00100000
00000000
,
00010000
01000000
00010000
00000000
01000000
00000000
00001000
00000000
00010000
00000000
00000100
00000000
00001000
00000000
00000010
00000000
,
00000100
00000000
00000100
00000000
00000001
00000001
00000010
00000000
00000100
00000000
00001000
00000000
00000001
00000000
00001000
00000000
,
00000010
00000000
00000000
00000000
00001000
00001000
00000100
00000000
00001000
00000000
00000010
00000010
00000100
00000000
00000001
00000000
,
00001000
00000000
00000000
00000000
00000001
00000000
00000010
00000000
00000100
00000000
00001000
00000000
00000010
00000100
00000010
00000000
,
00000100
00000000
00000001
00000100
00001000
00010000
00100000
10000000
,
02000000
00000000
00000000
00000000
03100000
00000000
00010000
00000000
10000000
00000000
00100000
00000000
01000000
00010000
01000000
00010000
,
00000000
00000000
01000000
00000000
00100000
00000000
10000000
00000000
00010000
00000000
00100000
00000000
01000000
10000000
01000000
10000000
,
00000000
00100000
10000000
00010000
01000000
00100000
01000000
00010000
,
00100000
00001000
00020000
00000000
00001000
00000000
00031000
00000000
,
00011000
00000000
00000000
00000000
00000100
00001000
00000100
00001000
00000100
00000000
00000010
00000000
00000001
00000000
00000100
00000000
,
00000100
00000000
00000000
00000000
00000010
00001000
00000010
00001000
00000010
00000000
00001000
00000000
00000100
00001000
00000100
00000000
,
00020000
00000000
00000000
00000000
00031000
00000000
00100000
00000000
00010000
00000000
01000000
00000000
00100000
10000000
00100000
10000000
,
00100000
01000000
00020000
00000000
01000000
00000000
00100000
00000000
,
10030000
00000000
00000000
00000000
10000000
00000000
01000000
00000000
10020000
00000000
00000000
00000000
00030000
10000000
01000000
10000000
,
00000000
00010000
01000000
00010000
10000000
00000000
10000000
00000000
10020000
00000000
00000000
00000000
00000000
10030000
01000000
10000000
,
00000000
00010000
01000000
00010000
00100000
00000000
00100000
00000000
00102000
00000000
00000000
00000000
00000000
00103000
00001000
00100000
,
00000000
00001000
00010000
00001000
00010000
00000000
00010000
00000000
00010200
00000000
00000000
00000000
00001300
00000000
00000010
00000000
,
00000100
00000000
00000001
00000000
00001000
00000100
00001000
00000000
00000001
00000000
00001000
00000000
00000010
00000100
00000010
00000000
,
00001000
00000000
00000001
00000000
00001000
00000100
00001000
00000000
00000001
00000100
00000001
00000100
00001000
00000000
00000100
00000000
,
00000010
00000000
00001000
00000000
00000100
00001000
00000100
00000000
00010000
00000000
00001000
00000000
00100000
00010000
00100000
00000000
,
00001000
00000000
00010000
00000000
00100000
10000000
00100000
00000000
10000000
01000000
10000000
00000000
01000000
00100000
01000000
00000000
,
00100000
00010000
00100000
00000000
00010000
00000000
10000000
00000000
00100000
00000000
01000000
00010000
10000000
00000000
10000000
00000000
,
00010000
00000000
00100000
00000000
00010000
01000000
00001000
00000000
00001000
00000000
00010000
00000000
00000100
00000000
00001000
00000010
,
00000100
00000000
00000100
00000000
00000001
00000000
00001000
00000000
00000100
00010000
00001000
00000000
00101000
00000000
00100000
00000000
,
00010000
00000000
10000000
00000000
00100000
00000000
01000000
00100000
01000000
00000000
00000000
00000000
00010000
00000000
01000000
00000000
,
00100000
00000000
10000000
00000000
01000000
00100000
01000000
00000000
10000000
00000000
00010000
00000000
00100000
00000000
00100000
00000000
,
00001000
00100000
00010000
01000000
00100000
10000000
01000000
00100000
,
01000000
00100000
01000000
00100000
10010000
00000000
11000000
00010000
,
10000000
00000000
00100000
00000000
01000000
00010000
01000000
00010000
10000000
00000000
00010000
00000000
01000000
00000000
00100000
00000000
,
10000000
00000000
01000000
00000000
00100000
00001000
00100000
00001000
00000000
00000000
00100000
00000000
00001000
00000000
00010000
00000000
,
00000100
00001000
00000010
00000100
00000010
00001000
00000200
00000000
,
00000010
00000000
00000000
00000000
00000000
00000000
00000310
00000001
,
00001000
00000000
00000010
00000000
00001000
00000100
00010000
00000100
00000000
00000000
00001000
00000000
00000010
00000000
00000100
00000000
,
00000010
00000000
00001000
00000000
00000100
00010000
00001000
00010000
00000000
00000000
00001000
00000000
00100000
00000000
00010000
00000000
,
01000000
00000000
00100000
00000000
10000000
01000000
10000000
01000000
00000000
00000000
00100000
00000000
00010000
01000000
00010000
01000000
,
00000000
00000000
00100000
00000000
00100000
00000000
10010000
10000000
,
01000000
10000000
00100000
01000000
00010000
00000000
00011000
00010000
,
00000100
00001000
00000010
00000100
00000001
00000000
00001001
00000001
,
00001000
00000100
00000010
00000001
00001000
00000010
00000100
00000010
,
00000100
00000001
00000010
00000000
00000010
00000000
00000011
00000110
,
00001001
00000000
00001000
00000001
00000100
00000010
00001010
00001100
,
00010100
00000000
00001000
00010000
00001000
00100000
00110000
01100000
,
10010000
00000000
10000000
00010000
01000000
00100000
10100000
01100000
,
10010000
00000000
10000000
00100000
01000000
00010000
10000000
01000000
,
00100000
00000000
00010000
00000000
00001000
00000000
00000100
00000000
00000010
00000000
00000001
00000000
00001000
00000001
00001000
00000000
,
00000001
00001000
00000001
00001000
00000001
00000000
00001000
00000000
00001000
00000000
00001000
00000000
00000001
00000000
00000010
00000000
,
00000100
00001000
00010000
00100000
01000000
10000000
01010000
11000000
,
10010000
00000000
00000000
00000000
10000000
00000000
00000000
00000000
00000000
00000000
00000000
00010000
01000000
00000000
00001000
00000000
,
00010000
00000000
00000000
00000000
;

//---------------dance-single - ----------------
#NOTEDATA:;
#CHARTNAME:;
#STEPSTYPE:dance-single;
#DESCRIPTION:;
#CHARTSTYLE:;
#DIFFICULTY:Medium;
#METER:5;
#RADARVALUES:0.299117,0.388180,0.117630,0.266629,0.000000,267.000000,252.000000,15.000000,34.000000,0.000000,0.000000,0.000000,0.000000,0.000000,0.299117,0.388180,0.117630,0.266629,0.000000,267.000000,252.000000,15.000000,34.000000,0.000000,0.000000,0.000000,0.000000,0.000000;
#CREDIT:Ben Speirs;
#NOTES:
0000
0000
0000
0000
,
0000
0000
0000
0000
,
0000
0000
0000
0000
,
0000
0010
0010
0010
,
0010
1002
0103
0001
,
1000
0000
0010
0000
1000
0000
0100
0100
,
0100
1000
0001
1000
,
0100
0000
0010
0001
0100
0000
0010
0000
,
0010
0000
0100
0001
1000
0000
0100
0100
,
0100
0000
1000
0001
0100
0000
0010
0010
,
0010
0000
2000
0000
3100
0000
1000
0001
,
1000
0000
0002
0000
0103
0000
0001
1000
,
0001
0000
1010
0000
0100
0000
0010
0001
,
0100
0000
0011
0000
1000
0000
0010
1000
,
0100
0000
1000
0001
1000
0001
0100
0010
,
1000
0000
0001
1000
0001
0000
1000
0100
,
1000
0000
0010
0100
0001
0100
0010
0010
,
0000
0000
1000
0010
1000
0000
0100
0100
,
0100
0000
1000
0001
1000
0000
0100
0010
,
0001
0200
0010
0010
,
0310
0000
0100
0001
2000
0000
3100
0000
,
1000
0000
0010
1000
0002
0000
0013
0000
,
0001
0000
0100
0001
2000
0000
3010
0000
,
1000
0000
0100
1000
0002
0000
0013
0000
,
0001
2020
3030
0022
,
0033
0000
0200
0000
0320
0000
0130
0001
,
0010
0100
2200
0000
3300
0000
0022
0000
,
0033
0000
1000
0001
1000
0001
1000
0100
,
0010
0001
1000
1000
1000
0100
0100
0010
,
0010
0010
0001
0001
1000
1000
1000
0010
,
0010
0100
0100
0100
0001
1000
1001
0000
,
1000
0000
0010
1000
0100
0000
1000
0100
,
1000
0000
0010
0010
0010
0000
0100
0000
,
0100
0000
0001
1000
0001
0000
0002
0000
,
0100
0000
0100
0000
0103
0000
0100
0001
,
1000
0001
0010
0100
1000
0000
0100
0000
,
0100
0000
1000
0001
1000
0000
0000
0000
,
0110
0000
1001
0000
,
0100
0100
0000
0000
0000
0000
1000
0000
,
0001
0000
0010
0200
0000
0000
1300
0000
,
0010
0000
0100
0002
0000
0000
1003
0000
,
0001
0000
0100
0010
1000
0000
0200
0000
,
0000
0000
0300
1000
,
0101
0010
0001
0010
,
1100
0010
1000
0010
,
0101
0000
1000
0000
0001
0000
1000
0100
,
1000
0000
0010
0000
0010
0000
1000
0001
,
0200
0000
0310
0000
0100
0000
0001
0010
,
0200
0000
1300
0000
0001
0000
1000
0010
,
0200
0000
0301
0000
1000
0000
0010
1000
,
0200
0310
0001
2200
,
3300
0022
0033
2000
,
3002
0000
0103
0001
1000
0000
0020
0000
,
0130
0000
0200
0000
0301
0000
1000
1000
,
0100
0000
0001
0000
0000
0000
1000
0010
,
0100
0000
0000
0000
;

//---------------dance-single - ----------------
#NOTEDATA:;
#CHARTNAME:;
#STEPSTYPE:dance-single;
#DESCRIPTION:;
#CHARTSTYLE:;
#DIFFICULTY:Easy;
#METER:3;
#RADARVALUES:0.179246,0.237221,0.023526,0.078420,0.000000,160.000000,157.000000,3.000000,10.000000,0.000000,0.000000,0.000000,0.000000,0.000000,0.179246,0.237221,0.023526,0.078420,0.000000,160.000000,157.000000,3.000000,10.000000,0.000000,0.000000,0.000000,0.000000,0.000000;
#CREDIT:Ben Speirs;
#NOTES:
// measure 0
0000
0000
0000
0000
,  // measure 1
0000
0000
0000
0000
,  // measure 2
0000
0000
0000
0000
,  // measure 3
0000
0010
0000
0010
,  // measure 4
0000
1001
0000
1000
,  // measure 5
0000
0010
1000
0100
,  // measure 6
0100
0010
0000
0001
,  // measure 7
0000
1000
0001
0100
,  // measure 8
0100
0010
0010
2000
,  // measure 9
3000
0001
0001
0200
,  // measure 10
0300
0001
0001
2000
,  // measure 11
3000
1000
0000
1000
,  // measure 12
0000
0100
0100
0010
,  // measure 13
0000
0010
0001
1000
,  // measure 14
0000
0010
0010
0100
,  // measure 15
0000
2002
0000
0000
,  // measure 16
3003
0000
0001
0000
0100
0000
0010
0010
,  // measure 17
0000
0000
1000
0000
0100
0000
0010
0010
,  // measure 18
0000
0001
1000
0010
,  // measure 19
0010
0200
0000
0000
,  // measure 20
0300
0000
0001
0001
0100
0000
0000
0000
,  // measure 21
0000
0000
0001
0001
0010
0000
0000
0000
,  // measure 22
0000
0000
1000
1000
0100
0000
0000
0000
,  // measure 23
0000
0000
1000
1000
0010
0000
0000
0000
,  // measure 24
0000
1000
0000
0001
,  // measure 25
0000
0100
0010
0100
,  // measure 26
0100
0001
0000
1000
,  // measure 27
0000
0100
0010
0100
,  // measure 28
1000
0000
0010
0000
0100
0000
0001
0001
,  // measure 29
0000
1000
0000
0100
0100
0000
1000
0000
,  // measure 30
0010
0010
0000
0100
0000
0001
1000
0000
,  // measure 31
1000
0100
0000
0100
,  // measure 32
0100
0010
0000
0010
,  // measure 33
0001
1000
0001
0100
,  // measure 34
0100
0010
0000
1000
,  // measure 35
1000
0020
0030
0100
,  // measure 36
0100
0002
0003
1000
,  // measure 37
1000
0200
0300
0010
,  // measure 38
0010
0000
0000
0001
,  // measure 39
1000
0010
0010
0100
,  // measure 40
0001
2000
3000
0001
,  // measure 41
1000
1000
0100
0100
,  // measure 42
0000
0000
0000
1001
,  // measure 43
0000
1000
0010
0010
,  // measure 44
0000
0100
0000
0001
,  // measure 45
1000
0100
0000
1000
,  // measure 46
0001
0000
0100
0000
0000
0000
0001
0001
,  // measure 47
0010
0000
0000
0000
0000
0000
1000
1000
,  // measure 48
0010
0000
0000
0000
0000
0000
0001
0001
,  // measure 49
0100
0000
0000
0000
0000
0000
1000
1000
,  // measure 50
0100
0000
0000
1000
,  // measure 51
0000
0001
0000
0100
,  // measure 52
0010
0100
0100
0001
,  // measure 53
0000
0000
1000
0000
0000
0000
0100
0100
,  // measure 54
0100
0000
0000
0000
0000
0000
0010
0010
,  // measure 55
0010
0000
0000
0000
;

//---------------dance-single - ----------------
#NOTEDATA:;
#CHARTNAME:;
#STEPSTYPE:dance-single;
#DESCRIPTION:;
#CHARTSTYLE:;
#DIFFICULTY:Beginner;
#METER:1;
#RADARVALUES:0.112029,0.150959,0.047052,0.000000,0.000000,100.000000,94.000000,6.000000,0.000000,0.000000,0.000000,0.000000,0.000000,0.000000,0.112029,0.150959,0.047052,0.000000,0.000000,100.000000,94.000000,6.000000,0.000000,0.000000,0.000000,0.000000,0.000000,0.000000;
#CREDIT:Ben Speirs;
#NOTES:
// measure 0
0000
0000
0000
0000
,  // measure 1
0000
0000
0000
0000
,  // measure 2
0000
0000
0000
0000
,  // measure 3
0000
0010
0000
0010
,  // measure 4
0000
1001
0000
0000
,  // measure 5
0000
1000
1000
0000
,  // measure 6
0000
0010
0000
0010
,  // measure 7
0000
0010
0000
0000
,  // measure 8
0000
0100
0100
0000
,  // measure 9
0000
0001
0001
0000
,  // measure 10
0000
1000
0000
1000
,  // measure 11
0000
1000
0000
0000
,  // measure 12
0000
0010
0010
0000
,  // measure 13
0000
0010
0010
0000
,  // measure 14
0000
0100
0100
0000
,  // measure 15
0000
0100
0000
0000
,  // measure 16
0000
0001
0000
0001
,  // measure 17
0000
1000
0000
1000
,  // measure 18
0000
0010
0010
0000
,  // measure 19
0000
1001
0000
0000
,  // measure 20
0000
0100
0100
0000
,  // measure 21
0000
0010
0010
0000
,  // measure 22
0000
0001
0001
0000
,  // measure 23
0000
1000
1000
0000
,  // measure 24
0000
1001
0000
0000
,  // measure 25
0000
0010
0010
0010
,  // measure 26
0000
1001
0000
0000
,  // measure 27
0000
0100
0100
0100
,  // measure 28
0000
0001
0000
0001
,  // measure 29
0000
0000
0000
1000
0000
0000
0000
0000
,  // measure 30
0010
0000
0000
0000
0000
0100
0000
0000
,  // measure 31
0000
0000
0000
0001
,  // measure 32
0001
0001
0000
0001
,  // measure 33
0000
0000
0000
1000
,  // measure 34
0000
0000
0000
0010
,  // measure 35
0010
0000
0000
0100
,  // measure 36
0100
0000
0000
0001
,  // measure 37
0000
0001
0000
0001
,  // measure 38
0001
0000
0000
1000
,  // measure 39
1000
0000
0000
0100
,  // measure 40
0100
0000
0000
1000
,  // measure 41
0000
1000
0000
1000
,  // measure 42
0000
0000
0000
1001
,  // measure 43
0000
0000
0000
0010
,  // measure 44
0010
0000
0000
0010
,  // measure 45
0010
0000
0000
0100
,  // measure 46
0000
0000
0000
0001
,  // measure 47
0001
0000
0000
1000
,  // measure 48
1000
0000
0000
0010
,  // measure 49
0010
0000
0000
0010
,  // measure 50
0010
0000
0000
1001
,  // measure 51
0000
1000
0000
0100
,  // measure 52
0100
0100
0000
1000
,  // measure 53
0000
1000
0000
0001
,  // measure 54
0000
0000
0000
0100
,  // measure 55
0100
0000
0000
0000
;
