#TITLE:Omakase Guardian;
#ARTIST:Guardians 4;
#FILE:Omakase Guardian.mp3;
#BPM:166.960;
#GAP:300;
#SAMPLESTART:57.800;
#SAMPLELENGTH:14.360;
#CHANGEBPM:576.000=83.480,608.000=166.960;
#SINGLE:MANIAC:12:
00000000
00000000
00000000
00000000
88040204
06020842
20460208
48268640
24246208
28484000
62628402
828!809!6060
22848406
62828000
44282804
462!20A!8080
B!40106820
46482000
3!60B02460
48684000
A!20A26040
64246000
7!40B04620
82684000
90020080
40240828
40060020
30840246
80620420
84286000
40680280
48628000
A!203!60B!407!80
9!609!80A!2030
9020B080
A2684824
(8264286242842864)
(8040208062426848)
A!20A03!6030
82642460
42624084
68482!2020
3!60B24482
68286000
70309010
68426000
A!80A07!4070
28468640
68486026
42628!8080
7!40B86628
42824000
30701090
42684000
A!A0A03!3030
84628022
6!60304!4010
84286480
4!40706!6090
46284620
80A06010
462080B0
10706420
48684020
10307030
8428B000
;
#SINGLE:ANOTHER:8:
00000000
00000000
00000000
00000000
80004000
20008060
20006000
80604000
20402400
60206000
80208200
4060B000
80408400
60206000
20802800
40807000
60402080
60424000
80406020
80262000
80406080
20462000
80206040
60824000
80804020
80806040
80804060
42862000
60602080
40402040
60608020
46284000
8!807!401!20A!80
9!603!20A!807!40
10204040
80802020
6!603!20A!807!40
14682480
A0A0B0B0
24242000
40208060
40802000
A0A03030
26262000
A000B000
4060B000
70703030
42424000
80406080
20428000
B0B03030
48284000
20204040
84248000
40402020
86828000
60408020
80402000
40208060
20804000
60408260
40604000
1000A000
B0901000
70003000
84286000
;
#SINGLE:BASIC:5:
00000000
00000000
00000000
00000000
80008000
80008020
80008000
80808000
40002000
40602000
60004000
60802000
40006000
40802000
80004000
20806000
40402020
40402000
80806060
80806000
20208080
20208000
40406060
40406000
40004000
80406000
20002000
60802000
40006000
40802000
80004000
60402000
40402020
80806060
20008000
40006000
B!B00000B0
80402220
40406060
20208000
20006000
40006000
80002000
40008000
40006000
20202000
80804040
60606000
80006000
40002000
40008000
20006000
40006000
80808000
B000B000
A000A000
20202020
20000000
80808080
80000000
40404040
40000000
60008000
60406000
40008000
40204000
;
#SINGLE:BEGINNER:1:
00000000
00000000
00000000
00000000
80000000
00000000
20000000
20000000
A0000000
40000000
60000000
80008000
80000000
60000000
40000000
20002000
20000000
40000000
80000000
40000000
60000000
80000000
60000000
20202000
20000000
80000000
20000000
60000000
40000000
20000000
40000000
80808000
40000000
00000000
60006000
60006000
B0000000
80008000
A0000000
20202000
00000000
80008000
80000000
40000000
60006000
60000000
40000000
20202000
00000000
40000000
80000000
80000000
20002000
20000000
60006000
60000000
80000000
80000000
60000000
60000000
20000000
20000000
80008000
80000000
40004000
40000000
;
