#TITLE:Walkie Talkie Man;
#ARTIST:Steriogram;
#FILE:Walkie Talkie Man.mp3;
#BPM:140.940;
#GAP:540;
#SAMPLESTART:29.540;
#SAMPLELENGTH:14.360;
#FREEZE:384.000=10.000;
#SINGLE:BEGINNER:1:
00000000
00000000
00000000
00000000
00000000
80008000
80008000
20002000
20002000
40000000
60000000
20002000
20000000
80000000
40000000
60000000
40004000
40000000
20202000
00000000
80008000
80000000
60606000
00000000
40000000
B0000000
20000000
80000000
20000000
40004000
00000000
60006000
00000000
20002000
00000000
80008000
80000000
40004000
40004000
40004000
40000000
60006000
60006000
60006000
60000000
20000000
80000000
40000000
60006000
60000000
20000000
80000000
B0000000
;
#SINGLE:ANOTHER:7:
00000000
00000000
00000000
00000000
00000000
80402460
26408260
80604820
84208620
80804040
20208080
62604240
82804640
80804040
60602020
82804640
10103030
8!8040A000
46406!6030
80206260
40204!4010
40802084
20806!6030
80264020
46080602
80402080
6!60304!4010
80408020
64640640
20004000
80002000
80004000
60004060
80006000
20008000
20006000
B0000000
20408020
68208620
80406020
84204280
64604640
82802820
60208260
42428686
40208060
20802828
20604080
20064646
20804060
40802840
60402080
B!B0000000
00000000
00000000
00000000
00000000
[000000B00000000A000000A0]
;
#SINGLE:MANIAC:12:
00000000
00000000
00000000
00000000
00000646
28424826
48626828
62484286
48264620
48264826
46284628
42424646
26260301
24826428
64868424
82642462
30108822
A0301064
10B030B0
80264286
01046622
80A03048
20A07010
40682462
03010B0A
84246242
84262482
68486482
6!60000000
32087000
66023000
44021000
88028264
22041000
(6060002030020020)
08802642
10886622
84262482
84286486
84246242
68286482
64286482
88442482
68486482
0A036644
24828428
64868424
82842482
64826622
68286482
84262482
84246284
B!B0000000
00000000
00000000
00000000
00000000
[000000B000000000A00000A0]
;
#SINGLE:BASIC:3:
00000000
00000000
00000000
00000000
00000000
80004000
20202000
40006000
80808000
60208040
20406020
80206080
20408000
40802060
40608020
40802080
40602000
80402000
40602000
60802000
80604000
80206000
20804000
60402000
40802060
20208080
40406060
40402020
8!80000080
60003000
40001000
8000A000
20003000
4000B000
60009000
2000A000
B0000000
20408020
60802040
80208040
60806000
20604020
80604080
20804060
40002020
20004000
80004000
60008000
60208040
20004000
60008060
20008000
B!B0000000
00000000
00000000
00000000
00000000
[000000B00000000A000000A0]
;
#SINGLE:SMANIAC:16:
00000000
00000000
00000000
00000000
00000646
(2080402420408026)
(2080406460802040)
(8020604240802064)
62848260
(4242828246462626)
(8282626248482620)
(6824804028642086)
(80280280201000B0)
(2846208026428060)
(4084826824828000)
(46408020642040A0)
3070AA77
20642048
(6080402828208020)
80682482
(642000407070B0B0)
30826082
(4060406262602060)
40248264
210B0A03
28462842
86486842
48428628
4!48880870
(8040006030000082)
(80800020A0000026)
(40400080A0000004)
(2020004060860860)
(2020008070000026)
(40400080A0030070)
02203002
B077BB33
(6868282864648484)
(2828484862628480)
(4286206082468024)
(2082082080646000)
(8264802084682040)
(6026284286282062)
(6460208046064080)
0A031B7A
32842482
68486424
82682482
6408AABB
24826424
(6020804286408020)
62842862
A!A0000000
00000000
00000000
00000000
00000000
[000000A00000000B000000B0]
;
#COUPLE:MANIAC:15:
00000000
:
00000000
;
