#TITLE:Kiss Kiss;
#ARTIST:Holly Valence;
#FILE:Kiss Kiss.mp3;
#BPM:194.000;
#GAP:-403;
#SAMPLESTART:94.848;
#SAMPLELENGTH:14.980;
#SINGLE:BEGINNER:1:
00000000
00000000
00000000
00000000
00000000
00000000
00000000
00000000
00000000
40000000
60000000
40000000
60000000
20000000
80000000
20000000
80000000
B0000000
20000000
40004000
40000000
20000000
40000000
80000000
60006000
60000000
40000000
20000000
40004000
80000000
40000000
60000000
80008000
80000000
00000000
60006000
60000000
20002000
20000000
60006000
60000000
40004040
00000000
20002000
20000000
40004000
40000000
80008000
80000000
40004040
00000000
60000000
40000000
60000000
40000000
80000000
20000000
80000000
20000000
60000000
40000000
20000000
40004000
20000000
40000000
60000000
80008000
60000000
40000000
80000000
40002000
40000000
80000000
40000000
60002000
60000000
20000000
80008000
80000000
40004000
40000000
60006000
60000000
80008080
00000000
80008000
80000000
20002000
20000000
40004000
40000000
60006060
;
#SINGLE:ANOTHER:9:
00000000
00000000
00000000
00000000
00000000
00400400
00000000
00600600
00000000
20802080
40204620
80208020
60208460
40204020
80604620
80206040
B0000000
20402040
80208020
60206020
A030B000
20402040
80408040
60206020
30A0B000
80406020
84048020
60402080
6420B000
80206040
84048020
60208040
1020B060
A0602040
80000000
40028004
20806000
20068002
40802000
60042004
80206000
82864620
00000000
80048002
60402000
80068002
40802000
80042004
60208040
24248260
00000000
80208020
60208420
80208020
40602840
60208040
20806820
40802080
40000000
60020080
40020040
80020060
30B01000
40020080
60020080
40060040
A0109000
20804060
28208280
40604020
86806860
20802060
42404240
80406020
80206040
20202020
4!40000000
70402040
82828040
60402080
62626080
60408020
84848026
28264280
00000000
60802040
24242040
80206040
84848020
80406080
28282086
82462840
;
#SINGLE:MANIAC:12:
00000000
00000000
00000000
00000000
00000000
80700B00
80020060
00300B00
20040000
84802620
84846460
82804240
62628280
42406860
48482820
62604240
B0020080
40240080
40828460
40620040
A0307000
80260040
20484620
80206280
10B0A000
4!4000B!6000
38264820
6!6000B!4000
14846280
2!2000A!8000
78284680
2!20001!4000
70026004
203070A0
B0020020
80842028
68686028
40482026
42424082
60684048
62626082
62846280
00A0A000
60628084
28282048
20284046
84848062
80826064
24242084
24826840
00A0B000
84802620
64642820
42408280
42428680
62604240
82826260
82628460
10030000
80424080
26284020
42468280
B0307000
28264080
42406260
42482680
A0901000
8!8000A!2000
34042040
A070B0A0
9010B000
8!8000A!2000
32026040
80208040
10A090B0
7030A0B0
20020080
60682024
82828046
20284046
84848068
20248084
64646042
62482640
00B0B000
60682024
82828042
80862028
46464024
60684048
28282042
86284620
;
#SINGLE:BASIC:6:
00000000
00000000
00000000
00000000
00000000
00400400
00000000
00600600
00000000
80004000
20406040
80004000
60802040
80004000
20408020
60002080
00000000
40002000
40006000
80602080
40404000
20004000
60004000
80402080
60606000
20002000
80804060
20002000
80406000
20002000
80804060
20002000
80004000
60406040
60000000
40002000
80608000
60002000
80408000
20008000
40604000
2040802!20
00603000
80002000
60208000
40006000
40208000
60004000
80402000
4080206!60
00203000
80002000
60402040
60008000
60802040
80004000
80402080
60002000
80000000
20802080
40804080
40604060
20202000
60806080
20802080
20402040
80808000
40006000
20208080
40006000
40002000
40008000
20206060
40008000
40002000
80006000
B0000000
80402040
60606080
60208040
20202080
60208020
40404020
6040208!80
0020A000
80604080
40404020
40802080
40404020
80602060
80808040
80602080
;