#TITLE:Murder on the Dancefloor;
#ARTIST:Sophie Ellis-Bextor;
#FILE:Murder on the Dancefloor.mp3;
#BPM:117.300;
#GAP:1730;
#SAMPLESTART:52.840;
#SAMPLELENGTH:16.340;
#SINGLE:BEGINNER:1:
00000000
00000000
00000000
00000000
80000000
80000000
20000000
20000000
00000000
B0000000
20000000
80000000
40004000
40000000
80000000
20000000
B0000000
60606000
B0000000
20000000
80000000
40000000
20000000
40000000
80008000
80000000
20200000
20000000
60006000
60000000
80000000
20000000
40404040
00000000
B0000000
80000000
20000000
60006000
60000000
20000000
80000000
B0000000
40404000
B0000000
80000000
20000000
60000000
80000000
60000000
20002000
20000000
80800000
80000000
40004000
40000000
20000000
80000000
60606060
;
#SINGLE:ANOTHER:4:
00000000
00000000
A0000000
00000000
8!80007!4000
1!20004000
A!80009!6000
3!20000000
00002000
80206000
80006040
20408000
40008000
20804000
20004060
20008020
80004000
60002000
B!40001000
6!60003000
8!8000A000
8!80009000
2!2000A000
2!20003000
40604060
B0002000
80004080
20006000
10601060
20008000
40602080
20008000
46464640
00000000
20804000
20004060
80602000
60002000
80206000
80006040
80002080
20006000
40008000
B!60009000
4!40007000
2!2000A000
2!20001000
8!8000A000
8!80007000
60406040
B0008000
20006020
80004000
90409040
80002000
60408020
80002000
64646460
;
#SINGLE:MANIAC:8:
00000000
00000000
B0000000
00000000
80206000
20604084
20046002
60802860
00000000
A0604024
84602082
60208040
6!6000B024
80408020
80406428
60208280
B0206240
(0000804060020000)
3!600B0000
A!20030460
1!40070000
A!80070280
B!40010460
28206260
42464620
82646400
20408020
60806040
8!80A08!80A0
62842400
80406028
20064002
80602840
60402000
B0806020
80206424
60208040
6!60003082
80406042
48206026
20646860
30208420
(4000604020080000)
30301010
B0B08460
A0A03030
10108460
42806280
28406420
46464640
82628400
(8008000020602080)
40604080
2!20A02!20A0
26284600
(4004000080402000)
40062008
20604280
B0000000
;
#SINGLE:BASIC:2:
00000000
00000000
00000000
00000000
8!80008000
2!20002000
6!60006000
4!40004000
00000000
80002000
60004000
20004000
80002000
60008000
60004000
80004000
20004000
80002000
60606000
60002000
80808000
80002000
80004000
20004000
60606060
B0000000
20008000
20006000
40404040
40002000
40008000
20006000
20202020
00000000
A0008000
40006000
80006000
20008000
40002000
40006000
20006000
80006000
20008000
40404000
40008000
20202000
20008000
20006000
80006000
40404040
B0000000
80002000
80004000
60606060
60008000
60002000
80004000
80808080
;
