#VERSION:0.82;
#TITLE:Reality;
#SUBTITLE:;
#ARTIST:Lost Frequencies feat. Janieck Devy;
#TITLETRANSLIT:;
#SUBTITLETRANSLIT:;
#ARTISTTRANSLIT:;
#GENRE:Lightest Pop Imaginable;
#ORIGIN:;
#CREDIT:;
#BANNER:Reality.png;
#BACKGROUND:Reality-bg.png;
#PREVIEWVID:;
#JACKET:jacket.png;
#CDIMAGE:;
#DISCIMAGE:;
#LYRICSPATH:;
#CDTITLE:;
#MUSIC:Reality.ogg;
#OFFSET:0.020000;
#SAMPLESTART:62.934086;
#SAMPLELENGTH:13.714000;
#SELECTABLE:YES;
#BPMS:0.000=122.000;
#STOPS:;
#DELAYS:;
#WARPS:;
#TIMESIGNATURES:0.000=4=4;
#TICKCOUNTS:0.000=4;
#COMBOS:0.000=1;
#SPEEDS:0.000=1.000=0.000=0;
#SCROLLS:0.000=1.000;
#FAKES:;
#LABELS:0.000=Song Start;
#BGCHANGES:8.000=Reality.avi=1.000=0=0=1=====,
99999=-nosongbg-=1.000=0=0=0 // don't automatically add -songbackground-
;
#KEYSOUNDS:;
#ATTACKS:
;

//---------------dance-single - ----------------
#NOTEDATA:;
#CHARTNAME:;
#STEPSTYPE:dance-single;
#DESCRIPTION:;
#CHARTSTYLE:;
#DIFFICULTY:Hard;
#METER:7;
#RADARVALUES:0.482064,0.476713,0.271507,0.252114,0.000000,294.000000,28.000000,26.000000,0.000000,0.000000,0.000000,0.000000,0.000000,0.482064,0.476713,0.271507,0.252114,0.000000,294.000000,28.000000,26.000000,0.000000,0.000000,0.000000,0.000000,0.000000;
#CREDIT:Ben Speirs;
#NOTES:
0000
0000
0000
0000
,
0000
0000
0000
0000
,
0000
0000
0000
0000
,
0000
0000
0000
0000
,
2000
0000
3001
0100
0001
1000
0001
0100
,
0010
1000
0010
0100
0010
0001
0010
0100
,
0100
0001
0100
0010
0100
1000
0100
0010
,
2000
0000
3200
0000
0310
0001
1000
0001
,
2001
0000
3010
0000
1000
0100
1000
0000
,
0102
0000
1003
0000
0001
0010
0001
0000
,
2010
0000
3001
0000
0010
0100
0010
0001
,
1000
0000
0001
0000
0100
0010
0100
0001
,
2000
0000
3100
0000
1000
0100
0000
0010
,
0002
0000
1003
0000
0001
1000
0001
1000
,
0020
0000
0130
0100
0001
1000
0001
1000
,
0200
0000
0310
0000
0001
0010
0100
0000
,
2100
0000
0001
0000
3010
1000
0100
0000
,
0012
0000
1000
0000
0103
0010
1000
0001
,
0200
0000
0310
0100
0010
0010
0100
0001
,
2000
0000
3001
0000
0100
0010
0000
1000
,
0200
0000
0310
0000
0001
0010
0000
0100
,
2000
0000
3010
0000
1000
0010
0100
0001
,
1000
0000
1001
0001
0010
0100
1000
0001
,
2002
0000
3003
0000
0010
0100
0010
0000
,
1010
0000
1100
0000
0100
0010
0001
0000
,
0011
0000
1010
0000
1000
0001
0010
0000
,
0011
0000
0101
0000
0001
0100
0010
0000
,
0110
0000
1001
0000
1000
0100
0001
0100
,
2000
3010
0002
0013
,
2000
3100
0002
0103
,
0001
1000
0010
0100
0001
0010
0100
1000
,
1100
0101
0011
1010
,
1001
1000
0100
0010
0001
0100
0001
0100
,
0010
1000
0100
0010
0001
1000
0001
1000
,
0010
0100
0001
0010
0100
1000
0100
1000
,
0010
0100
0001
1000
0010
0100
0000
0100
,
0001
0010
0100
1000
0001
0100
0000
0100
,
0010
1000
0100
0010
0001
1000
0001
1000
,
0010
0100
0001
0010
0100
1000
0100
1000
,
0002
0000
0203
0000
0310
1000
0100
0000
,
1001
0001
0010
0100
1000
0010
1000
0010
,
0100
0001
0010
0100
1000
0001
1000
0001
,
0100
0010
1000
0100
0010
0001
0010
0001
,
0100
0010
1000
0001
0100
0010
0000
0010
,
1000
0100
0010
0001
1000
0010
0000
0010
,
0100
0001
0010
0100
1000
0001
1000
0001
,
0100
0010
1000
0100
0010
0001
0010
0001
,
2000
0000
3020
0000
0130
0001
0010
0000
,
0100
0000
1000
0100
0000
0000
1100
0000
,
0001
0000
0100
0001
0000
0000
0101
0000
,
1000
0000
0010
1000
0000
0000
1010
0000
,
0011
0101
1100
1001
;

//---------------dance-double - ----------------
#NOTEDATA:;
#CHARTNAME:;
#STEPSTYPE:dance-double;
#DESCRIPTION:;
#CHARTSTYLE:;
#DIFFICULTY:Challenge;
#METER:7;
#RADARVALUES:0.439121,0.451623,0.213327,0.203630,0.000000,274.000000,22.000000,21.000000,0.000000,0.000000,0.000000,0.000000,0.000000,0.439121,0.451623,0.213327,0.203630,0.000000,274.000000,22.000000,21.000000,0.000000,0.000000,0.000000,0.000000,0.000000;
#CREDIT:Ben Speirs;
#NOTES:
// measure 0
00000000
00000000
00000000
00000000
,  // measure 1
00000000
00000000
00000000
00000000
,  // measure 2
00000000
00000000
00000000
00000000
,  // measure 3
00000000
00000000
00000000
00000000
,  // measure 4
00020000
00000000
10030000
01000000
10000000
00010000
00010000
00000000
,  // measure 5
02000000
00000000
03100000
10000000
00100000
01000000
01000000
00000000
,  // measure 6
00002000
00000000
00103000
00010000
00100000
00001000
00001000
00000000
,  // measure 7
00011000
00001100
00000110
00000011
,  // measure 8
00001001
00000000
00000000
00000000
00000001
00000010
00000100
00001000
,  // measure 9
00000001
00000000
00000000
00000000
00001000
00000010
00001000
00000010
,  // measure 10
00000100
00000000
00000001
00000000
00000010
00000001
00000010
00000001
,  // measure 11
00001000
00000000
00000000
00000000
00000100
00010000
00000000
00010000
,  // measure 12
00001000
00000000
00000000
00000000
00001000
00100000
00000000
00100000
,  // measure 13
00010000
00000000
00000000
00000000
10000000
00010000
10000000
00010000
,  // measure 14
01000000
00000000
01000000
00000000
00100000
10000000
00010000
10000000
,  // measure 15
00010000
00000000
00000000
00000000
10000000
01000000
00100000
00010000
,  // measure 16
11000000
00000000
00010000
00000000
10000000
01000000
00010000
00000000
,  // measure 17
00002000
00000000
00013000
00000000
00001000
00010000
01000000
10000000
,  // measure 18
00020000
00000000
01030000
00000000
00100000
01000000
00100000
01000000
,  // measure 19
00020000
00000000
00130000
00000000
00001000
00010000
00000000
00010000
,  // measure 20
00000200
00000000
00000310
00000000
00000001
00000100
00000000
00000100
,  // measure 21
00000020
00000000
00001030
00000000
00000100
00000100
00000100
00001000
,  // measure 22
00000020
00000000
00000130
00000000
00000001
00000001
00000001
00001000
,  // measure 23
00000200
00000000
00010000
00010300
,  // measure 24
00010100
00000000
00010000
00001000
00000100
00000001
00001000
00000000
,  // measure 25
00000100
00000010
00000001
00001000
,  // measure 26
00000010
00000000
00000100
00001000
00010000
00100000
10000000
00000000
,  // measure 27
00010000
00000000
01000000
00000000
00010000
00010000
10000000
10000000
,  // measure 28
02000000
03100000
00200000
00310000
,  // measure 29
00020000
01030000
02000000
03001000
,  // measure 30
00002000
00013000
00020000
00030100
,  // measure 31
00011000
00100100
00011000
01000010
,  // measure 32
00011000
00010000
00000100
00001000
00000010
00000100
00000010
00000100
,  // measure 33
00000001
00000001
00000010
00000001
00001000
00000100
00001000
00000100
,  // measure 34
00000010
00000010
00000001
00000100
00000010
00001000
00000010
00001000
,  // measure 35
00000100
00000100
00010000
00001000
00100000
00010000
00100000
00010000
,  // measure 36
01000000
01000000
00100000
10000000
00010000
01000000
00010000
01000000
,  // measure 37
00100000
00100000
10000000
01000000
00100000
00010000
00100000
00010000
,  // measure 38
10000000
10000000
00100000
01000000
00020000
00000000
10030000
00000000
,  // measure 39
11000000
01010000
00011000
00001010
,  // measure 40
00011000
00001000
00100000
00010000
01000000
00100000
01000000
00100000
,  // measure 41
10000000
10000000
01000000
10000000
00010000
00100000
00010000
00100000
,  // measure 42
01000000
01000000
10000000
00100000
01000000
00010000
01000000
00010000
,  // measure 43
00100000
00100000
00001000
00010000
00000100
00001000
00000100
00001000
,  // measure 44
00000010
00000010
00000100
00000001
00001000
00000010
00001000
00000010
,  // measure 45
00000100
00000100
00000001
00000010
00000100
00001000
00000100
00001000
,  // measure 46
00000001
00000001
00000100
00000010
00002000
00000000
00003001
00000000
,  // measure 47
00000011
00001010
00011000
00110000
,  // measure 48
00002000
01000000
00000000
01003000
,  // measure 49
00020000
00000100
00000000
00030100
,  // measure 50
00002000
00100000
00000000
00103000
,  // measure 51
00001000
00010000
00000010
00001000
00000001
00000010
00001001
00000000
;

//---------------dance-single - ----------------
#NOTEDATA:;
#CHARTNAME:;
#STEPSTYPE:dance-single;
#DESCRIPTION:;
#CHARTSTYLE:;
#DIFFICULTY:Medium;
#METER:5;
#RADARVALUES:0.299212,0.351263,0.087270,0.184237,0.000000,188.000000,9.000000,19.000000,0.000000,0.000000,0.000000,0.000000,0.000000,0.299212,0.351263,0.087270,0.184237,0.000000,188.000000,9.000000,19.000000,0.000000,0.000000,0.000000,0.000000,0.000000;
#CREDIT:Ben Speirs;
#NOTES:
0000
0000
0000
0000
,
0000
0000
0000
0000
,
0000
0000
0000
0000
,
0000
0000
0000
0000
,
0001
0000
1000
0000
0010
0010
0010
0000
,
1000
0000
0001
0000
0100
0100
0100
0000
,
0001
1000
0100
0100
,
1100
0001
0101
1000
,
0020
0000
0030
0000
1000
0100
1000
0000
,
0002
0000
0003
0000
0100
0010
0100
0000
,
0002
0000
0003
0000
0010
0100
0010
0000
,
0200
0300
0010
0001
,
0200
0300
0010
1000
,
0200
0000
0300
0000
1000
0001
1000
0001
,
0200
0000
0300
0000
0001
1000
0001
1000
,
0200
0300
1000
0001
,
1100
0001
0100
0010
,
1010
0010
0100
0001
,
1001
0001
0010
0100
,
1100
0000
0100
0000
1000
0001
1000
0000
,
0020
0130
0001
1000
,
0200
0000
0310
0000
0001
0001
0001
0000
,
2000
0000
3000
0000
0010
1000
0001
0000
,
0002
0003
0100
0000
,
0001
1000
0100
0000
,
1000
0001
0010
0000
,
0001
1000
0010
0000
,
0100
0100
0100
0000
,
0000
0000
0001
0100
0000
0000
0001
0100
,
0000
0000
0010
1000
0000
0000
0010
1000
,
0000
0000
0100
0010
0000
0000
0100
0010
,
0002
2003
3020
0130
,
1001
0000
0000
0000
1000
0100
1000
0100
,
0010
0000
0000
0000
0001
1000
0001
1000
,
0010
0000
0000
0000
0100
0001
0100
0001
,
1000
0000
0100
1000
,
0020
0030
0100
0001
,
0020
0000
0030
0000
0100
1000
0100
1000
,
0001
0000
0000
0000
0100
0001
0100
0001
,
1000
0000
0010
0010
,
1001
0000
0000
0000
1000
0100
1000
0100
,
0100
0000
0000
0000
1000
0001
1000
0001
,
0001
0000
0000
0000
0100
0001
0100
0001
,
0001
0000
0000
0000
1000
0100
0010
0001
,
1000
0000
0000
0000
0001
0010
0100
1000
,
0001
0000
0100
0100
,
0200
0300
0010
0010
,
0020
0030
1000
0000
,
0000
0001
0000
1000
,
0000
0000
0010
0000
0000
0000
0100
0100
,
0000
0000
0001
0000
0000
0000
1000
1000
,
0000
0000
0100
0100
0100
0000
1001
0000
;

//---------------dance-single - ----------------
#NOTEDATA:;
#CHARTNAME:;
#STEPSTYPE:dance-single;
#DESCRIPTION:;
#CHARTSTYLE:;
#DIFFICULTY:Easy;
#METER:2;
#RADARVALUES:0.150991,0.200721,0.048483,0.000000,0.000000,104.000000,5.000000,0.000000,0.000000,0.000000,0.000000,0.000000,0.000000,0.150991,0.200721,0.048483,0.000000,0.000000,104.000000,5.000000,0.000000,0.000000,0.000000,0.000000,0.000000,0.000000;
#CREDIT:Ben Speirs;
#NOTES:
0000
0000
0000
0000
,
0000
0000
0000
0000
,
0000
0000
0000
0000
,
0000
0000
0000
0000
,
0000
0010
0000
0010
,
0000
1000
0000
1000
,
0000
0001
0000
0001
,
0100
0100
0100
0000
,
1001
0000
0100
1000
,
0010
0000
1000
1000
,
0001
0000
0001
0001
,
0010
0000
0001
0000
,
1000
0000
0010
0010
,
0010
0000
0100
0100
,
0100
0000
0001
0000
,
1000
0000
0000
0000
,
0110
0000
0010
0010
,
0001
0000
0001
0001
,
0100
0000
0100
0000
,
0010
0000
0000
0000
,
1000
1000
0000
0000
,
0001
0001
0000
0000
,
0010
0000
0010
0000
,
0100
0000
0000
0000
,
0010
0000
0010
0000
,
0001
0000
0001
0000
,
1000
0000
1000
0000
,
0010
0000
1000
0001
,
0100
0000
0100
0000
,
0001
0000
0001
0000
,
1000
0000
1000
0000
,
1001
0000
0000
0000
,
0010
0010
0000
0000
,
1000
1000
0000
0000
,
0100
0000
0010
0010
,
0010
0000
0001
0000
,
1000
0000
0000
0000
,
0001
0000
0100
0100
,
0100
0000
0010
0010
,
0010
0000
1000
0000
,
1001
0000
0000
0000
,
0001
0001
0000
0000
,
0010
0000
0100
0100
,
0100
0000
1000
0000
,
0001
0000
0000
0000
,
1000
0000
0010
0010
,
0010
0000
0100
0100
,
0100
0000
0001
0000
,
0000
1000
0000
1000
,
0000
0001
0000
0001
,
0000
0100
0000
0000
,
0010
0010
0000
1001
;

//---------------dance-single - ----------------
#NOTEDATA:;
#CHARTNAME:;
#STEPSTYPE:dance-single;
#DESCRIPTION:;
#CHARTSTYLE:;
#DIFFICULTY:Beginner;
#METER:1;
#RADARVALUES:0.102508,0.149814,0.038787,0.000000,0.000000,70.000000,4.000000,0.000000,0.000000,0.000000,0.000000,0.000000,0.000000,0.102508,0.149814,0.038787,0.000000,0.000000,70.000000,4.000000,0.000000,0.000000,0.000000,0.000000,0.000000,0.000000;
#CREDIT:Ben Speirs;
#NOTES:
0000
0000
0000
0000
,
0000
0000
0000
0000
,
0000
0000
0000
0000
,
0000
0000
0000
0000
,
1000
0000
0000
0000
,
0001
0000
0000
0000
,
0100
0000
0100
0000
,
0100
0000
0000
0000
,
0010
0000
0000
0000
,
1000
0000
0000
0000
,
0001
0000
0000
0000
,
0010
0000
0010
0000
,
0100
0000
0000
0000
,
1000
0000
0000
0000
,
0010
0000
0010
0000
,
0100
0000
0000
0000
,
0001
0000
0000
0000
,
1000
0000
0000
0000
,
0010
0000
0000
0000
,
1000
0000
0000
0000
,
0100
0000
0000
0000
,
0010
0000
0000
0000
,
0001
0000
0000
0000
,
1001
0000
0000
0000
,
0110
0000
0000
0000
,
1000
1000
0000
0000
,
0001
0000
0000
0000
,
0100
0100
0000
0000
,
0000
0010
0000
0010
,
0000
0010
0000
0000
,
0000
1000
0000
1000
,
1000
0000
0000
0000
,
1001
0000
0000
0100
,
0100
0000
0000
1000
,
1000
0000
0000
0010
,
0010
0000
0000
0100
,
0100
0000
0000
0001
,
0001
0000
0000
0010
,
0010
0000
0000
0100
,
0100
0000
0000
0000
,
1001
0000
0000
0001
,
0001
0000
0000
1000
,
1000
0000
0000
0010
,
0010
0000
0000
0100
,
0100
0000
0000
0000
,
0001
0000
0000
0000
,
1000
0000
0000
0000
,
0010
0010
0010
0000
,
0010
0000
0000
0000
,
1000
0000
0000
0000
,
0100
0000
0000
0000
,
0100
0100
0100
0000
;
