#VERSION:0.82;
#TITLE:Rather Be;
#SUBTITLE:;
#ARTIST:Clean Bandit ft. Jess Glynne;
#TITLETRANSLIT:;
#SUBTITLETRANSLIT:;
#ARTISTTRANSLIT:;
#GENRE:Violin House;
#ORIGIN:;
#CREDIT:;
#BANNER:Rather Be.png;
#BACKGROUND:Rather Be-bg.png;
#PREVIEWVID:;
#JACKET:jacket.png;
#CDIMAGE:;
#DISCIMAGE:;
#LYRICSPATH:;
#CDTITLE:;
#MUSIC:Rather Be.ogg;
#OFFSET:-0.555000;
#SAMPLESTART:64.038879;
#SAMPLELENGTH:13.714000;
#SELECTABLE:YES;
#BPMS:0.000=121.000,
136.000=60.500,
137.000=121.000,
231.000=60.500,
232.000=121.000;
#STOPS:;
#DELAYS:;
#WARPS:;
#TIMESIGNATURES:0.000=4=4;
#TICKCOUNTS:0.000=4;
#COMBOS:0.000=1;
#SPEEDS:0.000=1.000=0.000=0;
#SCROLLS:0.000=1.000;
#FAKES:;
#LABELS:0.000=Song Start;
#BGCHANGES:0.000=Rather Be.avi=1.000=0=0=1=====,
99999=-nosongbg-=1.000=0=0=0 // don't automatically add -songbackground-
;
#KEYSOUNDS:;
#ATTACKS:
;

//---------------dance-single - ----------------
#NOTEDATA:;
#CHARTNAME:;
#STEPSTYPE:dance-single;
#DESCRIPTION:;
#CHARTSTYLE:;
#DIFFICULTY:Hard;
#METER:7;
#RADARVALUES:0.374950,0.392154,0.308783,0.100354,0.054037,287.000000,40.000000,13.000000,0.000000,0.000000,0.000000,0.000000,0.000000,0.374950,0.392154,0.308783,0.100354,0.054037,287.000000,40.000000,13.000000,0.000000,0.000000,0.000000,0.000000,0.000000;
#CREDIT:Ben Speirs;
#NOTES:
0000
0000
0000
0000
,
0000
0000
0000
0000
,
0000
0000
0000
0000
,
0000
0000
0000
0000
,
0001
0100
1000
0010
,
1000
0000
0100
0010
0001
0000
1000
0000
,
0010
1000
0100
0001
,
0010
0000
0001
0010
0100
0000
1000
0000
,
0101
0000
1000
0000
0100
0000
0010
0001
,
1000
0000
0010
0100
0002
0000
2003
0000
,
3100
0000
0010
0000
0001
0000
1000
0001
,
0100
0000
0010
1000
0002
0000
2003
0000
,
3100
0000
0010
0001
1000
0000
0000
0000
,
0001
0010
0100
1000
0001
0000
0100
0000
,
0010
1000
0001
0000
,
1000
0000
0100
0000
0010
0001
1000
0000
,
0010
0000
0101
0000
1000
0001
0100
0000
,
0001
0000
1100
0000
0010
0001
1000
0000
,
0020
0000
0230
0000
0301
1000
0010
0000
,
2000
0000
3002
0000
0103
0001
0010
0000
,
0100
1100
0110
1001
,
0100
0101
0110
1001
,
0010
0001
1000
0001
0100
0010
1000
0000
,
0100
0100
0110
1001
,
0100
0000
0000
0001
0000
0000
1000
0000
0000
0000
0100
0000
1000
0000
0001
0000
,
0000
0101
0000
1000
1000
0000
0110
0000
,
1000
0000
0000
0100
0000
0000
0010
0000
0000
0000
0001
0000
1000
0000
0010
0000
,
0000
0101
0000
0010
0010
0000
1001
0000
,
0100
0000
0000
0001
0000
0000
0010
0000
0000
0000
0100
0000
1000
0000
0010
0000
,
0000
0101
0000
0001
0001
0000
1100
0000
,
0010
0000
0000
0001
0000
0000
1000
0000
1000
0000
0000
0010
0000
0000
0100
0000
,
0100
0000
0000
0001
0000
0000
1000
0000
1000
0000
0000
0100
0000
0000
1000
0000
,
0010
0100
0001
0100
0001
0100
0000
0000
,
0010
0100
0001
0000
0101
0000
1100
0000
,
0020
0000
0130
0000
0101
0000
0100
0001
,
1000
0000
1001
0000
0110
0000
1000
0010
,
0100
0010
0100
0010
0000
0000
0001
0100
,
0010
1010
1001
0100
,
0000
0000
0000
0000
,
0000
0000
0000
0001
,
0010
1000
0100
0000
0000
0000
1000
0000
,
0010
0001
0100
0000
1001
0000
0100
0000
,
0001
0100
1000
0000
0000
0000
0100
0000
,
1000
0100
0001
0000
1001
0000
0010
0100
,
0010
0100
0001
0000
0000
0000
0010
0001
,
0010
0001
1000
0000
1100
0000
1000
0010
,
1000
0010
0100
0000
0000
0000
0101
0000
,
1010
0000
0000
0000
1100
0000
0000
0000
0011
0000
0000
0000
1000
0000
0000
0001
,
0000
0100
0000
0010
1000
0001
0000
0110
,
0000
0000
1000
0000
0100
0000
0010
0000
0001
0000
0000
0000
1000
0000
0000
0001
,
0000
0100
0000
0010
1000
0001
0000
1001
,
0000
0000
0010
0000
0001
0000
0100
0000
0010
0000
0000
0000
0100
0000
0000
0001
,
0000
1000
0000
0100
0100
0100
0000
1000
,
0010
0000
0100
0000
0001
0000
0000
0000
1100
0000
0000
0000
0001
0000
0000
0100
,
0000
0000
0010
0000
0010
0000
0000
1000
0000
0000
0100
0000
0100
0000
0000
0010
,
0000
0000
0001
0000
0001
0000
0000
1000
0000
0000
0010
0000
0010
0000
1000
0000
,
0100
1000
0100
1000
0100
0000
0010
0001
,
1000
1001
0110
0002
,
0103
0010
1000
0000
0100
0010
0001
0000
,
0011
0000
1100
0000
0001
0100
0010
0100
,
1000
0100
0001
0000
1000
0001
0100
0000
,
0101
1010
0002
0000
,
2003
0000
3200
0000
,
0000
0000
0300
0000
;

//---------------dance-single - ----------------
#NOTEDATA:;
#CHARTNAME:;
#STEPSTYPE:dance-single;
#DESCRIPTION:;
#CHARTSTYLE:;
#DIFFICULTY:Challenge;
#METER:9;
#RADARVALUES:0.560220,0.686269,0.301063,0.023159,0.528790,466.000000,39.000000,3.000000,0.000000,0.000000,0.000000,0.000000,0.000000,0.560220,0.686269,0.301063,0.023159,0.528790,466.000000,39.000000,3.000000,0.000000,0.000000,0.000000,0.000000,0.000000;
#CREDIT:Ben Speirs;
#OFFSET:-0.550000;
#BPMS:0.000000=121.000000
,136.000000=60.500000
,137.000000=121.000000
,231.000000=60.500000
,232.000000=121.000000
;
#STOPS:;
#DELAYS:;
#WARPS:;
#TIMESIGNATURES:0.000000=4=4
;
#TICKCOUNTS:0.000000=4
;
#COMBOS:0.000000=1
;
#SPEEDS:0.000000=1.000000=0.000000=0
,151.000000=0.500000=4.000000=0
,189.000000=0.750000=0.000000=0
,190.000000=1.000000=1.000000=0
;
#SCROLLS:0.000000=1.000000
;
#FAKES:;
#LABELS:0.000000=Song Start
;
#NOTES:
0000
0000
0000
0000
,
0000
0000
0000
0000
,
0000
0000
0000
0000
,
0000
0000
0000
0000
,
1000
0010
0100
0001
0010
0100
1000
0000
,
0001
1000
0001
0100
0010
0000
1010
0000
,
0001
0000
0000
0001
0000
0000
0001
0000
1000
0000
0000
1000
0000
0000
1000
0000
,
0100
0000
1000
0000
0010
0100
0001
0000
,
1000
0100
1000
0100
0000
0000
1000
0000
0001
0000
0000
0000
0000
0000
0000
0000
,
0001
0100
0001
0100
0000
0000
0001
0000
1000
0000
0000
0000
1001
0000
0000
0000
,
1000
0010
1000
0010
0000
0000
1000
0000
0001
0000
0000
0000
0000
1000
0100
0010
,
0001
0100
0001
0100
0000
0000
0001
0000
1000
0000
0000
0000
1100
0000
0000
0000
,
0010
0100
0010
0100
0000
0000
0001
0000
1000
0000
0000
0000
1001
0000
0000
0000
,
0100
0010
0100
0010
0000
0000
0100
0000
1100
0000
0000
0000
0101
0000
0000
0000
,
0100
0001
0100
0001
0000
1000
0100
1000
0100
0000
0000
0000
0000
0000
0000
0000
,
1000
0100
0010
0001
1000
0001
0000
0100
0000
0010
0000
1000
0000
0000
0001
0000
,
0101
0000
0100
0010
1000
0000
0100
0000
0010
0000
0001
0000
1000
0000
0000
0000
,
1100
0000
0100
1000
0001
0000
0100
0000
0010
0000
1000
0000
0001
0000
0000
0000
,
1010
0000
0010
0100
0000
0000
0001
0000
0010
0000
0010
0100
0000
0000
1000
0000
,
0010
0100
0010
0100
0000
0000
0001
0000
1000
0000
0100
1000
0010
0000
0000
0000
,
1010
0000
0010
0100
0001
0000
0010
0000
0100
0000
1000
0000
0001
0000
0000
0000
,
0011
0000
0010
0001
1000
0000
0010
0000
0100
0000
0001
0000
1000
0000
0000
0000
,
0101
0000
0100
0010
0000
0000
1000
0000
0100
0000
0100
0010
0000
0000
0001
0000
,
0100
0010
0100
0010
0000
0000
1000
0000
0101
0000
0010
0000
1100
0000
0000
0000
,
0001
0010
0100
1000
0000
0000
0010
0000
0100
0000
0010
0000
1000
0000
0000
0000
,
1000
0100
0010
0001
0000
0000
1000
0000
1010
0000
0000
0000
1001
0000
0000
0000
,
0001
0100
0010
1000
0000
0000
0001
0000
0010
0000
0000
0000
0001
0000
0000
0000
,
1000
0010
0100
0001
0000
0000
1000
0000
0100
0000
0000
0000
1001
0000
0000
0000
,
0010
0100
0010
1000
0000
0000
0001
0000
1000
0000
0000
0000
0011
0000
0000
0000
,
0100
0010
0100
0001
0000
0000
1000
0000
0001
0000
0000
0000
1100
0000
0000
0000
,
0001
0000
0001
0100
0000
0000
0010
0000
1000
0000
1000
0100
0000
0000
0010
0000
,
0001
1000
0001
1000
0001
1000
0001
1000
0001
1000
0001
1000
0001
1000
0001
1000
,
0010
0000
0100
0001
0100
0000
0011
0000
0100
0000
0011
0000
1000
0000
0000
0000
,
0001
0000
1000
0000
0010
0000
0100
0001
0100
0000
0010
1000
0001
0000
0000
0000
,
2000
0000
0100
0000
3010
0000
0100
0000
0001
0010
0100
1000
0001
0000
0100
0000
,
0010
0000
1000
0100
1000
0000
0001
0100
0010
0000
0000
0000
0100
0000
0010
1000
,
0010
1100
0010
1100
0001
0000
1000
0001
,
0100
0000
0010
1000
0010
0000
0100
0001
1000
0000
0000
0000
0010
0000
0000
0000
,
0000
0000
0000
0000
,
0000
0000
0000
0000
0000
0000
0000
0000
0000
0000
0000
0000
0001
0010
0001
0010
,
0000
0000
0001
0000
1000
0000
0000
0000
0000
0000
0000
0000
1000
0010
1000
0010
,
0000
0000
1000
0000
0001
0000
0000
0000
1001
0000
0000
0000
0001
0100
0001
0100
,
0000
0000
0001
0000
1000
0000
0000
0000
0000
0001
0010
0100
1000
0010
1000
0010
,
0000
0000
1000
0000
0001
0000
0000
0000
0011
0000
0000
0000
0100
0010
0100
0010
,
0000
1000
0100
0010
0001
0010
0100
0000
1001
0000
0000
0000
0010
0100
0010
0100
,
0000
0001
0010
0100
1000
0100
0010
0000
1001
0000
0000
0000
0010
1000
0010
1000
,
0000
0001
0010
0001
0010
0000
0000
0000
0000
0000
0000
0000
0001
0010
0001
0010
,
0100
1000
0100
1000
0010
0000
0000
0000
1001
0000
0000
0000
1000
0100
0010
0001
,
0000
0000
0100
0000
0010
0000
0000
0010
0000
0000
1000
0000
0001
0010
0100
1000
,
0000
0000
0001
0000
0101
0000
0000
0000
1001
0000
0000
0000
1000
0010
0100
0001
,
0000
0000
1000
0000
0100
0000
0000
0100
0000
0000
1000
0000
0001
0100
0010
1000
,
0000
0000
0001
0000
0011
0000
0000
0000
1001
0000
0000
0000
0100
0010
0100
0001
,
0000
0000
1000
0000
0001
0000
0000
0000
1100
0000
0000
0000
0010
0100
0010
1000
,
0000
0000
0010
0000
1010
0000
0000
0000
0011
0000
0000
0000
1000
0000
1000
0010
,
0000
0000
0100
0000
0001
0000
0001
0010
0000
0000
0100
0000
1000
0001
1000
0001
,
1000
0001
1000
0001
1000
0001
1000
0001
1000
0001
1000
0001
0100
0000
0010
1000
,
0010
1100
0010
1100
0001
0000
1000
0001
,
0100
0000
0010
1000
0010
0000
0100
0001
1000
0000
0000
0000
0002
0000
0010
0000
,
0103
0000
0010
0000
1000
0100
0010
0001
1000
0000
0010
0000
0100
0000
0001
0010
,
0001
0000
1000
0010
0100
0000
0000
0000
0010
0000
0100
0001
0100
0000
0011
0000
,
0100
0000
0011
0000
1000
0000
0000
0000
0001
0000
1000
0000
0010
0000
0100
0001
,
0100
0000
0010
1000
0001
0000
0000
0000
0100
0010
0100
0001
0000
0010
0100
0010
,
0001
0000
0200
0000
,
0000
0000
0300
0000
;

//---------------dance-single - ----------------
#NOTEDATA:;
#CHARTNAME:;
#STEPSTYPE:dance-single;
#DESCRIPTION:;
#CHARTSTYLE:;
#DIFFICULTY:Medium;
#METER:5;
#RADARVALUES:0.271288,0.367644,0.169830,0.023159,0.000000,221.000000,22.000000,3.000000,0.000000,0.000000,0.000000,0.000000,0.000000,0.271288,0.367644,0.169830,0.023159,0.000000,221.000000,22.000000,3.000000,0.000000,0.000000,0.000000,0.000000,0.000000;
#CREDIT:Ben Speirs;
#NOTES:
0000
0000
0000
0000
,
0000
0000
0000
0000
,
0000
0000
0000
0000
,
0000
0000
0000
0000
,
0100
0001
1000
0000
,
0100
0010
0001
0000
,
0100
0001
1000
0000
,
0010
1000
0100
0000
,
1000
0010
0100
0100
,
0001
1000
0100
0100
,
0010
0001
0100
0100
,
0010
1000
0001
0000
,
0010
0010
0001
1000
,
0010
0010
0100
0001
,
0010
0010
0100
1000
,
0010
0010
0100
0000
,
0001
0101
1000
0000
,
0100
1100
0001
0000
,
1000
0100
1000
0000
0001
0100
0001
0000
,
1000
0000
0000
0000
0010
0100
0010
0000
,
1000
1010
0001
0000
,
0010
0011
1000
0000
,
0001
0100
0001
0000
1000
0100
1000
0000
,
0010
0000
1001
1001
,
0100
0000
0010
1000
0100
0000
0000
0000
,
1000
0000
0100
0010
0001
0000
1000
0000
,
0010
0000
0100
0001
0010
0000
0000
0000
,
0100
0000
1000
0001
1000
0000
0010
0000
,
0100
0000
0001
1000
0010
0000
0000
0000
,
0100
0000
0010
1000
0100
0000
0010
0000
,
0001
0001
1000
1000
,
0010
0100
0010
0000
1000
0001
1000
0000
,
1001
0000
0100
0000
0001
0010
0001
0000
,
0000
0000
1000
0100
0010
0000
0001
0000
,
2000
0000
3010
0100
0010
0000
0000
0000
,
1000
0000
0010
0100
0001
0000
1000
0000
,
0100
0010
0100
0000
0000
0000
1000
0000
,
0010
0000
0100
0001
1000
0000
0001
0000
,
0000
0000
0000
0000
,
0000
0000
0000
0100
,
0001
1000
0000
0100
,
0010
0001
0000
0100
,
0001
1000
0000
0010
,
1000
0100
0000
1000
,
0100
1000
0000
0001
,
0100
0001
0000
1000
,
0010
1000
0000
0001
,
0010
0011
0011
1001
,
1000
0100
0000
1000
,
0010
0100
0010
0000
1000
0000
0001
0000
,
0001
0010
0000
0001
,
0100
0010
0100
0000
0010
0000
1000
0000
,
0100
0010
0000
0001
,
0100
0010
0000
1000
,
1000
0000
0001
0000
0001
0000
0010
0100
,
0010
0000
0100
0010
0100
0000
0110
0000
,
1001
0100
1001
0100
,
1001
0000
0100
0010
1000
0000
0002
0000
,
1003
0100
0010
0000
0000
0000
1001
0000
,
0110
1001
0100
1010
,
0100
0011
0100
1001
,
1001
0110
1000
0000
,
0001
0000
0200
0000
,
0000
0000
0300
0000
;

//---------------dance-single - ----------------
#NOTEDATA:;
#CHARTNAME:;
#STEPSTYPE:dance-single;
#DESCRIPTION:;
#CHARTSTYLE:;
#DIFFICULTY:Easy;
#METER:2;
#RADARVALUES:0.151083,0.196077,0.023159,0.007720,0.000000,133.000000,3.000000,1.000000,0.000000,0.000000,0.000000,0.000000,0.000000,0.151083,0.196077,0.023159,0.007720,0.000000,133.000000,3.000000,1.000000,0.000000,0.000000,0.000000,0.000000,0.000000;
#CREDIT:Ben Speirs;
#NOTES:
0000
0000
0000
0000
,
0000
0000
0000
0000
,
0000
0000
0000
0000
,
0000
0000
0000
0000
,
1000
0000
0100
0000
,
0010
0000
0001
0000
,
0100
0000
0100
0000
,
0100
0000
0000
0000
,
0001
0000
1000
0000
,
0010
0000
1000
0000
,
0100
0000
0010
0000
,
0001
0000
1000
1000
,
0010
0000
1000
0000
,
0100
0000
0010
0000
,
0001
0000
1000
0000
,
0010
0010
0010
0000
,
0100
0100
0000
0001
,
0000
1000
0000
0100
,
0100
0000
1000
0000
,
0001
0000
0100
0000
,
0010
0010
0000
1000
,
0000
0001
0000
0010
,
0010
0000
0001
0000
,
1000
0000
0010
0010
,
1001
0000
0100
0000
,
0001
0010
0100
0000
,
1000
0000
0010
0000
,
1000
0100
0010
0000
,
0001
0000
1000
0000
,
0010
0000
0100
0100
,
0001
0000
1000
0000
,
0100
0100
0100
0000
,
1001
0000
0010
0010
,
0000
1000
0100
0010
,
0001
0000
0000
0000
,
0100
0100
0000
0010
,
1000
0001
0001
0000
,
0010
0001
1000
0100
,
0000
0000
0000
0000
,
0000
0000
0000
1000
,
0000
0000
0000
0001
,
0000
0000
0000
0100
,
0000
0000
0000
0010
,
0000
0000
0000
1000
,
0000
1000
0000
0100
,
0000
0100
0000
0010
,
0000
0010
0000
0001
,
0000
0001
0000
1001
,
0000
0100
0000
0001
,
0000
1000
1000
0100
,
0000
1000
0000
0001
,
0000
0010
0010
0100
,
0000
1000
0000
0010
,
0000
0100
0100
0001
,
0000
1000
0000
0100
,
0100
0100
0100
0000
,
0010
0010
0010
0000
,
0001
1000
0001
0100
,
0000
0000
0000
0001
,
1000
0001
0000
1000
,
1000
1000
0000
0100
,
0010
0001
1000
0000
,
0001
0000
0200
0000
,
0000
0000
0300
0000
;

//---------------dance-single - ----------------
#NOTEDATA:;
#CHARTNAME:;
#STEPSTYPE:dance-single;
#DESCRIPTION:;
#CHARTSTYLE:;
#DIFFICULTY:Beginner;
#METER:1;
#RADARVALUES:0.112485,0.144742,0.030878,0.000000,0.000000,98.000000,4.000000,0.000000,0.000000,0.000000,0.000000,0.000000,0.000000,0.112485,0.144742,0.030878,0.000000,0.000000,98.000000,4.000000,0.000000,0.000000,0.000000,0.000000,0.000000,0.000000;
#CREDIT:Ben Speirs;
#NOTES:
0000
0000
0000
0000
,
0000
0000
0000
0000
,
0000
0000
0000
0000
,
0000
0000
0000
0000
,
0100
0000
0000
0000
,
0001
0000
0000
0000
,
1000
0000
0000
0000
,
0100
0000
0000
0000
,
1000
0000
1000
0000
,
0001
0000
0000
0000
,
0100
0000
0100
0000
,
0010
0000
0000
0000
,
0010
0000
0010
0000
,
1000
0000
0000
0000
,
0001
0000
0001
0000
,
1000
0000
0000
0000
,
0000
0100
0100
0100
,
0000
0100
0100
0100
,
0000
0000
0000
0000
,
1000
0000
1000
0000
,
0000
0010
0010
0010
,
0000
0010
0010
0010
,
0000
0000
0000
0000
,
0100
0000
0001
0001
,
0001
0000
0000
0000
,
1000
0000
0100
0100
,
0100
0000
0000
0000
,
1000
0000
0010
0010
,
0010
0000
0000
0000
,
0100
0000
0001
0001
,
0001
0000
1000
0000
,
0010
0000
0000
0000
,
1001
0000
0100
0100
,
0000
0000
1000
1000
,
0000
0000
0000
0000
,
0000
0010
0010
0000
,
0000
0100
0100
0000
,
0000
0001
0001
0001
,
0000
0000
0000
0000
,
0000
0000
0000
1000
,
0000
0000
0000
0010
,
0000
0000
0000
1000
,
0000
0000
0000
0001
,
0000
0000
0000
0010
,
0000
0000
0000
0100
,
0000
0000
0000
1000
,
0000
1000
0000
0001
,
0000
0001
0000
0110
,
0000
0000
0000
0001
,
0000
1000
1000
1000
,
0000
0000
0000
0100
,
0000
0010
0010
0010
,
0000
0000
0000
0001
,
0000
0100
0100
0100
,
0000
0000
0000
0010
,
0000
0010
0000
1001
,
0000
0100
0100
0000
,
0000
1000
1000
0000
,
0000
0000
0000
0000
,
0100
0100
0100
0000
,
0001
0001
0000
0000
,
1000
1000
0000
0000
,
0000
0000
1001
0000
;

//---------------dance-double - ----------------
#NOTEDATA:;
#CHARTNAME:;
#STEPSTYPE:dance-double;
#DESCRIPTION:;
#CHARTSTYLE:;
#DIFFICULTY:Challenge;
#METER:8;
#RADARVALUES:0.467585,0.637250,0.216148,0.277904,0.146672,360.000000,28.000000,36.000000,0.000000,0.000000,0.000000,0.000000,0.000000,0.467585,0.637250,0.216148,0.277904,0.146672,360.000000,28.000000,36.000000,0.000000,0.000000,0.000000,0.000000,0.000000;
#CREDIT:;
#NOTES:
// measure 0
00000000
00000000
00000000
00000000
,  // measure 1
00000000
00000000
00000000
00000000
,  // measure 2
20000000
00000000
30200000
00000000
02300000
00000000
03010000
10000000
,  // measure 3
00200000
00300000
10100000
00110000
,  // measure 4
00002000
00000000
00103000
00000000
00002000
00000000
00013000
00000100
,  // measure 5
00001000
00000010
00001000
00000000
00000001
00000000
00000000
00000000
,  // measure 6
00000001
00000100
00000010
00001000
,  // measure 7
00000001
00000000
00000000
00000000
,  // measure 8
00001100
00000000
00000001
00000010
00000001
00000000
00000100
00000010
,  // measure 9
00001000
00000000
00000100
00010000
00001000
00000000
00010100
00000000
,  // measure 10
00001000
00000000
00100000
00001000
00010000
00000000
00001000
01000000
,  // measure 11
00010000
00000000
10000000
00010000
00100000
00000000
11000000
00000000
,  // measure 12
00020000
00000000
00230000
00000000
00302000
00000000
00013000
00000100
,  // measure 13
00000010
00000100
00000010
00000001
00000100
00000000
00000010
00000000
,  // measure 14
00001000
00000000
00000000
00000100
00000000
00000000
00010000
00000000
00001000
00000000
00000000
00100000
00000000
00000000
00010000
00000000
,  // measure 15
02000000
00100000
10000000
03010000
,  // measure 16
01000000
00000000
00010000
10000000
00010000
00000000
01000000
00000000
00100000
00000000
10000000
00000000
01000000
00000000
00000000
00000000
,  // measure 17
10000000
00000000
01000000
00100000
01000000
00000000
00100000
00000000
00010000
00000000
10000000
00000000
00100000
00000000
00000000
00000000
,  // measure 18
02000000
03002000
00003020
00000032
,  // measure 19
00000103
00000010
00001000
00000000
00000010
00001000
00000001
00000000
,  // measure 20
00000010
00000000
00000001
00001000
00000001
00000000
00001000
00000000
00000010
00000000
00000100
00000000
00000001
00000000
00000000
00000000
,  // measure 21
00000100
00000000
00000010
00001000
00000010
00000000
00000100
00000000
00000001
00000000
00000010
00000000
00000100
00000000
00000000
00000000
,  // measure 22
00002000
00003200
00020300
00230000
,  // measure 23
20300000
31000000
10010000
00011000
,  // measure 24
00001001
00000000
00000000
00001000
00000000
00000000
00000020
00000000
00000000
00000000
00000130
00000000
00000001
00000000
00002000
00000000
,  // measure 25
00000000
00003010
00001000
00000001
00000010
00000000
00001001
00000000
,  // measure 26
00000001
00000000
00000000
00001000
00000000
00000000
00000100
00000000
00000000
00000000
00000010
00000000
00000100
00000000
00001000
00000000
,  // measure 27
00000000
00020100
00000000
00031000
00100000
00000000
00101000
00000000
,  // measure 28
00001000
00100000
00010000
20000000
00000000
30100000
01000000
00020000
,  // measure 29
00000000
01030000
00100000
01000000
00010000
00000000
10010000
00000000
,  // measure 30
10000000
00000000
00000000
01000000
00000000
00000000
00010000
00000000
00010000
00000000
00000000
00001000
00000000
00000000
00000100
00000000
,  // measure 31
00000010
00001000
00000100
00000010
00000001
00001000
00000010
00000100
,  // measure 32
00000001
00000000
00001000
00000100
00010000
00000000
00010100
00000000
00000000
00000000
00011000
00000000
00100000
00000000
00000000
00000000
,  // measure 33
00001000
00000000
00100000
00000000
00010000
00000000
00000000
00010000
10000000
00000000
00000000
00100000
10000000
00000000
00000000
00000000
,  // measure 34
01020000
00000000
10030000
00100000
10010000
00000000
10000000
00100000
,  // measure 35
01000000
00000000
00010000
00000000
00100000
00000000
00001000
00010000
00001000
00000000
00000000
00000000
00110000
00000000
00000000
00100000
,  // measure 36
00010000
10000000
00100000
01000000
20010000
00000000
00000000
30100000
,  // measure 37
01000000
00000000
00010000
10000000
00010000
00000000
10000000
01000000
10000000
00000000
00000000
00000000
00020000
00000000
00000000
00000000
,  // measure 38
00000000
00000000
00030000
00000000
,  // measure 39
00000000
00000000
00000000
10000000
,  // measure 40
00000000
01000000
01000000
00000000
00000000
00000000
00100000
00000000
,  // measure 41
00001000
00010000
00010000
00000100
,  // measure 42
00000000
00001000
00001000
00000000
00000000
00000000
00000010
00000000
,  // measure 43
00001000
00000000
00000000
00000000
00000001
00000000
00000000
00000000
00000001
00000000
00000000
00000000
00000010
00000001
00000010
00000001
,  // measure 44
00000000
00000000
00000100
00000000
00000100
00000000
00000000
00000000
00000000
00000000
00000000
00000000
00000010
00001000
00000010
00001000
,  // measure 45
00000000
00000100
00000100
00000000
00000000
00000000
00002200
00000000
,  // measure 46
00003300
00020200
00030300
00011000
,  // measure 47
00101000
00000000
00110000
00000000
10010000
00000000
10000000
01000000
,  // measure 48
00010000
00001000
00000100
00000010
00001000
00000100
00000100
00000010
,  // measure 49
00000001
00001000
00000010
00000100
00000001
00001000
00000001
00000010
,  // measure 50
00001000
00010000
00100000
10000000
01000000
01000000
10000000
00100000
,  // measure 51
01000000
00010000
00100000
00001000
00010000
00001000
00100000
00010000
,  // measure 52
01000000
00100000
10000000
01000000
00100000
00010000
10000000
00100000
,  // measure 53
01000000
00010000
00100000
00001000
00010000
00000100
00000010
00000010
,  // measure 54
00000001
00000000
00000100
00000000
00000010
00000000
00000010
00000000
00001000
00000000
00000100
00000000
00010000
00001000
00010000
00001000
,  // measure 55
00010000
00001000
00010000
00001000
00010000
00001000
00010000
00001000
00010000
00001000
00010000
00001000
00100000
00000000
00010000
01000000
,  // measure 56
00010000
00000000
10000000
00000000
01000000
00000000
10000000
00000000
00010000
00000000
01000000
00000000
00100000
00000000
10000000
01000000
,  // measure 57
10000000
00000000
00010000
01000000
00010000
00000000
00100000
00010000
00100000
00000000
01000000
00000000
20000000
00000000
00000000
00000000
,  // measure 58
31000000
00000000
00100000
00000000
00101000
00000000
00000000
00000000
00001000
00000000
00010000
00000000
00000100
00000000
00001000
00000010
,  // measure 59
00001000
00000000
00000001
00000010
00000001
00000000
00000100
00000000
00000010
00000000
00001000
00000100
00001000
00000000
00000101
00000000
,  // measure 60
00000000
00000000
00001100
00000000
00000020
00000000
00000000
00000000
00000130
00000000
00000001
00000000
00001000
00000000
00000010
00001000
,  // measure 61
00000010
00000000
00001000
00000100
00001000
00000000
00000000
00000000
00020200
00000000
00000000
00000000
00000000
00000000
00000000
00000000
,  // measure 62
00030300
00000000
00002000
00000000
,  // measure 63
00000000
00000000
00003000
00000000
;
