#VERSION:0.82;
#TITLE:Dancing On My Own;
#SUBTITLE:(Tiesto Remix);
#ARTIST:Calum Scott;
#TITLETRANSLIT:;
#SUBTITLETRANSLIT:;
#ARTISTTRANSLIT:;
#GENRE:House;
#ORIGIN:;
#CREDIT:;
#BANNER:Dancing On My Own.png;
#BACKGROUND:Dancing On My Own-bg.png;
#PREVIEWVID:;
#JACKET:jacket.png;
#CDIMAGE:;
#DISCIMAGE:;
#LYRICSPATH:;
#CDTITLE:;
#MUSIC:Dancing On My Own (Tiesto Remix).ogg;
#OFFSET:-0.010000;
#SAMPLESTART:31.484192;
#SAMPLELENGTH:13.714000;
#SELECTABLE:YES;
#BPMS:0.000=61.000,
32.000=122.000,
112.000=61.000,
136.000=122.000;
#STOPS:;
#DELAYS:;
#WARPS:;
#TIMESIGNATURES:0.000=4=4;
#TICKCOUNTS:0.000=4;
#COMBOS:0.000=1;
#SPEEDS:0.000=1.000=0.000=0;
#SCROLLS:0.000=1.000;
#FAKES:;
#LABELS:0.000=Song Start;
#BGCHANGES:4.000=Dancing On My Own.avi=1.000=0=0=1=====,
99999=-nosongbg-=1.000=0=0=0 // don't automatically add -songbackground-
;
#KEYSOUNDS:;
#ATTACKS:
;

//---------------dance-single - ----------------
#NOTEDATA:;
#CHARTNAME:;
#STEPSTYPE:dance-single;
#DESCRIPTION:;
#CHARTSTYLE:;
#DIFFICULTY:Hard;
#METER:7;
#RADARVALUES:0.360067,0.432481,0.196582,0.259769,0.031594,294.000000,28.000000,37.000000,0.000000,0.000000,0.000000,0.000000,0.000000,0.360067,0.432481,0.196582,0.259769,0.031594,294.000000,28.000000,37.000000,0.000000,0.000000,0.000000,0.000000,0.000000;
#CREDIT:Ben Speirs;
#NOTES:
0000
0000
0000
0000
,
0000
0000
0000
0000
,
0100
0000
0000
0000
0001
0000
1000
0000
0010
0000
0000
0000
1000
0001
1000
0000
,
0001
0010
0001
1000
,
0010
0000
0000
0000
0100
0000
0100
0000
0001
0000
0000
0000
0100
0010
1000
0000
,
0100
0000
1000
0000
0010
0010
0100
0000
,
0001
0000
0000
0000
0100
0000
0001
0000
0010
0000
0000
0000
0001
0010
0100
1000
,
0010
0000
0100
0000
0001
1000
0010
1001
,
0002
0000
0013
0000
0001
0010
0100
1000
,
0020
0000
0130
0000
0010
0100
0001
1000
,
0200
0000
1300
0000
0010
0000
1000
0200
,
0000
0000
0310
0000
0001
0010
0100
1000
,
0020
0000
0130
0000
0010
0100
0001
1000
,
0200
0000
1300
0000
0010
1000
0100
0010
,
0002
0000
0103
0000
0002
0000
1003
0020
,
0000
0000
0130
0000
0010
1000
0100
0000
,
1100
0000
1001
0000
1000
0001
0100
0000
,
0101
0000
1001
0000
1000
0001
0010
0200
,
1000
0000
1300
0020
0100
0000
0130
0002
,
1000
1003
1001
0110
,
1002
0000
0103
0000
0010
0100
0001
0000
,
0100
0010
1000
0000
0010
1000
0100
0010
,
0001
0000
1000
0000
0010
1000
0001
0000
,
0010
0001
0100
0000
0010
0010
0100
0000
,
0001
0101
1000
1100
,
1001
0000
0011
0000
0010
0001
1000
1000
,
0020
0100
0000
0130
,
0002
0103
2000
3100
,
2002
3003
1000
0001
0020
0030
0001
1000
,
0020
0000
0030
0000
0100
0000
0010
0000
2000
0000
3000
0000
0010
1000
0001
0010
,
0200
0000
0300
0000
0010
0000
0001
0000
0200
0000
0300
0000
0001
0100
0001
0000
,
2000
0000
3000
0000
0100
0000
1000
0000
0020
0000
0030
0000
1000
0010
0100
0001
,
2000
0000
3000
0000
,
0000
0000
0000
0000
0000
0000
0000
1001
,
0201
0000
0310
0000
0100
0001
0100
0001
,
2000
0000
3100
0000
1000
0010
0100
0002
,
0010
0000
0013
0200
1000
0000
1300
0020
,
0100
0130
0110
1001
,
0110
0000
1000
0000
0010
1000
0100
0000
,
0010
0001
0100
0000
0001
0010
0100
1000
,
0002
0000
0103
0000
0001
1000
0001
0000
,
1000
0100
0010
0001
0100
0100
0010
0000
,
0110
0000
0101
0000
0100
0100
0010
1000
,
0100
0000
1100
0000
0100
0100
1000
0010
,
0100
0001
1000
0000
0001
0010
0100
1000
,
0010
0000
0100
0000
0010
0100
0001
0000
,
0101
0000
1000
0000
0010
1000
0100
0000
,
1100
0000
0001
0000
0010
0001
1000
0001
,
1000
0010
0100
0000
0002
0000
1003
0200
,
0000
0000
0310
0000
0100
1000
0010
0000
,
1010
0000
1001
0000
1000
0010
0100
0001
,
1000
0000
0001
0000
0010
0001
1000
0020
,
0100
0000
0130
0002
1000
0000
1003
0200
,
0010
0310
0110
0011
,
1100
0000
0001
0001
,
0100
0000
1000
0000
0010
0000
0100
0100
,
0001
0000
0000
0000
;

//---------------dance-double - ----------------
#NOTEDATA:;
#CHARTNAME:;
#STEPSTYPE:dance-double;
#DESCRIPTION:;
#CHARTSTYLE:;
#DIFFICULTY:Challenge;
#METER:6;
#RADARVALUES:0.332986,0.393165,0.175520,0.273811,0.010531,268.000000,25.000000,39.000000,0.000000,0.000000,0.000000,0.000000,0.000000,0.332986,0.393165,0.175520,0.273811,0.010531,268.000000,25.000000,39.000000,0.000000,0.000000,0.000000,0.000000,0.000000;
#CREDIT:Ben Speirs;
#NOTES:
00000000
00000000
00000000
00000000
,
00000000
00000000
00000000
00000000
,
00001000
00000000
00000000
00000000
00000010
00000000
00000100
00000000
00000001
00000000
00001000
00000000
00000010
00000100
00000010
00000000
,
00001000
00000100
00010000
00001000
,
00100000
00000000
00000000
00000000
00010000
00000000
01000000
00000000
01000000
00000000
00010000
00000000
10000000
01000000
10000000
00000000
,
00100000
01000000
00010000
00010000
,
10000000
00000000
00100000
00000000
01000000
00000000
01000000
00000000
00010000
00000000
00100000
00000000
00001000
00100000
00001000
00000000
,
00010000
00000000
00000100
00000000
00001000
00000000
00000010
00000110
,
00000200
00000000
00000301
00000000
00000100
00000010
00000100
00000000
,
00000002
00000000
00001003
00000000
00001000
00000100
00001000
00000000
,
00000010
00000000
00000100
00000000
00000001
00000010
00000100
00000000
,
00002200
00000000
00003300
00000000
00000001
00001000
00000001
00000000
,
00001000
00000000
00000100
00000000
00010000
00001000
00010000
00000000
,
00001000
00000000
00100000
00000000
00001000
00010000
00001000
00100000
,
00010000
00000000
01000000
00000000
00100000
00000000
10000000
01000000
,
20000000
00000000
30000000
00000000
00100000
10000000
00010000
00000000
,
20020000
00000000
30030000
00000000
00010000
00100000
01000000
10000000
,
00100000
00000000
01000000
00000000
00100000
10000000
01000000
00000000
,
21000000
30010000
01020000
10030000
,
20020000
00000000
30030000
00000000
10000000
00100000
00010000
00001000
,
00000020
00000030
00000001
00001000
,
00001100
00000000
00000101
00000000
00000010
00000000
00000001
00000200
,
00000000
00000000
00000300
00000000
00000010
00000100
00000001
00000000
,
00000100
00000010
00001000
00000000
00000100
00001000
00000100
00000000
,
00010100
00001100
00000001
00000101
,
00000010
00000000
00000010
00000000
00000001
00000100
00000010
00001000
,
00000200
00010000
00000000
00010300
,
00002000
00000000
00013000
00000000
00100000
00001000
00010000
00000000
,
00200000
00000000
00010000
00010000
00302000
00000000
00010000
00010000
,
02003000
00000000
03100000
10000000
00010000
00100000
01000000
01000000
,
20000000
00000000
31000000
01000000
00200000
00000000
00310000
00010000
,
02000000
00000000
03100000
10000000
01000000
00100000
00001000
00010000
,
00022000
00000000
00033000
00000000
,
00000000
00000000
00000000
00000000
00000000
00000000
00000000
00100010
,
00021000
00000000
00030100
00000000
00001000
00000100
00000010
00000001
,
00000200
00000000
00000310
00000000
00000100
00000001
00000010
00000100
,
00002000
00003010
00000002
00000013
,
00002002
00000000
00003003
00000000
00000001
00000100
00001000
00010000
,
02000000
00000000
13000000
00000000
01000000
10000000
00100000
00000000
,
10000000
00100000
01000000
00000000
01100000
00000000
00010000
00020000
,
00000000
00000000
01030000
00000000
00010000
10000000
00100000
00000000
,
10000000
00010000
00100000
00000000
00001000
00001000
00001000
00000000
,
00100000
00000000
00110000
00000000
00010000
00100000
01000000
10000000
,
00100000
00000000
10100000
00000000
10000000
00100000
01000000
00010000
,
10000000
00000000
00010000
00000000
00200000
00000000
00301000
00020000
,
00000000
00000000
00030000
00000000
00001000
00010000
00000100
00000000
,
00001100
00000000
00000110
00000000
00000010
00000001
00000100
00000000
,
00000101
00000000
00000110
00000000
00000010
00001000
00000100
00000000
,
00001000
00000000
00000001
00000000
00000100
00000100
00000200
00000000
,
00000300
00000000
00000010
00000100
00000001
00001000
00000010
00000000
,
00002002
00000000
00003003
00000000
00000001
00001000
00000100
00000000
,
00000010
00000000
00000010
00000000
00000001
00000010
00000100
00001000
,
00000020
00000000
00000130
00000000
00002000
00000000
00003100
00000001
,
00002000
00003000
00001100
00010100
,
00001000
00000000
00100000
00100000
,
00001000
00000000
00010000
00000000
00000100
00000000
00001000
00000010
,
00000100
00000000
00000000
00000000
;

//---------------dance-single - ----------------
#NOTEDATA:;
#CHARTNAME:;
#STEPSTYPE:dance-single;
#DESCRIPTION:;
#CHARTSTYLE:;
#DIFFICULTY:Medium;
#METER:4;
#RADARVALUES:0.218648,0.275215,0.098291,0.175520,0.000000,179.000000,14.000000,25.000000,0.000000,0.000000,0.000000,0.000000,0.000000,0.218648,0.275215,0.098291,0.175520,0.000000,179.000000,14.000000,25.000000,0.000000,0.000000,0.000000,0.000000,0.000000;
#CREDIT:Ben Speirs;
#NOTES:
0000
0000
0000
0000
,
0000
0000
0000
0000
,
0010
0000
1000
1000
0100
0000
0010
0010
,
0001
1000
0010
0010
,
0100
0000
0001
0001
0010
0000
0100
0100
,
1000
0010
1000
1000
,
0001
0000
0010
0010
0001
0000
0001
0001
,
0100
0010
1000
0100
,
2000
3100
1000
1000
,
0002
0103
0001
0001
,
0200
0300
0010
0020
,
0030
1000
0001
0010
,
0001
0000
1000
0100
,
1000
0000
0001
0100
,
0001
0000
1000
0020
,
0030
0010
1000
0001
,
2002
3003
0001
0001
,
0100
0000
0001
1000
,
0020
0030
2000
3000
,
0002
0003
0010
0010
,
0001
0000
1000
0100
,
0010
0000
0001
0000
0100
0000
0010
0010
,
0000
0000
0100
0001
,
1000
0010
1000
0000
,
1001
0000
0001
1000
,
1100
0000
1000
0001
,
0000
0010
0000
0010
,
0000
0001
0100
1000
,
2002
3003
0002
0003
,
0200
0300
0020
0030
,
1000
0100
0010
0001
,
0100
0000
0010
0000
1000
0000
0001
0001
,
0020
0000
0030
0000
,
0000
0000
0000
0000
0000
0000
0000
1001
,
2002
0000
3003
0000
1000
0100
1000
0000
,
0002
0000
0003
0000
0001
0100
0001
0000
,
2000
3010
0200
0301
,
1000
0000
1100
0110
,
0011
0000
0001
1000
,
0010
0000
0010
0000
0100
0000
0001
0001
,
0000
1000
0000
0001
,
0000
0100
0010
0010
,
1000
0000
0001
0010
,
0011
0000
1000
0010
,
1010
0000
0000
0000
0001
0000
0100
0200
,
0000
0000
0300
0000
0010
0100
0010
0000
,
1000
0000
0001
1000
,
0010
0010
0100
0001
,
1000
0000
0000
0000
0001
0000
0010
0020
,
0000
0030
0000
1001
,
1001
0000
0000
0000
1000
0100
1000
0000
,
0000
0000
0000
0000
0001
0100
0001
0000
,
2000
3000
0020
0030
,
0100
0000
0001
1000
,
1100
0000
0100
0100
,
0010
0010
0001
1000
,
0010
0000
0000
0000
;

//---------------dance-single - ----------------
#NOTEDATA:;
#CHARTNAME:;
#STEPSTYPE:dance-single;
#DESCRIPTION:;
#CHARTSTYLE:;
#DIFFICULTY:Easy;
#METER:2;
#RADARVALUES:0.117348,0.196582,0.028083,0.070208,0.000000,103.000000,4.000000,10.000000,0.000000,0.000000,0.000000,0.000000,0.000000,0.117348,0.196582,0.028083,0.070208,0.000000,103.000000,4.000000,10.000000,0.000000,0.000000,0.000000,0.000000,0.000000;
#CREDIT:Ben Speirs;
#NOTES:
// measure 0
0000
0000
0000
0000
,  // measure 1
0000
0000
0000
0000
,  // measure 2
0020
0030
0200
0300
,  // measure 3
0002
0003
0001
1000
,  // measure 4
0200
0300
2000
3000
,  // measure 5
0020
0030
0010
0100
,  // measure 6
0002
0003
2000
3000
,  // measure 7
0010
0100
0001
1000
,  // measure 8
1001
0000
0000
0000
,  // measure 9
1000
0100
0000
0000
,  // measure 10
1000
0010
0000
0000
,  // measure 11
0100
0000
0001
0000
,  // measure 12
1000
0000
0000
0000
,  // measure 13
0001
0100
0000
0000
,  // measure 14
0010
1000
0000
0000
,  // measure 15
0001
0000
1000
0000
,  // measure 16
0010
0000
0000
0100
,  // measure 17
0100
0000
0000
0000
,  // measure 18
0001
0000
1000
0000
,  // measure 19
0010
0000
0100
0100
,  // measure 20
0100
0000
0000
0000
,  // measure 21
0001
0001
0001
0000
,  // measure 22
0001
0000
0000
0000
,  // measure 23
1000
0000
0000
0000
,  // measure 24
0010
0000
0000
0000
,  // measure 25
0100
0000
0000
0000
,  // measure 26
0000
0001
0000
0001
,  // measure 27
0000
1000
0000
1000
,  // measure 28
1000
0000
0010
0000
,  // measure 29
0100
0100
0001
0001
,  // measure 30
1000
0000
0001
0000
,  // measure 31
0100
0100
0010
0010
,  // measure 32
2002
0000
3003
0000
,  // measure 33
0000
0000
0000
0000
,  // measure 34
1001
0000
0000
0000
,  // measure 35
1000
0010
0000
0000
,  // measure 36
0100
0000
0100
0000
,  // measure 37
0100
0000
0001
0001
,  // measure 38
0001
0000
0000
0000
,  // measure 39
1000
0000
1000
0000
,  // measure 40
1000
0000
0000
0000
,  // measure 41
0010
0000
0000
0000
,  // measure 42
0100
0100
0000
0000
,  // measure 43
0001
0001
0000
0000
,  // measure 44
1000
1000
0000
0010
,  // measure 45
0010
0000
1000
0000
,  // measure 46
0001
0000
0000
0100
,  // measure 47
0100
0000
0000
0001
,  // measure 48
0001
0000
0001
0000
,  // measure 49
0001
0000
0000
0000
,  // measure 50
1001
0000
0000
0000
,  // measure 51
1000
0000
0000
0000
,  // measure 52
0010
0000
0010
0000
,  // measure 53
0010
0000
0100
0100
,  // measure 54
0100
0000
0000
0000
,  // measure 55
0001
0000
1000
0000
,  // measure 56
0010
0000
0000
0000
;

//---------------dance-single - ----------------
#NOTEDATA:;
#CHARTNAME:;
#STEPSTYPE:dance-single;
#DESCRIPTION:;
#CHARTSTYLE:;
#DIFFICULTY:Beginner;
#METER:1;
#RADARVALUES:0.069205,0.117949,0.014042,0.000000,0.000000,67.000000,2.000000,0.000000,0.000000,0.000000,0.000000,0.000000,0.000000,0.069205,0.117949,0.014042,0.000000,0.000000,67.000000,2.000000,0.000000,0.000000,0.000000,0.000000,0.000000,0.000000;
#CREDIT:Ben Speirs;
#NOTES:
0000
0000
0000
0000
,
0000
0000
0000
0000
,
0100
0000
0000
0000
,
0010
0000
0000
0000
,
1000
0000
1000
0000
,
1000
0000
0000
0000
,
0001
0000
0001
0000
,
0001
0000
0000
0000
,
1001
0000
0000
0000
,
1000
0000
0000
0000
,
0001
0000
0000
0000
,
0100
0000
0000
0000
,
0010
0000
0000
0000
,
0010
0000
0000
0000
,
1000
0000
0000
0000
,
0001
0000
0000
0000
,
0100
0000
0000
0000
,
0001
0000
0000
0000
,
1000
0000
1000
0000
,
1000
0000
0000
0000
,
0000
0000
0000
0000
,
0010
0010
0010
0010
,
0010
0000
0000
0000
,
1000
0000
0000
0000
,
0001
0000
0000
0000
,
1000
0000
0000
0000
,
0010
0000
0000
0000
,
0100
0000
0000
0000
,
0110
0000
0000
0000
,
1000
0000
1000
0000
,
0001
0000
0000
0000
,
0001
0000
0001
0000
,
0100
0000
0000
0000
,
0000
0000
0000
0000
,
0010
0000
0000
0000
,
1000
0000
0000
0000
,
0001
0000
0001
0000
,
0001
0000
0000
0000
,
0000
0000
0000
0000
,
0100
0100
0100
0100
,
0100
0000
0000
0000
,
0001
0000
0000
0000
,
1000
0000
0000
0000
,
0010
0000
0000
0000
,
0100
0000
0000
0000
,
0100
0000
0000
0000
,
0001
0000
0000
0000
,
1000
0000
0000
0000
,
0010
0000
0000
0000
,
0010
0000
0000
0000
,
0100
0000
0000
0000
,
0100
0000
0000
0000
,
0001
0000
0001
0000
,
0001
0000
0000
0000
,
0000
0000
0000
0000
,
0100
0100
0100
0100
,
0100
0000
0000
0000
;
