#TITLE:Say Hey! (I Love You);
#SUBTITLE:;
#ARTIST:Michael Franti & Spearhead;
#TITLETRANSLIT:;
#SUBTITLETRANSLIT:;
#ARTISTTRANSLIT:;
#CREDIT:;
#BANNER:Say Hey! (I Love You)-bn.png;
#BACKGROUND:Say Hey! (I Love You)-bg.png;
#LYRICSPATH:;
#CDTITLE:;
#MUSIC:Say Hey! (I Love You).mp3;
#OFFSET:-0.050;
#SAMPLESTART:15.520;
#SAMPLELENGTH:16.340;
#SELECTABLE:YES;
#BPMS:0.000=186.000;
#STOPS:;
#BGCHANGES:;

//---------------dance-single - ----------------
#NOTES:
     dance-single:
     :
     Beginner:
     1:
     0.121,0.182,0.055,0.000,0.000: // measure 1
0000
0000
0000
0000
,  // measure 2
0000
0000
0000
0000
,  // measure 3
0000
0000
0000
0000
,  // measure 4
0000
0000
0000
0000
,  // measure 5
0010
0000
0000
0000
,  // measure 6
0010
0000
0000
0000
,  // measure 7
0010
0000
0000
0000
,  // measure 8
0010
0000
0000
0000
,  // measure 9
0100
0000
0000
0000
,  // measure 10
0100
0000
0000
0000
,  // measure 11
0100
0000
0000
0000
,  // measure 12
0000
0000
0000
0000
,  // measure 13
1001
0000
0000
0000
,  // measure 14
0100
0000
0000
0000
,  // measure 15
1001
0000
0000
0000
,  // measure 16
0010
0000
0000
0000
,  // measure 17
1000
0000
1000
0000
,  // measure 18
1000
0000
1000
0000
,  // measure 19
0010
0000
0010
0000
,  // measure 20
0010
0000
0010
0000
,  // measure 21
0010
0000
0000
0000
,  // measure 22
1000
0000
0000
0000
,  // measure 23
0001
0000
0000
0000
,  // measure 24
0000
0000
0000
0000
,  // measure 25
1000
0000
0000
0000
,  // measure 26
0001
0000
0000
0000
,  // measure 27
0100
0000
0000
0000
,  // measure 28
0000
0000
0000
0000
,  // measure 29
0010
0000
0000
0000
,  // measure 30
0010
0000
0000
0000
,  // measure 31
1000
0000
0000
0000
,  // measure 32
1000
0000
0000
0000
,  // measure 33
0100
0000
0000
0000
,  // measure 34
0100
0000
0000
0000
,  // measure 35
0010
0000
0000
0000
,  // measure 36
0010
0000
0000
0000
,  // measure 37
0001
0000
0000
0000
,  // measure 38
0001
0000
0000
0000
,  // measure 39
1000
0000
0000
0000
,  // measure 40
1000
0000
0000
0000
,  // measure 41
0010
0000
0000
0000
,  // measure 42
0010
0000
0000
0000
,  // measure 43
1001
0000
0000
0000
,  // measure 44
0000
0000
0000
0000
,  // measure 45
0110
0000
0000
0000
,  // measure 46
1000
0000
0000
0000
,  // measure 47
0110
0000
0000
0000
,  // measure 48
0001
0000
0000
0000
,  // measure 49
0100
0000
0100
0000
,  // measure 50
0100
0000
0000
0000
,  // measure 51
0001
0000
0001
0000
,  // measure 52
0001
0000
0000
0000
,  // measure 53
1000
0000
0000
0000
,  // measure 54
0010
0000
0000
0000
,  // measure 55
1000
0000
0000
0000
,  // measure 56
0000
0000
0000
0000
,  // measure 57
0100
0000
0000
0000
,  // measure 58
0010
0000
0000
0000
,  // measure 59
0001
0000
0000
0000
,  // measure 60
0000
0000
0000
0000
,  // measure 61
0100
0000
0100
0000
,  // measure 62
0010
0000
0000
0000
,  // measure 63
1000
0000
1000
0000
,  // measure 64
0001
0000
0000
0000
,  // measure 65
0001
0000
0001
0000
,  // measure 66
0010
0000
0000
0000
,  // measure 67
0100
0000
0100
0000
,  // measure 68
1000
0000
0000
0000
,  // measure 69
0010
0000
0010
0000
,  // measure 70
0100
0000
0000
0000
,  // measure 71
0001
0000
0001
0000
,  // measure 72
1000
0000
0000
0000
,  // measure 73
1000
0000
1000
0000
,  // measure 74
0100
0000
0000
0000
,  // measure 75
0010
0000
0010
0000
,  // measure 76
0010
0000
0010
0000
,  // measure 77
0010
0000
0010
0000
,  // measure 78
0010
0000
0010
0000
,  // measure 79
0010
0000
0000
0000
,  // measure 80
0000
0000
0000
0000
,  // measure 81
0110
0000
0000
0000
;

//---------------dance-single - ----------------
#NOTES:
     dance-single:
     :
     Medium:
     5:
     0.299,0.367,0.255,0.255,0.000:
0000
0000
0000
0000
,
0000
0000
0000
0000
,
0000
0000
0000
0000
,
0000
0000
0000
0000
,
1000
0000
0000
0100
0000
0000
0000
0000
,
1000
0000
0000
0100
0000
0000
0000
0000
,
0010
0000
0000
0001
0000
0000
0000
0000
,
0010
0000
0000
0001
0000
0000
0000
0000
,
0100
0010
0100
0010
0000
0000
0000
0000
,
0100
0000
0000
0010
0000
0000
0000
0000
,
1000
0001
1000
0001
0000
0000
0000
0000
,
1000
0000
0000
0001
0000
0000
0000
0000
,
2020
0000
0000
0000
0000
0030
0000
0000
,
0100
0000
0000
3100
0000
0000
0000
0000
,
0001
1000
0001
0100
,
0010
0000
0000
0010
0000
0000
0000
0000
,
0100
0000
0010
0000
,
1000
0000
0100
0000
,
1000
0000
0100
0000
0010
0000
0001
0010
,
0000
0100
0000
1000
0000
0000
0000
0000
,
2020
0000
3030
0000
,
0020
0000
0030
0000
,
2002
0000
3003
0000
,
0100
0000
0000
0000
,
0202
0000
0303
0000
,
2200
0000
3300
0000
,
2002
0000
3003
0000
,
0010
0000
0000
0000
,
1000
0000
0000
1000
0000
0000
0000
0000
,
0010
0000
0000
0010
0000
0000
0000
0000
,
0100
0000
0000
0100
0000
0000
0000
0000
,
0001
0000
0000
0001
0000
0000
0000
0000
,
0010
0000
0000
0100
0000
0000
0000
0000
,
1000
0000
0000
0100
0000
0000
0000
0000
,
0001
0000
0000
0100
0000
0000
0000
0000
,
0010
0000
0000
1000
0000
0000
0000
0000
,
0100
1000
0100
0000
,
1000
0000
0100
1000
0000
0000
0000
0000
,
0001
0100
0001
0000
,
0100
0000
0001
0100
0000
0000
0000
0000
,
0010
1000
0100
0000
,
1000
0100
0010
0000
,
0001
0000
0010
0100
0000
0000
0010
0000
,
0001
0000
0100
0010
0000
0000
0000
0000
,
2002
0000
0003
0000
,
0100
0000
0000
3100
0000
0000
0000
0000
,
1000
0010
0100
0001
,
0100
0010
1000
0000
,
0001
0000
0010
0000
0100
0000
1000
0100
,
0000
0010
0000
0001
0000
0000
0000
0000
,
1000
0000
0010
0000
0100
0000
0001
0100
,
0000
0010
0000
1000
0000
0000
0000
0000
,
0220
0000
0330
0000
,
2000
0000
3000
0000
,
0202
0000
0303
0000
,
0010
0000
0000
0000
,
2020
0000
3030
0000
,
0220
0000
0330
0000
,
2002
0000
3003
0000
,
0100
0000
0000
0000
,
1000
0100
1000
0100
,
0010
0001
0010
0000
,
1001
0000
1001
0000
,
0000
0100
0100
0000
,
0010
1000
0010
1000
,
0001
0100
0001
0000
,
1010
0000
1010
0000
,
0000
0100
0100
0000
,
0010
1000
0100
0010
,
0001
1000
0001
0000
,
1010
0000
0101
0000
,
0000
0010
0010
0000
,
1000
0010
0100
0001
,
0010
0100
1000
0000
,
1100
0000
0110
0000
,
0011
0000
1001
0000
,
1010
0000
0110
0000
,
1001
0000
1100
0000
,
0011
0000
0000
0000
,
0100
0010
1000
0000
,
2002
0000
0000
3003
;

//---------------dance-single - ----------------
#NOTES:
     dance-single:
     :
     Hard:
     10:
     0.479,0.624,0.473,0.155,0.000:
0000
0000
0000
0000
,
0000
0000
0000
0000
,
0000
0000
0000
0000
,
0000
0000
0000
0000
,
0010
0000
0100
0001
0000
0001
0100
0000
,
0010
0000
1000
0100
0000
0100
1000
0000
,
0001
0000
0010
1000
0000
1000
0010
0000
,
0001
0000
1000
0100
0000
0100
1000
0000
,
0010
0100
0010
0100
0000
0000
1000
0000
,
0100
0000
1000
0100
0000
0000
1000
0000
,
0001
0100
0001
0100
0000
0000
0010
0000
,
0100
0000
0001
1000
0000
0000
0000
0000
,
0210
0000
0001
0000
0310
0000
1000
0100
,
1000
0000
0001
0100
0000
0000
0000
0000
,
2010
0000
0100
0000
3001
0000
1000
0100
,
1000
0000
0001
0100
0001
0000
0000
0000
,
1000
0000
0010
0000
0100
0000
0001
0010
,
0000
1000
0000
0010
0000
0000
0000
0000
,
0011
1001
1100
0010
,
1010
1001
0101
0000
,
0220
0000
0330
0000
,
0202
0000
0303
0000
,
2200
0000
3300
0000
,
0100
1000
0010
0000
,
1010
1010
0000
0000
,
1001
1001
0000
0000
,
0110
0110
0000
0000
,
0001
0100
1000
0000
,
0010
1000
0100
0010
,
0001
0000
1000
0001
0000
0000
0000
0000
,
1000
0000
0100
0000
1000
0000
0010
0100
,
0010
0000
1000
0100
1000
0000
0001
0000
,
1000
0000
0010
0100
0010
0000
1000
0000
,
0000
0000
0100
0010
0100
0000
1000
0100
,
1000
0000
0010
0000
1000
0000
0001
0010
,
0001
0000
1000
0100
1000
0000
0000
0000
,
0010
1000
0100
0010
,
0001
1000
0001
1000
0000
0000
0000
0000
,
0010
1000
0001
0100
,
0010
1000
0001
1000
0100
0000
1000
0000
,
0010
0000
1000
0100
1000
0000
0010
0000
,
0100
0000
0010
0100
0010
0100
0010
0000
,
1000
0000
0100
1000
0000
1000
0001
0000
,
0010
0000
0100
0010
0001
0100
1000
0000
,
0120
0000
1000
0000
0130
0000
0001
0010
,
0001
0000
1000
0010
0000
0000
0000
0000
,
0102
0000
0010
0000
1003
0000
0001
0010
,
0001
0000
1000
0010
1000
0000
0000
0000
,
0001
0000
0100
0000
0010
0000
1000
0100
,
0000
0001
0000
0100
0000
0000
0000
0000
,
1100
1001
0011
0100
,
0101
1001
1010
0000
,
0220
0000
0330
0000
,
2020
0000
3030
0000
,
0022
0000
0033
0000
,
0010
0001
0100
0000
,
0101
0101
0000
0000
,
1001
1001
0000
0000
,
0110
0110
0000
0000
,
1000
0100
0010
0000
,
0001
1000
0001
1000
0100
0000
1000
0000
,
0001
1000
0001
0100
0000
0000
0000
0000
,
1100
0010
0101
1000
,
0000
0010
0000
0100
0010
0000
0000
0000
,
1000
0100
1000
0100
0010
0000
0001
0000
,
0100
0010
0100
1000
0000
0100
0001
0000
,
1010
0100
1001
0010
,
0000
0100
0000
0001
0100
0000
0010
0000
,
1000
0100
1000
0100
0010
0000
0010
0000
,
0001
0100
0001
0100
0010
0000
0010
0000
,
0110
0001
1100
0001
,
0000
1000
0000
0100
1000
0000
0010
0000
,
0100
0001
1000
0001
0100
0000
0001
0000
,
1000
0100
1000
0100
0010
0000
0001
0000
,
1100
0010
0101
0010
,
1100
0010
1001
0010
,
1001
1100
0101
0011
,
1010
1001
0110
1001
,
1000
0100
0001
0000
,
1000
0000
0010
0100
0001
1000
0100
0000
,
2000
0000
0000
3000
;

//---------------dance-single - ----------------
#NOTES:
     dance-single:
     :
     Easy:
     3:
     0.197,0.327,0.027,0.282,0.000:
0000
0000
0000
0000
,
0000
0000
0000
0000
,
0000
0000
0000
0000
,
0000
0000
0000
0000
,
0010
0000
0000
0000
,
0010
0000
0000
0000
,
1000
0000
0000
0000
,
1000
0000
0000
0000
,
0001
0000
0000
0000
,
0001
0000
0000
0000
,
0100
0000
0000
0000
,
0100
0000
0000
0000
,
0002
0000
0000
0000
,
0100
0103
0000
0000
,
2000
0000
0000
0000
,
0100
3100
0000
0000
,
1000
0000
1000
0000
,
0010
0000
0010
0000
,
0100
0000
0100
0000
,
0010
0000
0010
0000
,
2000
0000
3000
0000
,
0002
0000
0003
0000
,
0020
0000
0030
0000
,
0000
0000
0000
0000
,
0002
0000
0003
0000
,
2000
0000
3000
0000
,
0200
0000
0300
0000
,
0000
0000
0000
0000
,
1000
0000
1000
0000
,
1000
0000
1000
0000
,
0010
0000
0010
0000
,
0010
0000
0010
0000
,
0100
0000
0100
0000
,
0100
0000
0100
0000
,
0001
0000
0001
0000
,
0001
0000
0001
0000
,
1001
0000
0100
0000
,
1000
0000
0010
0000
,
1000
0000
0001
0000
,
0010
0000
0100
0000
,
0110
0000
1000
0000
,
0001
0000
0100
0000
,
0010
1000
0100
1000
,
0001
0010
0100
0000
,
2000
0000
0000
0000
,
0100
3100
0000
0000
,
0002
0000
0000
0000
,
0010
0013
0000
0000
,
0001
0000
0100
0000
,
0010
0000
1000
0000
,
0100
0000
1000
0000
,
0010
0000
0000
0000
,
2000
0000
3000
0000
,
0020
0000
0030
0000
,
0200
0000
0300
0000
,
0000
0000
0000
0000
,
0020
0000
0030
0000
,
2000
0000
3000
0000
,
0002
0000
0003
0000
,
0000
0000
0000
0000
,
1001
0000
0100
0000
,
1000
0100
1000
0000
,
0020
0030
0020
0030
,
0000
0000
0000
0000
,
1000
0000
0001
0000
,
0010
0001
0010
0000
,
0200
0300
0200
0300
,
0000
0000
0000
0000
,
0010
0000
0001
0000
,
0100
0010
1000
0000
,
0020
0030
0020
0030
,
0000
0000
0000
0000
,
1000
0000
0100
0000
,
0010
0001
0100
0000
,
0002
0003
0002
0003
,
0002
0003
0002
0003
,
0002
0003
0002
0003
,
0002
0003
0002
0003
,
0002
0000
0000
0000
,
0000
0000
0000
0000
,
1003
0000
0000
0000
;
