#TITLE:Runaways;
#SUBTITLE:;
#ARTIST:The Killers;
#TITLETRANSLIT:;
#SUBTITLETRANSLIT:;
#ARTISTTRANSLIT:;
#CREDIT:;
#BANNER:Runaways-bn.png;
#BACKGROUND:Runaways-bg.png;
#LYRICSPATH:;
#CDTITLE:;
#MUSIC:Runaways.mp3;
#OFFSET:-0.110;
#SAMPLESTART:95.440;
#SAMPLELENGTH:16.340;
#SELECTABLE:YES;
#BPMS:0.000=118.000,56.000=122.000;
#STOPS:;
#BGCHANGES:-0.300=Runaways.avi=1.000=1=0=0,
99999=-nosongbg-=1.000=0=0=0 // don't automatically add -songbackground-
;

//---------------dance-single - ----------------
#NOTES:
     dance-single:
     :
     Beginner:
     1:
     0.107,0.164,0.043,0.000,0.000:
0000
0000
0000
0000
,
0000
0000
0000
0000
,
0000
0000
0000
0000
,
0000
0000
0000
0000
,
1000
0000
1000
0000
,
1000
0000
0000
0000
,
0010
0000
0010
0000
,
0010
0000
0000
0000
,
0100
0000
0000
0000
,
0001
0000
0000
0000
,
1000
0000
0000
0000
,
0010
0010
0000
0000
,
1000
0000
0000
0000
,
0001
0000
0000
0000
,
1001
0000
0000
0000
,
0000
0000
0010
0010
,
0010
0000
0000
0000
,
0000
0000
0000
0000
,
1000
0000
1000
0000
,
0100
0000
0100
0000
,
0010
0000
0010
0000
,
0001
0000
0000
0000
,
1001
0000
0000
0000
,
0010
0000
0000
0000
,
0100
0000
0100
0000
,
0001
0000
0001
0000
,
0010
0000
0010
0000
,
0100
0100
0100
0000
,
1000
0000
1000
0000
,
0010
0000
0010
0000
,
1000
0000
1000
0000
,
0001
0000
0001
0000
,
0100
0000
0000
0000
,
0001
0001
0000
0000
,
0100
0000
0000
0000
,
0010
0010
0000
0000
,
1000
0000
0000
0000
,
0100
0100
0000
0000
,
1001
0000
0000
0000
,
0010
0000
0010
0000
,
0010
0000
0000
0000
,
0100
0000
0100
0000
,
0100
0000
0000
0000
,
0001
0000
0000
0000
,
1000
0000
0000
0000
,
0100
0000
0000
0000
,
1000
0000
1000
0000
,
0010
0010
0010
0010
,
0010
0000
0000
0000
,
0100
0000
0000
0000
,
0001
0001
0000
0000
,
0001
0001
0000
0000
,
1001
0000
0000
0000
,
1000
0000
0000
0000
,
0010
0010
0000
0000
,
1000
1000
0000
0000
,
0000
0100
0100
0100
,
0100
0000
0000
0000
,
1000
0000
1000
0000
,
0010
0000
0010
0000
,
0000
1000
1000
1000
,
1000
0000
0000
0000
,
0001
0000
0001
0000
,
0001
0000
0100
0000
,
0110
0000
0000
0000
,
1001
0000
0000
0000
;

//---------------dance-single - ----------------
#NOTES:
     dance-single:
     :
     Medium:
     8:
     0.272,0.356,0.101,0.123,0.000:
0000
0000
0000
0000
,
0000
0000
0000
0000
,
0000
0000
0000
0000
,
0000
0000
0000
0000
,
0010
0010
1000
0100
,
1000
0100
1000
0000
0000
0000
0000
0000
,
1000
1000
0100
1000
,
0001
0100
0001
0000
0010
0000
0100
0000
,
2002
0000
0000
3003
,
0200
0000
0010
0000
,
2300
0000
0000
0010
,
0020
0000
0000
0000
0000
3000
0000
0000
,
0200
0000
0000
0030
,
0002
0000
0000
0303
,
2001
0100
0100
0100
,
0100
0000
0100
0000
3010
0000
1000
0100
,
1000
0001
0100
0000
0010
0000
0100
0000
,
0010
1000
0001
0000
,
1000
0000
0100
1000
0001
0000
1000
0000
,
0010
0000
0100
0010
1000
0000
0001
0000
,
1000
0100
0010
0001
,
0101
0000
0000
0000
,
0110
0000
0000
1001
0000
0000
0000
0000
,
1100
0100
0100
0100
,
1000
0010
0100
0010
,
1000
0001
0100
0000
0000
0000
0000
0000
,
0010
1000
0001
0010
,
0100
0000
1000
0000
0010
1000
0100
1000
,
0010
1000
0001
0010
,
0100
0010
0001
0000
0000
0000
0000
0000
,
0010
0001
0100
0010
,
1000
0000
0010
0000
0100
0001
0100
0010
,
0200
0000
0000
0000
0310
0100
0010
0000
,
2000
0100
0002
3003
,
0020
0100
0100
0001
,
0032
0100
0103
0000
,
2010
0000
0000
0000
0100
0100
3100
0000
,
1000
0010
0100
0000
,
2010
0010
0010
0010
,
0010
0000
0010
0000
3010
0000
1000
0100
,
0010
0001
0100
0000
0010
0000
0100
0000
,
0001
1000
0001
0000
,
1000
0100
0010
0001
0001
0000
0100
0000
,
0010
1000
0100
1000
1000
0000
0010
0000
,
1000
0000
0010
0000
0100
0010
0000
1001
,
0000
0000
0000
0000
,
0001
1000
0001
1000
0001
1000
0001
1000
,
0010
0100
0010
0100
0010
0000
0100
0000
,
1000
0000
1000
0001
0000
0000
0000
0000
,
0110
0000
0001
0100
0010
0100
0001
0000
,
1000
1000
0100
1000
,
0001
0001
0110
0000
,
1000
0000
1000
0100
0000
0000
0000
0000
,
0010
0000
0001
1000
0100
1000
0001
0000
,
0100
0100
0010
1000
,
0001
0000
1000
0010
,
0100
0000
0010
1000
0100
0000
0010
0000
,
0001
1000
0001
0000
0000
0000
0000
0000
,
1000
0100
0001
0100
,
1000
0010
0001
0010
,
1000
0000
0001
0100
0010
0000
1000
0000
,
0001
1000
0001
0000
0000
0000
0000
0000
,
0100
1000
0010
0100
,
0010
0000
1000
0000
0100
0010
0001
0000
,
0110
0000
0000
1001
0000
0000
0000
0000
,
2020
0000
0000
3030
;

//---------------dance-single - ----------------
#NOTES:
     dance-single:
     :
     Hard:
     11:
     0.428,0.427,0.166,0.123,0.000: // measure 1
0000
0000
0000
0000
,  // measure 2
0000
0000
0000
0000
,  // measure 3
0000
0000
0000
0000
,  // measure 4
0000
0000
0000
0000
,  // measure 5
0001
0000
0000
0100
0000
0000
0000
0000
,  // measure 6
0010
0000
0000
0000
,  // measure 7
1000
0000
0000
0100
0000
0000
0000
0000
,  // measure 8
0010
0000
0001
1000
,  // measure 9
2001
0000
0000
0000
3100
1000
0010
0000
,  // measure 10
0100
0010
0100
0001
,  // measure 11
0012
0000
0000
0000
0103
0010
1000
0000
,  // measure 12
0001
1000
0001
0000
1000
0100
0010
0000
,  // measure 13
0201
0000
0000
0000
0310
0100
0010
1000
,  // measure 14
0001
0000
1000
0000
0100
1000
0010
0000
,  // measure 15
0101
0100
0010
0100
0001
0100
0010
0100
,  // measure 16
0001
0100
0010
0100
0001
0100
0010
1000
,  // measure 17
0100
0010
0100
1000
0100
0010
0100
1000
,  // measure 18
0100
0010
0100
1000
0100
0010
0100
1000
,  // measure 19
1100
0000
0010
1000
0001
0000
0100
0000
,  // measure 20
0010
0100
0010
0100
0001
1000
0001
0000
,  // measure 21
1100
0000
0011
0000
0010
1000
0001
0100
,  // measure 22
0020
0000
0130
0000
1000
0110
0000
0000
,  // measure 23
0200
0000
0000
0302
0000
0000
0000
0000
,  // measure 24
2003
0000
0100
0000
0000
0010
3100
0000
,  // measure 25
1000
0100
0010
0001
0000
0100
0010
0100
,  // measure 26
0001
1000
0001
0000
0010
0000
0100
0000
,  // measure 27
0010
0001
0100
0010
0000
0100
0010
1000
,  // measure 28
0010
1000
0100
1000
0001
1000
0010
0000
,  // measure 29
0100
0010
0100
0001
0000
0010
0001
0010
,  // measure 30
0100
1000
0001
0000
1000
0000
0010
0000
,  // measure 31
0100
0010
0100
0001
0000
1000
0100
1000
,  // measure 32
0010
0100
0010
1000
0001
0010
0100
0000
,  // measure 33
2001
0000
0100
3010
0100
1000
0010
0100
,  // measure 34
0001
0000
0100
0000
0010
0100
0001
0000
,  // measure 35
1000
0100
0001
0100
1000
0010
0100
0000
,  // measure 36
0010
0010
0010
0000
0100
0001
0100
0010
,  // measure 37
2000
0100
0010
3001
,  // measure 38
0002
0000
0100
0000
0010
0010
0013
0000
,  // measure 39
0110
0010
0001
0010
0100
0010
0001
0010
,  // measure 40
0100
0010
0001
0010
0100
0010
0001
1000
,  // measure 41
0100
0010
0100
1000
0100
0010
0100
1000
,  // measure 42
0100
0010
0100
1000
0100
0010
0100
1000
,  // measure 43
1100
0000
0010
1000
0001
0000
0110
0000
,  // measure 44
0001
0100
1000
0100
0001
1000
0001
0010
,  // measure 45
0200
0000
0320
0000
0031
1000
0001
1000
,  // measure 46
0200
1000
0010
0310
,  // measure 47
1100
0000
0001
0100
0010
0100
0001
0000
,  // measure 48
0100
0100
0001
0010
1000
0010
0001
0000
,  // measure 49
1100
0010
0100
1001
0000
0010
0100
0010
,  // measure 50
0110
0000
0001
0100
0010
1000
0001
0010
,  // measure 51
0100
1000
0100
1000
0010
0100
0001
1000
,  // measure 52
0010
0100
0010
0100
0002
0000
0103
0000
,  // measure 53
1010
0100
0001
0011
0000
0010
0100
1000
,  // measure 54
1100
0000
0010
1000
0001
1000
0010
0100
,  // measure 55
0010
1000
0100
1000
0001
0010
1000
0010
,  // measure 56
0002
0000
0103
0010
0100
0001
1000
0000
,  // measure 57
1100
1000
0010
0100
0010
1000
0001
0010
,  // measure 58
1000
0010
0001
1000
0100
0010
0001
0100
,  // measure 59
0010
0100
0001
1000
0010
1000
0100
0010
,  // measure 60
0001
0010
1000
0010
0100
1000
0010
0100
,  // measure 61
0001
1000
0001
0100
0010
1000
0100
0010
,  // measure 62
0001
0100
0010
1000
0100
1000
0001
0010
,  // measure 63
1000
0010
0001
0100
1000
0010
0001
0100
,  // measure 64
0010
1000
0100
0010
0001
0010
1000
0010
,  // measure 65
0110
0000
0001
0101
0000
0000
0000
0000
,  // measure 66
2002
0000
0000
3003
;

//---------------dance-single - ----------------
#NOTES:
     dance-single:
     :
     Easy:
     4:
     0.215,0.261,0.115,0.014,0.000:
0000
0000
0000
0000
,
0000
0000
0000
0000
,
0000
0000
0000
0000
,
0000
0000
0000
0000
,
0010
1000
0100
1000
,
0001
0000
0000
0000
,
0010
0001
0100
0010
,
1000
0000
0100
0000
,
1010
0000
0100
0001
,
1000
0000
0100
0100
,
1000
0000
0010
1000
,
0001
0000
0010
0010
,
0001
0000
0100
0010
,
1000
0000
0100
0000
,
1001
0001
0001
0001
,
0001
0001
0001
0001
,
0110
0010
0010
0010
,
0010
0010
0010
0010
,
1000
0000
0100
0000
,
1000
0100
0010
0000
,
0001
0001
1000
1000
,
0001
0000
0000
0000
,
0110
0000
0000
0001
0000
0000
0000
0000
,
1000
0000
0000
0000
,
0100
1000
0010
0100
,
0100
0010
0000
0000
,
0100
0001
0100
0000
,
0010
0100
0010
0000
,
0100
0001
1000
0100
,
1000
1000
0000
0000
,
0010
1000
0010
0000
,
0100
0001
0100
0000
,
1001
0000
0100
1000
,
0100
0000
1000
0000
,
0010
1000
0100
0100
,
0010
0010
0001
0100
,
0001
0000
0100
0010
,
0100
0000
0000
0000
,
1001
1000
1000
1000
,
1000
1000
1000
1000
,
0110
0100
0100
0100
,
0100
0100
0100
0100
,
0010
0000
1000
0100
,
1000
0001
0100
0000
,
0010
0010
0100
0100
,
0010
0000
0000
0000
,
0100
0001
0100
0001
,
1000
0100
1000
0100
,
1001
0000
0000
1001
0000
0000
0000
0000
,
0100
0100
1000
1000
,
0010
0010
1000
1000
,
0001
0001
0010
0000
,
1001
0000
0000
1001
0000
0000
0000
0000
,
1001
0000
0010
0100
,
0010
1000
1000
0001
,
0001
0000
0000
0000
,
0110
0100
0010
1000
,
0010
0100
0001
0100
,
0010
1000
0010
0100
,
0001
0100
0010
1000
,
0110
0001
0010
0100
,
0010
0001
0010
0100
,
1000
0100
0010
0001
,
0010
0100
1000
0100
,
1100
0000
0000
0010
0000
0000
0000
0000
,
2002
0000
0000
3003
;
