#TITLE:Cat Song ~Theme of UPA~;
#ARTIST:UPA & Nora;
#FILE:Cat Song ~Theme of UPA~.mp3;
#BPM:127.000;
#GAP:340;
#SAMPLESTART:45.660;
#SAMPLELENGTH:16.480;
#SINGLE:BEGINNER:1:
00000000
00000000
00000000
00000000
00808000
00808000
00800080
00808000
80000000
20000000
80000000
20000000
00808000
00808000
00800080
00808000
00808000
00808000
00800080
00808000
20000000
20000000
20000000
20000000
20002000
20002000
80008000
80008000
80000000
20000000
80008000
80000000
A0000000
80000000
80000000
20202020
20000000
80000000
20000000
80000000
A0000000
A0000000
80008000
80000000
00200000
00200000
00200020
00202000
A0000000
00000000
00A00000
;
#SINGLE:ANOTHER:5:
00000000
00000000
00000000
00000080
40202040
60808060
40804060
20808000
20604024
20408040
60806026
20804022
20404088
80404066
60806020
80404000
20404000
80202000
80406080
60202000
60204028
20804020
80604060
20000000
84804020
46406020
62602820
84804020
40404000
60606000
20604020
80606000
B!40206020
60206010
B!60204020
4020B286
20008000
4000B!B0B0
20004000
6000B!B0B0
84200000
84200000
80402080
60202000
60464000
60464000
20204040
807030A0
B!B0000000
00600000
00100000
;
#SINGLE:MANIAC:10:
00000000
00000000
00000000
00000084
20103084
20103084
20108030
80B0B000
80406026
40208624
20804028
60408046
20A03082
40103084
60108030
(8000B00A00000062)
(6000100030000424)
(2000700030000082)
80A06030
(4000100B00008040)
20408060
20408060
20608040
20000000
(0084808080808080)
(0026202020202020)
(0064606000424040)
(0082808080808080)
402!201!40B4
602!20A!8078
40286046
20602480
(2000604202004000)
(8000206404002000)
(4000608202008000)
(6000400620208080)
4000A000
60004260
80003000
80002840
64246460
46264640
24802680
(2080604060004024)
(2000460600000028)
(2000620402000068)
60A02010
(80007000B0002820)
8!80000000
82!2000000
20B00000
;
#SINGLE:BASIC:3:
00000000
00000000
00000000
00000000
80202000
60404000
00200040
00808000
40006020
60004060
80002040
20004080
20808000
40606000
00400060
00202000
00202000
00606000
00400080
00402000
40006000
20006000
40002000
B0000000
20208040
60608020
40006000
20802000
60606000
20202000
60004000
20408000
4!40001000
6!60003000
2!2000A000
8!8000A000
B000A000
80002000
B000A000
80002000
6!60006000
4!40004000
2!20204!4040
8!80800000
20000000
20000000
80004000
60802000
B!B0000000
00000000
B0B00000
;
#SINGLE:SMANIAC:7:
00000000
00000000
00000000
00000000
20808000
20808000
20804020
40808000
00000006
00000000
00000006
00000082
40606082
40606082
80402040
(8000600600000082)
(4000600060000282)
(4000600060000082)
40608060
(2000600600000000)
00000006
00000660
20000000
00000000
(0028202020202020)
(0028202020202020)
(0028202000282020)
(0028202020202080)
00000000
00000080
00200060
80204820
(6000400606004000)
(6000400606004000)
(6000400606004000)
60404286
40006000
40006000
40006000
40006000
80000028
00000000
00400080
60202000
(0000420800000000)
(0000220808000000)
(0000420002008060)
00000000
00000000
04000000
00600000
;
