#VERSION:0.82;
#TITLE:Problem;
#SUBTITLE:(feat. Iggy Azalea);
#ARTIST:Ariana Grande;
#TITLETRANSLIT:;
#SUBTITLETRANSLIT:;
#ARTISTTRANSLIT:;
#GENRE:R&B;
#ORIGIN:;
#CREDIT:;
#BANNER:Problem.png;
#BACKGROUND:Problem-bg.png;
#PREVIEWVID:;
#JACKET:jacket.png;
#CDIMAGE:;
#DISCIMAGE:;
#LYRICSPATH:;
#CDTITLE:cdtitle.png;
#MUSIC:Problem.ogg;
#OFFSET:-1.044000;
#SAMPLESTART:47.549152;
#SAMPLELENGTH:13.319994;
#SELECTABLE:YES;
#BPMS:0.000=103.000,
152.000=51.500,
170.000=103.000;
#STOPS:;
#DELAYS:;
#WARPS:;
#TIMESIGNATURES:0.000=4=4;
#TICKCOUNTS:0.000=4;
#COMBOS:0.000=1;
#SPEEDS:0.000=1.000=0.000=0;
#SCROLLS:0.000=1.000;
#FAKES:;
#LABELS:0.000=Song Start;
#BGCHANGES:2.500=Problem.avi=1.000=0=0=1=====,
99999=-nosongbg-=1.000=0=0=0 // don't automatically add -songbackground-
;
#KEYSOUNDS:;
#ATTACKS:
;

//---------------dance-single - ----------------
#NOTEDATA:;
#CHARTNAME:;
#STEPSTYPE:dance-single;
#DESCRIPTION:;
#CHARTSTYLE:;
#DIFFICULTY:Hard;
#METER:8;
#RADARVALUES:0.434752,0.463938,0.170253,0.106408,0.258926,390.000000,24.000000,15.000000,0.000000,0.000000,0.000000,0.000000,0.000000,0.434752,0.463938,0.170253,0.106408,0.258926,390.000000,24.000000,15.000000,0.000000,0.000000,0.000000,0.000000,0.000000;
#CREDIT:Ben Speirs;
#NOTES:
0000
0000
0000
0000
,
0000
0000
0000
0000
,
0000
0000
0000
0000
,
0000
0000
0000
0000
,
1100
0100
0001
0100
1000
0001
0000
0100
,
0101
0000
1000
0000
0000
0001
1000
0000
0010
0000
0010
0000
1002
0000
0000
0000
,
0103
0010
0100
0000
0010
0000
1000
0000
0001
0000
0100
0000
0000
0000
0010
0000
,
1010
0000
0001
0000
0000
1000
0001
0000
0100
0000
0100
0000
2001
0000
0000
0000
,
3001
0000
0100
0000
1000
0000
0100
0000
0010
1000
0001
0000
1002
0000
0000
0000
,
1003
0000
0100
0000
0001
0000
0100
0000
0010
0001
1000
0000
1001
0000
0000
0000
,
1010
0010
0100
0001
1000
0100
0000
1000
,
1100
0000
0001
0000
0000
0100
0010
0000
0010
0000
1000
0000
0002
0000
0000
0000
,
0103
0000
0000
0010
0100
0000
0100
0000
0000
0000
0010
0000
0100
0000
0000
0001
,
1000
0000
0000
0100
1000
0000
1000
0000
0000
0000
0100
0000
1001
0000
0000
0000
,
0001
0000
0000
0010
0001
0000
0001
0000
0000
0000
0010
0000
0001
0000
0000
1000
,
0010
0000
0000
0100
0010
0000
0010
0000
0000
0000
0100
0000
1001
0000
0000
0000
,
2000
0000
0000
0100
0000
0000
0001
0000
0000
0000
3001
0000
0000
0000
0000
0000
,
0002
0000
0000
0100
0000
0000
1000
0000
0000
0000
1003
0000
0000
0000
0000
0000
,
2000
0000
0000
0100
0000
0000
0001
0000
0000
0000
3001
0000
0000
0000
0000
0000
,
1000
1100
0001
0101
0100
0010
0100
0000
,
0001
0000
0100
0010
0000
0010
1000
0000
0000
0000
0001
0000
0000
1000
0000
0000
,
0100
0000
0000
1000
0001
0000
0010
0000
0000
0000
0001
0000
1000
0001
0000
0000
,
1000
0000
0010
0100
0000
0100
0001
0000
0000
0000
1000
0000
0000
0001
0100
0000
,
0010
1000
0010
1000
0100
0010
0002
0000
,
1003
0000
0000
0000
0000
0000
0000
0000
0000
0000
0001
0000
0000
1000
0000
0000
,
0001
0000
0000
0000
0000
0000
0000
0000
0000
0000
1000
0000
0000
0001
0000
0000
,
1000
0100
1000
0001
0010
0001
1000
0010
,
0010
0100
0001
1000
0100
0100
0010
0000
,
0001
0010
0001
1000
0010
1000
0001
0001
,
0100
0010
0100
0001
0000
0000
0000
0000
,
1000
0000
0010
1000
0010
0000
1000
0100
1000
0000
0100
0000
0010
0000
0001
0000
,
0100
0000
0001
0100
0001
0000
1000
0001
1000
0000
0010
0000
1000
0000
1000
0000
,
0001
0000
0101
0000
1001
0000
1000
0000
0010
0000
0100
0001
0100
0000
0010
0000
,
1000
1000
0100
1000
0001
0010
0001
1000
,
1001
0000
1000
0100
0010
0000
0001
0000
1000
0000
0010
0100
0001
0000
1000
0000
,
0001
0000
0010
0001
1000
0000
0001
0000
0100
0000
0010
1000
0100
0000
0000
0000
,
1000
0000
0100
1000
0100
0000
1000
0001
1000
0000
0010
0000
0100
0000
0001
0000
,
1000
0001
1000
0000
0010
0100
0010
0100
0001
0000
1000
0000
0010
0000
0000
0000
,
2002
0000
0000
0000
0000
0000
3003
0000
0010
0000
0010
0000
0100
0001
1000
0000
,
2002
0000
0000
0000
0000
0000
3003
0000
0100
0000
0100
0000
0010
1000
0001
0000
,
1000
0000
0100
0000
0001
0000
0010
0000
1000
0000
0100
1000
0001
0000
1001
0000
,
0001
0000
0100
0000
1000
0000
0010
0000
0001
0000
0100
0001
1000
0000
2002
0000
,
3003
0000
0000
0000
0000
0000
0000
0000
1100
0000
0100
0000
1000
0001
1000
0001
,
1000
0000
0010
0000
1000
0000
0001
0000
0101
0000
0100
0000
0001
1000
0001
1000
,
0001
0000
0100
0000
0010
0000
1000
0000
1010
0000
1000
0000
0001
1000
0001
1000
,
0001
0000
0010
0000
0001
0000
1000
0000
0001
0100
0001
0000
1000
0100
1000
0000
,
0001
0000
1000
0000
0020
0000
0000
0000
1030
0000
0001
0100
0000
0100
0001
0000
,
1000
0000
0010
0000
0100
0001
1000
0000
0010
0000
0010
0000
1000
0100
1000
0100
,
0000
0000
1000
0000
0001
0000
0100
0000
0001
0000
1000
0010
0000
0010
1000
0000
,
0001
0000
0100
0000
0010
1000
0001
0000
0100
0010
0100
0000
0010
0100
0010
0000
,
1000
0000
0010
0000
0100
0000
0001
0000
1000
0000
1000
0000
0100
1000
0100
1000
,
0000
0001
0000
0000
1000
0001
1000
0000
0001
0000
0001
0000
0100
0001
0100
0001
,
0000
1000
0000
0000
0001
1000
0001
0000
0100
0000
0110
0000
0010
0000
1000
0100
,
0000
0100
0010
0000
0001
0000
1000
0000
0001
0100
0001
0000
1000
0100
1000
0000
,
0001
0010
0100
1000
0001
0000
0000
0000
;

//---------------dance-single - ----------------
#NOTEDATA:;
#CHARTNAME:;
#STEPSTYPE:dance-single;
#DESCRIPTION:;
#CHARTSTYLE:;
#DIFFICULTY:Challenge;
#METER:10;
#RADARVALUES:0.675943,0.657246,0.134783,0.085126,0.947030,636.000000,19.000000,12.000000,0.000000,0.000000,0.000000,0.000000,0.000000,0.675943,0.657246,0.134783,0.085126,0.947030,636.000000,19.000000,12.000000,0.000000,0.000000,0.000000,0.000000,0.000000;
#CREDIT:Ben Speirs;
#NOTES:
0000
0000
0000
0000
,
0000
0000
0000
0000
,
0000
0000
0000
0000
,
0000
0000
0000
0000
,
1000
0100
1000
0100
1000
0100
1000
0100
0010
0001
1000
0000
0001
0100
0001
0100
,
0010
1000
0001
0000
1000
0100
1000
0000
1100
0000
0110
0000
2001
0000
0000
0000
,
3001
0010
0001
0010
0001
0010
0001
0010
0100
1000
0001
0000
1000
0010
1000
0010
,
0100
0001
1000
0000
0001
0010
0001
0000
0011
0000
0110
0000
1002
0000
0000
0000
,
1003
0100
1000
0000
0001
0100
0001
0000
1000
0000
0001
0000
0100
0010
1000
0000
,
0001
0100
0001
0000
1000
0100
1000
0000
0001
0000
1000
0000
0010
0100
0001
0000
,
1000
0010
1000
0010
1000
0010
1000
0010
0100
0001
1000
0000
0001
0010
0001
0010
,
0100
1000
0001
0000
1000
0100
0010
0000
0110
0000
0011
0000
2001
0000
0000
0000
,
3010
0000
0100
0001
1000
0000
1000
0000
0100
1000
0001
0000
0001
0000
0010
0001
,
0100
0000
0010
1000
0100
0000
0100
0000
0010
0100
1000
0000
1100
0000
0000
0000
,
1010
0000
0010
1000
0001
0000
0001
0000
0010
0001
1000
0000
1000
0000
0100
1000
,
0010
0000
0100
0001
0010
0000
0010
0000
0100
0010
0001
0000
0011
0000
0000
0000
,
0101
0000
0100
0000
0001
0100
0001
0100
0010
1000
0100
0000
0000
0000
0000
0000
,
1100
0000
0100
0000
1000
0100
1000
0100
0010
0001
0100
0000
0000
0000
0000
0000
,
0101
0000
0100
0000
0001
0100
0001
0100
0010
1000
0100
0000
0000
1000
0001
0000
,
1000
0000
0100
0000
1000
0000
0000
0000
0001
0000
0100
0000
0001
0000
0000
0000
1000
0000
0000
0000
0001
0000
0100
0010
0100
0000
0010
0000
0100
0000
0010
0000
,
1000
0100
1000
0100
0010
0001
1000
0010
0100
0001
1000
0000
0001
1000
0001
0000
,
0100
0001
0100
0001
1000
0010
0100
0001
1000
0100
0010
0000
0001
1000
0001
0000
,
1000
0100
1000
0100
0010
0001
1000
0010
0100
0001
0100
0001
1000
0010
0100
0000
,
0001
0000
1000
0000
0010
0000
0000
0000
1000
0000
0001
0000
0010
0000
0000
0000
0001
0000
1000
0000
0001
0000
0100
0010
0100
0000
0010
0000
0100
0000
0010
0000
,
1000
0000
0000
0000
,
0001
0000
0000
0000
,
1000
0000
1000
0010
0100
0100
0001
1000
0100
0100
0010
0001
1000
0000
0001
0000
,
0100
0010
0100
0010
0000
1000
0001
0000
1000
0100
0010
0001
1000
0000
1001
0001
,
0100
0010
0100
0010
1000
0000
0001
1000
0001
1000
0100
0010
0001
0000
0100
0001
,
0100
0001
0000
1000
0001
1000
0001
0100
0010
1000
0010
1000
0100
0000
1000
0000
,
1100
0000
0001
0100
0001
0001
0100
0010
1000
0001
1000
0100
0010
0010
0001
0010
,
0100
1000
0001
1000
0010
0010
0100
0001
0100
0100
0010
1000
0100
0010
0001
1000
,
0100
1000
0001
1000
0010
1000
0001
1000
0100
0010
0001
1000
0010
0010
0100
0001
,
1000
0000
0100
0000
0010
0000
0001
0000
0100
0000
0000
0000
0001
0000
1000
0000
0001
0000
1000
0000
0001
0000
0100
0010
0100
0000
0010
0000
0100
0000
0010
0000
,
1000
0000
0001
0100
0010
1000
0001
1000
1000
0100
1000
0001
0010
0100
1000
0001
,
0100
0100
0010
0100
0001
0010
0100
1000
0001
0010
0001
1000
0010
1000
0001
0100
,
0010
1000
0010
1000
0100
0010
0001
1000
0010
0100
0010
0100
0001
1000
0100
0010
,
0001
0100
0001
0000
1000
0100
1000
0100
0010
0000
0001
1000
0000
0010
0100
0000
,
2002
0000
0000
0000
0000
0000
3003
0000
0010
0100
0010
0100
0001
1000
0100
0000
,
2002
0000
0000
0000
0000
0000
3003
0000
0100
0010
0100
0010
1000
0001
0010
0000
,
0001
0100
0001
0100
0010
1000
0010
1000
0100
0010
0001
1000
0200
0000
0320
0000
,
0031
1000
0001
1000
0010
0100
0010
0100
0001
0010
0100
1000
0010
0100
0002
0000
,
1003
0000
0000
0000
0000
0000
0000
0000
0001
0010
0001
0010
0100
1000
0001
0100
,
0010
1000
0001
0000
1000
0001
1000
0000
0010
1000
0010
1000
0001
0100
0010
1000
,
0001
0010
0100
0000
1000
0001
1000
0000
0001
0010
0001
0010
0100
1000
0001
0100
,
0010
1000
0010
1000
0001
0100
0010
0000
1000
0001
0100
0000
0001
1000
0100
0000
,
1000
0000
0001
0000
1000
0000
0010
0100
0010
0000
0100
0000
0010
0000
0100
0000
0001
0000
1000
0000
0001
0000
1000
0000
0010
0000
1000
0000
0100
0000
0010
0000
,
0001
1000
0010
0100
0001
1000
0001
0000
1000
0001
1000
0001
0100
0001
0010
0100
,
1000
0001
0100
0010
1000
0001
1000
0000
0001
0100
0010
0000
0100
0010
1000
0000
,
0010
1000
0001
0000
1000
0001
1000
0000
0001
0010
0100
1000
0001
0010
0100
1000
,
0002
0000
0100
0000
2003
0000
0100
0000
3001
1000
0001
1000
0010
0100
0001
1000
,
0100
0010
0001
1000
0010
0100
0001
1000
0010
0100
0010
0100
0001
1000
0100
0010
,
0001
1000
0010
0100
0001
1000
0100
0010
0001
1000
0001
1000
0100
0010
0001
1000
,
0010
0100
0001
1000
0100
0010
0001
1000
0010
0100
0010
0100
0001
1000
0001
1000
,
0010
0000
0100
0000
0001
0000
0100
0010
0100
0000
0010
0000
0100
0000
0010
0000
1000
0000
0000
0000
0000
0000
0000
0000
0000
0000
0000
0000
0000
0000
0000
0000
;

//---------------dance-double - ----------------
#NOTEDATA:;
#CHARTNAME:;
#STEPSTYPE:dance-double;
#DESCRIPTION:;
#CHARTSTYLE:;
#DIFFICULTY:Challenge;
#METER:10;
#RADARVALUES:0.630340,0.657246,0.212816,0.035469,0.783871,587.000000,30.000000,5.000000,0.000000,0.000000,0.000000,0.000000,0.000000,0.630340,0.657246,0.212816,0.035469,0.783871,587.000000,30.000000,5.000000,0.000000,0.000000,0.000000,0.000000,0.000000;
#CREDIT:Ben Speirs;
#NOTES:
// measure 0
00000000
00000000
00000000
00000000
,  // measure 1
00000000
00000000
00000000
00000000
,  // measure 2
00000000
00000000
00000000
00000000
,  // measure 3
00000000
00000000
00000000
00000000
,  // measure 4
00001000
00010000
00001000
00010000
00001000
00010000
00001000
00010000
00100000
00010000
00001000
00000000
00010000
00001000
00010000
00001000
,  // measure 5
00000010
00001000
00010000
00000000
00001000
00010000
00001000
00000000
00010000
00000000
00000100
00000000
00010200
00000000
00000000
00000000
,  // measure 6
00010300
00001000
00010000
00001000
00010000
00001000
00010000
00001000
00000100
00001000
00010000
00000000
00001000
00010000
00001000
00010000
,  // measure 7
01000000
00010000
00001000
00000000
00010000
00001000
00010000
00000000
00001000
00000000
00100000
00000000
00201000
00000000
00000000
00000000
,  // measure 8
00310000
10000000
00010000
00000000
10000000
00010000
10000000
00000000
00100000
00000000
10000000
00000000
01000000
00100000
00010000
00000000
,  // measure 9
10000000
00010000
10000000
00000000
00010000
10000000
00010000
00000000
10000000
00000000
00010000
00000000
01000000
00000000
00000000
00000000
,  // measure 10
00010000
01000000
00010000
01000000
00001000
00010000
00001000
00010000
00000100
00001000
00000100
00000000
00001000
00000100
00000010
00000001
,  // measure 11
00001000
00000001
00001000
00000000
00000001
00000100
00000010
00000000
00000110
00000000
00000101
00000000
00002001
00000000
00000000
00000000
,  // measure 12
00003010
00000000
00000100
00000001
00001000
00000000
00001000
00000000
00000100
00001000
00000001
00000000
00000001
00000000
00000010
00000001
,  // measure 13
00000100
00000000
00000010
00001000
00000100
00000000
00000100
00000000
00001000
00000100
00010000
00000000
00010100
00000000
00000000
00000000
,  // measure 14
00011000
00000000
00010000
00001000
00100000
00000000
00100000
00000000
00010000
10000000
00100000
00000000
00100000
00000000
01000000
00010000
,  // measure 15
10000000
00000000
01000000
10000000
00010000
00000000
00010000
00000000
01000000
00010000
00100000
00000000
00110000
00000000
00000000
00000000
,  // measure 16
00101000
00000000
00001000
00000000
00010000
00001000
00010000
00001000
00100000
00001000
00010000
00000000
00000000
00000000
00000000
00000000
,  // measure 17
00010100
00000000
00010000
00000000
00001000
00010000
00001000
00010000
00000100
00010000
00001000
00000000
00000000
00000000
00000000
00000000
,  // measure 18
00101000
00000000
00001000
00000000
00010000
00001000
00010000
00001000
00100000
00001000
00010000
00000000
00000000
00000000
00000000
00000000
,  // measure 19
00100000
00001000
00010000
00000000
00001000
00100000
00010000
00000000
00101000
00000000
00011000
00000000
00001200
00000000
00000000
00000000
,  // measure 20
00001300
00000001
00001000
00000100
00000010
00000001
00001000
00000000
00000001
00000100
00000010
00000000
00001000
00000001
00001000
00000000
,  // measure 21
00000001
00000000
00000100
00000010
00000100
00000010
00001000
00000000
00000100
00010000
00001000
00000000
00010000
00001000
01000000
00000000
,  // measure 22
00010000
00000000
01010000
00000000
10000000
01000000
10000000
01000000
00100000
00010000
10000000
00000000
00100000
10000000
00010000
00000000
,  // measure 23
10000000
01000000
00010000
00000000
00001000
00000100
00000001
00000000
00000100
00000000
00001000
00000000
00020000
00000000
00000000
00000000
,  // measure 24
00031000
00000000
00000000
00000000
00000000
00000000
00000000
00000000
00000000
00000000
00010000
00000000
00000000
00001000
00000000
00000000
,  // measure 25
00100000
00000000
00000000
00000000
00000000
00000000
00000000
00000000
00000000
00000000
00001000
00000000
00000000
00010000
00000000
00000000
,  // measure 26
00000100
00000000
00001000
00000001
00000100
00000100
00000010
00001000
00000100
00000100
00000010
00000001
00001000
00000000
00000100
00000000
,  // measure 27
00001000
00000001
00001000
00000001
00000000
00010000
00000100
00000000
00010000
00001000
00010000
00001000
00100000
00000000
00001000
00000000
,  // measure 28
01000000
00001000
01000000
00001000
10000000
00010000
10000000
00010000
01000000
00100000
10000000
01000000
00100000
00000000
00010000
00100000
,  // measure 29
01000000
10000000
00000000
00010000
01000000
00010000
10000000
00010000
10000000
10000000
00100000
01000000
00010000
00000000
10000000
00000000
,  // measure 30
10010000
00000000
10000000
01000000
10000000
01000000
00100000
00010000
01000000
01000000
00100000
10000000
01000000
01000000
00100000
00010000
,  // measure 31
10000000
00100000
01000000
00010000
00100000
00001000
00100000
00010000
01000000
01000000
00100000
10000000
01000000
00100000
00010000
01000000
,  // measure 32
00001000
00000000
00011000
00000000
00010100
00000000
00010000
00000100
00001000
00000100
00000010
00000001
00000100
00000010
00001000
00000010
,  // measure 33
00000100
00000001
00001000
00000100
00000010
00000001
00001000
00000010
00000100
00000100
00000001
00001000
00000010
00000100
00000001
00000000
,  // measure 34
00001001
00000000
00001000
00000100
00000010
00000010
00000001
00001000
00000010
00000100
00000001
00001000
00000100
00010000
00000100
00010000
,  // measure 35
00000100
00001000
00000010
00000100
00000001
00001000
00000100
00000010
00000001
00000100
00001000
00010000
00001000
00010000
00001000
00100000
,  // measure 36
00010000
01000000
00100000
10000000
01000000
01000000
00100000
00010000
10000000
00100000
01000000
00010000
10000000
10000000
01000000
00100000
,  // measure 37
00010000
10000000
00100000
00000000
01000000
00010000
00100000
00000000
00001000
00000000
00010000
00000100
00000000
00000010
00000001
00000000
,  // measure 38
00010100
00000000
00000000
00000000
00000000
00000000
00000000
00000000
00010000
00000100
00010000
00000100
00010000
00001000
00100000
00000000
,  // measure 39
00101000
00000000
00000000
00000000
00000000
00000000
00000000
00000000
00100000
00001000
00100000
00001000
00010000
00000100
00001000
00000000
,  // measure 40
00000001
00000100
00001000
00010000
01000000
10000000
10010000
10010000
,  // measure 41
10000000
00100000
00010000
00001000
00000010
00000001
00001001
00001001
,  // measure 42
00000000
00000000
00000000
00000000
00000000
00000000
00000000
00000000
00000101
00000000
00000100
00000000
00000001
00000100
00000001
00000100
,  // measure 43
00000010
00001000
00000100
00000000
00001000
00000100
00010000
00000000
00010100
00000000
00000100
00000000
00010000
00000100
00010000
00000100
,  // measure 44
00010000
00001000
00100000
00000000
00001000
01000000
00010000
00000000
01010000
00000000
01000000
00000000
00010000
01000000
00010000
01000000
,  // measure 45
00100000
10000000
01000000
00000000
10000000
01000000
00100000
00000000
00010000
10000000
00100000
00000000
10000000
00010000
00100000
00000000
,  // measure 46
00010000
00000000
10000000
00000000
00010000
00000000
01000000
00100000
01000000
00000000
00100000
00000000
01000000
00000000
00100000
00000000
10000000
00000000
00000000
00000000
00100000
00000000
00000000
00000000
10000000
00000000
00100000
00000000
10000000
00000000
00100000
00000000
,  // measure 47
01000000
00010000
00100000
00000000
00010000
00100000
00001000
00000000
00101000
00000000
00100000
00000000
00001000
00100000
00001000
00100000
,  // measure 48
00001000
00010000
00000100
00000000
00010000
00000010
00001000
00000000
00001010
00000000
00000010
00000000
00001000
00000010
00001000
00000010
,  // measure 49
00000100
00000001
00000010
00000000
00000001
00000010
00000100
00000000
00001000
00000001
00000100
00000000
00000001
00001000
00000100
00000000
,  // measure 50
00001000
00000000
00000001
00000000
00001000
00000000
00000010
00000100
00000010
00000000
00000100
00000000
00000010
00000000
00000100
00000000
00000001
00000000
00001000
00000000
00000010
00000000
00000100
00000000
00000001
00000000
00000010
00000000
00000100
00000000
00001000
00000000
,  // measure 51
00000010
00001000
00000100
00010000
00001000
00010000
00000100
00000010
00000001
00000100
00001000
00010000
00100000
10000000
01000000
00100000
,  // measure 52
00010000
10000000
00100000
01000000
00010000
10000000
00010000
00000000
10000000
01000000
00100000
00010000
01000000
00100000
01000000
00010000
,  // measure 53
00100000
00001000
00010000
00000010
00001000
00000010
00010000
00001000
00000010
00000001
00000100
00000000
00000010
00001000
00000100
00000000
,  // measure 54
00010000
00000000
00001000
00000000
00100000
00000000
00010000
10000000
00010000
00000000
10000000
00000000
00010000
00000000
10000000
00000000
00100000
00000000
00000000
00000000
00000000
00000000
00000000
00000000
00000000
00000000
00000000
00000000
00000000
00000000
00000000
00000000
;

//---------------dance-single - ----------------
#NOTEDATA:;
#CHARTNAME:;
#STEPSTYPE:dance-single;
#DESCRIPTION:;
#CHARTSTYLE:;
#DIFFICULTY:Medium;
#METER:5;
#RADARVALUES:0.283754,0.328623,0.148971,0.113502,0.000000,243.000000,21.000000,16.000000,0.000000,0.000000,0.000000,0.000000,0.000000,0.283754,0.328623,0.148971,0.113502,0.000000,243.000000,21.000000,16.000000,0.000000,0.000000,0.000000,0.000000,0.000000;
#CREDIT:Ben Speirs;
#NOTES:
0000
0000
0000
0000
,
0000
0000
0000
0000
,
0000
0000
0000
0000
,
0000
0000
0000
0000
,
0001
0000
0100
0000
0001
1000
0000
0010
,
0010
0000
1000
0000
0100
0010
0001
0000
,
1000
0000
0001
0000
1000
0001
0000
0100
,
0100
0000
0001
0000
0100
0001
1000
0000
,
0020
0000
2030
0000
3100
0100
0100
0000
,
2000
0000
3002
0000
0103
0100
0100
0000
,
0001
1000
0001
1000
0010
0000
0100
0001
,
1000
0000
0010
0000
1000
0001
0100
0000
,
2001
3000
0100
0100
,
0010
0000
0001
1000
0010
0000
0010
0000
,
1002
0003
0100
0100
,
0001
0000
0100
0010
1000
0000
0001
0000
,
2000
0100
3100
0000
,
0002
0100
0103
0000
,
2000
0010
3010
0000
,
1000
0001
1000
0001
0100
0000
0100
0000
,
1001
0000
0010
0000
1000
0010
0001
0000
,
0100
0000
1001
0000
0001
0100
1000
0000
,
1010
0001
0101
1000
,
0010
1000
0010
1000
0002
0000
0103
0000
,
1001
0000
0000
0000
,
1000
0000
0000
0000
,
0001
1000
0010
0010
,
1000
0100
1000
0000
0001
0001
0001
0000
,
0100
0001
0100
0000
1000
0001
1000
0000
,
0100
1000
0100
0000
0001
0000
0000
0000
,
1000
0001
0100
0100
0010
1000
0001
0000
,
1000
0000
0001
0000
0100
0100
0100
0000
,
0010
1000
0001
0000
0010
0000
0001
0000
,
1000
0100
1000
0000
0101
0000
0000
0000
,
1001
0000
1001
0000
1000
0001
0100
0000
,
1001
0000
1001
0000
0001
1000
0100
0000
,
1000
0001
1000
0001
0100
0010
1000
0000
,
0001
0000
1000
0000
0010
0010
0010
0000
,
2002
0000
0000
3003
1000
1000
0001
0001
,
2002
0000
0000
3003
0001
0001
1000
1000
,
0010
0010
1000
1000
,
0100
0100
0001
0001
,
0000
0000
1000
0010
,
0010
1000
0100
0000
0010
0000
0001
0000
,
0010
0001
0100
0000
0001
0001
1000
0000
,
1000
1000
0001
0000
0100
0001
1000
0100
,
0010
0010
0001
0000
1000
0000
1100
0000
,
0100
1000
0001
0000
0100
0000
0101
1000
,
0000
0001
0100
0000
1000
0000
1001
0000
,
0010
0010
0010
0000
1000
0001
1000
0001
,
0100
0100
0100
0000
0001
0000
0101
0000
,
1000
0000
1100
0001
1000
0000
1001
1001
,
0000
0000
0100
0000
0010
1000
0001
0000
,
0100
0100
0001
0000
1000
0001
1000
0001
,
0200
0320
1030
0000
;

//---------------dance-single - ----------------
#NOTEDATA:;
#CHARTNAME:;
#STEPSTYPE:dance-single;
#DESCRIPTION:;
#CHARTSTYLE:;
#DIFFICULTY:Easy;
#METER:3;
#RADARVALUES:0.153025,0.173977,0.049657,0.049657,0.000000,137.000000,7.000000,7.000000,0.000000,0.000000,0.000000,0.000000,0.000000,0.153025,0.173977,0.049657,0.049657,0.000000,137.000000,7.000000,7.000000,0.000000,0.000000,0.000000,0.000000,0.000000;
#CREDIT:Ben Speirs;
#NOTES:
0000
0000
0000
0000
,
0000
0000
0000
0000
,
0000
0000
0000
0000
,
0000
0000
0000
0000
,
1000
0010
0010
0000
,
1000
0000
0001
1000
,
0001
0001
0100
0000
,
0001
0000
1000
1000
,
0010
0010
0100
0000
,
0001
0001
0100
0000
,
0001
1000
0001
0000
,
1000
0000
0100
0100
,
0020
0030
0001
0000
,
1000
1000
0001
0001
,
0200
0300
0010
0000
,
1000
1000
0001
0001
,
0200
0000
0300
0000
,
0200
0000
0300
0000
,
0200
0000
0300
0000
,
0001
1000
0001
0000
,
1001
0000
1000
0000
,
0010
0010
0100
0000
,
0001
0000
1000
0000
,
0001
0100
0001
1000
,
1000
0000
0000
0000
,
0001
0000
0000
0000
,
1000
0000
0010
0000
,
1000
1000
0100
0100
,
0010
0000
0001
0000
,
0100
0100
0010
0000
,
1001
0000
0001
0000
,
1000
1000
0010
0010
,
1000
0000
0001
0000
,
0100
0100
0000
0000
,
1001
0000
0001
0010
,
0100
0000
0010
0001
,
1000
0000
0010
1000
,
0100
0100
0100
0000
,
1001
0000
2000
3000
,
1001
0000
0002
0003
,
1000
0100
0001
0010
,
1000
0100
0001
0010
,
0000
0000
1001
0000
,
0000
0100
0010
0000
,
0000
1000
0100
0000
,
0000
1000
0001
0001
,
1000
1000
0010
0100
,
0001
0000
0100
0001
,
1000
0000
0100
1000
,
0010
0000
1000
1000
,
0001
0001
0010
0001
,
0100
0100
0010
0000
,
0010
0000
1000
0010
,
0100
0100
0001
0000
,
1000
1001
0001
0000
;

//---------------dance-single - ----------------
#NOTEDATA:;
#CHARTNAME:;
#STEPSTYPE:dance-single;
#DESCRIPTION:;
#CHARTSTYLE:;
#DIFFICULTY:Beginner;
#METER:1;
#RADARVALUES:0.096274,0.115453,0.035469,0.000000,0.000000,90.000000,5.000000,0.000000,0.000000,0.000000,0.000000,0.000000,0.000000,0.096274,0.115453,0.035469,0.000000,0.000000,90.000000,5.000000,0.000000,0.000000,0.000000,0.000000,0.000000,0.000000;
#CREDIT:Ben Speirs;
#NOTES:
0000
0000
0000
0000
,
0000
0000
0000
0000
,
0000
0000
0000
0000
,
0000
0000
0000
0000
,
0001
0000
0000
1000
,
1000
0000
0010
0000
,
0010
0000
0000
0100
,
0100
0000
0001
0000
,
0001
0001
0000
0000
,
1000
1000
0000
0000
,
0010
0000
0010
0000
,
0010
0000
0000
0000
,
1000
0000
1000
0000
,
0100
0000
0000
0000
,
0010
0000
0010
0000
,
0001
0000
0000
0000
,
0100
0000
0000
0000
,
0100
0000
0000
0000
,
0100
0000
0000
0000
,
0100
0100
0100
0000
,
0001
0001
0000
0001
,
0000
1000
0000
0000
,
1000
1000
0000
1000
,
0000
0001
0000
0000
,
1001
0000
0000
0000
,
0000
0000
0000
0000
,
1000
0000
0010
0000
,
0010
0000
0000
0000
,
0100
0000
0001
0000
,
0001
0000
0000
0000
,
1000
1000
0000
0000
,
0001
0001
0000
0000
,
1000
1000
0000
0000
,
0010
0010
0000
0000
,
1001
0000
0000
0010
,
0010
0000
0000
0100
,
0100
0000
0000
0000
,
0001
0000
1000
0000
,
1001
0000
0000
0000
,
0010
0000
0000
0000
,
1000
1000
1000
0000
,
0001
0001
0001
0000
,
0000
0000
1001
0000
,
0000
0100
0100
0000
,
0000
0001
0001
0000
,
0000
1000
1000
0000
,
0001
0000
0100
0100
,
0000
0000
0010
0010
,
0000
0000
0010
0010
,
0000
0000
1000
0000
,
0001
0000
1000
0000
,
1000
0000
0100
0100
,
0000
0000
0010
0000
,
0010
0000
0001
0001
,
0000
1001
0000
0000
;
