#TITLE:Bangarang;
#ARTIST:Skrillex;
#FILE:Bangarang.mp3;
#BPM:109.990;
#GAP:60;
#SAMPLESTART:76.420;
#SAMPLELENGTH:16.160;
#CHANGEBPM:796.000=107.750,800.000=110.010;
#SINGLE:BEGINNER:2:
00000000
00000000
00000000
00000000
80000000
80000000
40000000
40000000
20002000
20002000
80000000
00000000
B0000020
20008000
40000060
60008000
60000020
20008000
40000060
60004000
A0000040
40002000
40000080
80002000
60000080
80006000
40000020
20004000
B0008000
40006000
40002000
40008000
20202020
80808080
40404040
60606000
B0002000
40402000
40006000
80806000
20006000
40008080
20008000
40406000
A0004000
A0006000
A0004000
A0006000
B0002000
B0008000
40404000
60606060
60000000
;
#SINGLE:ANOTHER:6:
00000000
00000000
00000000
00000000
40602820
80402000
40604840
20806000
B0204820
80406420
40608620
(8000200060040000)
B0248220
80206!6030
80482284
60402!20A0
60824484
60208!80A0
60462282
60806!60B0
20484428
60208!80A0
60284424
60802!2010
80462282
80402!20A0
60462282
60802!20A0
B0204080
20804242
40802080
40608686
2!20A!807!401!20
1!40B!609!80A!20
A!809!603!20A!80
(80B000B020020000)
44660000
22880000
44880000
26424600
44880000
22880000
44660000
86824600
28082000
46064000
68086000
48284600
82028000
64046000
70244820
82264286
20000000
;
#SINGLE:MANIAC:9:
00000000
00000000
00000000
00000000
B0204848
40802060
20802626
20804060
70602828
20602080
42460222
(8020600010030000)
80424666
80602840
80262888
40604280
60424888
(2000800040240000)
B!40728444
60806820
7!80A84666
(4000200080680000)
A!20A42444
80408260
A!20328222
(6000400020820000)
7!40146222
80206240
A2640888
40204640
82640666
(8000602080280000)
A2640222
48406280
26840888
(6040204080260000)
44640020
44826840
88642048
446282!280
36264240
84248820
82608828
642864!480
18082086
28028420
42042860
28428620
82064240
84062840
A2642640
84286282
70000000
;
#SINGLE:BASIC:5:
00000000
00000000
00000000
00000000
80804020
40406000
80806020
80802000
80804060
40402000
40400000
20001000
70606040
80208080
A0602080
80406040
10408020
60608060
B0408020
20804020
10208060
20802060
B0402040
80208020
30804060
40208060
90402040
80208000
40204020
80602!2020
80208020
60208!8080
40204060
40204060
80408060
82820000
B0804080
20602280
40608060
40208!8080
B0204080
20604420
40802060
80204!4040
82008020
62006020
84008040
20806!6060
48004080
28002080
B0204080
20602828
80000000
;
#SINGLE:SMANIAC:14:
00000000
00000000
00000000
00000000
(7020604000828282)
(8040208060040080)
(4020806000282828)
(4060802040060020)
(8480206000828282)
(8060408020280040)
(8282804000646464)
(20408020604800B0)
(3004808020626080)
(6824826020820040)
(A004206020848040)
(82842860408!8040A0)
(3004208060282060)
(2846482060260040)
(A004604080262080)
(46482680208!8060A0)
(B002408020828040)
(2424682080620080)
(7002804060424080)
(28264280608!802070)
(3008206040242080)
(6848648020840060)
(7002802060464080)
(28284240802!204030)
(7000206000428682)
(40802060700B0030)
(8000206000284628)
(40208060A00B0010)
(2806040828040608)
(4806040242080602)
(8206040848020604)
(207020B0208200B0)
(3080206048204822)
(6040208062428!8000)
(7040208068206822)
(4024208620A!A000A0)
(7020804062806288)
(4060802048682!2000)
(3060802042804288)
(6086802480A!A000A0)
{B0000000A000000020000000A000000040002000400020802000800060002000}
(A0B040B028464080)
{7000000030000000200000003000000080002000800040604000200080006000}
(20846028407!700070)
{A0000000B000000060000000B000000080002000800040602000800020006000}
(4040208068286040)
(7028406080286080)
(2484648020A06030)
40000000
;
