#VERSION:0.82;
#TITLE:A Thousand Miles;
#SUBTITLE:;
#ARTIST:Vanessa Carlton;
#TITLETRANSLIT:;
#SUBTITLETRANSLIT:;
#ARTISTTRANSLIT:;
#GENRE:White Chicks;
#ORIGIN:;
#CREDIT:;
#BANNER:A Thousand Miles.png;
#BACKGROUND:A Thousand Miles-bg.png;
#PREVIEWVID:;
#JACKET:jacket.png;
#CDIMAGE:;
#DISCIMAGE:;
#LYRICSPATH:;
#CDTITLE:;
#MUSIC:A Thousand Miles.ogg;
#OFFSET:-0.366000;
#SAMPLESTART:40.628300;
#SAMPLELENGTH:13.714000;
#SELECTABLE:YES;
#BPMS:0.000=95.000,
141.000=97.020,
144.000=95.000,
171.000=95.800,
172.000=95.000,
211.000=94.540;
#STOPS:;
#DELAYS:;
#WARPS:;
#TIMESIGNATURES:0.000=4=4;
#TICKCOUNTS:0.000=4;
#COMBOS:0.000=1;
#SPEEDS:0.000=1.000=0.000=0;
#SCROLLS:0.000=1.000;
#FAKES:;
#LABELS:0.000=Song Start;
#BGCHANGES:3.500=A Thousand Miles.avi=1.000=0=0=1=====,
99999=-nosongbg-=1.000=0=0=0 // don't automatically add -songbackground-
;
#KEYSOUNDS:;
#ATTACKS:
;

//---------------dance-single - ----------------
#NOTEDATA:;
#CHARTNAME:;
#STEPSTYPE:dance-single;
#DESCRIPTION:;
#CHARTSTYLE:;
#DIFFICULTY:Hard;
#METER:7;
#RADARVALUES:0.311240,0.404718,0.174016,0.104410,0.208819,273.000000,25.000000,15.000000,0.000000,0.000000,0.000000,0.000000,0.000000,0.311240,0.404718,0.174016,0.104410,0.208819,273.000000,25.000000,15.000000,0.000000,0.000000,0.000000,0.000000,0.000000;
#CREDIT:Ben Speirs;
#NOTES:
0000
0000
0000
0000
,
0000
0000
0000
0000
,
0000
0000
0000
0000
,
0000
0000
0000
0000
,
1000
0000
0000
0010
0000
0000
0000
0000
0100
0000
0000
0001
0000
0000
0000
0000
,
1000
0000
0000
0100
0000
0000
0000
0000
0010
0000
0000
0001
0000
0000
0000
0000
,
1000
0000
0000
0010
0000
0000
1000
0000
0100
0000
0010
0000
0001
0000
1000
0000
,
0001
0000
0000
0100
0000
0000
0001
0000
0010
0000
0100
0000
1000
0000
0000
0000
,
0001
0000
0100
0010
0000
0000
0000
0000
1000
0000
0100
0010
0000
0000
0000
0000
,
0001
0000
1000
0010
0000
0000
0000
0000
1000
0000
0001
0010
0000
0000
0000
0000
,
0001
0000
0000
1000
0000
0000
0010
0000
0100
0000
0010
0000
0100
0000
0100
0000
,
0001
0000
0000
1000
0000
0000
0100
0000
0010
0000
0100
0000
0010
0000
0010
0000
,
0001
0000
0000
0011
0000
0000
1001
0000
0000
0000
1000
0000
1000
0000
0000
0000
,
1000
0000
0000
1100
0000
0000
1001
0000
0000
0000
0001
0000
0001
0000
0000
0000
,
0101
0000
0000
1001
0000
0000
1010
0000
0000
0000
1000
0000
0010
0000
0100
0000
,
0002
0000
2000
3003
,
1100
0000
0100
0000
1000
0000
0010
0000
0100
0001
0000
0001
1000
0000
0001
0000
,
0010
0000
0100
0000
0010
0000
0001
0000
1000
0010
0000
0010
0100
0000
0000
0000
,
0101
0000
0100
0000
0010
0000
1000
0000
0001
0010
0000
0010
0001
0000
1000
0000
,
0010
0000
0100
0000
0001
0000
1000
0000
0100
0010
0000
0010
0001
0000
0000
0000
,
1000
0000
1000
0100
0000
0000
0010
0000
0001
0000
1000
0000
0000
0001
0000
0000
,
0100
0010
1000
0001
0000
1000
0100
0000
,
1100
0000
0000
0011
0000
0000
2002
0000
,
0000
0000
3003
0110
,
1000
0000
0000
1100
0000
0000
0001
1000
0001
0000
0100
0000
0010
0000
0000
0000
,
1000
0000
0000
0101
0000
0000
0001
1000
0001
0000
0010
0000
0100
0000
1000
0000
,
0010
0000
0000
1001
0000
0000
0001
0100
0001
0000
1000
0000
0100
0000
0010
0000
,
0001
0000
0001
1000
0000
1000
0020
0000
0000
0000
0130
0000
0001
0000
0000
0000
,
2000
0000
0000
3100
0000
0000
0000
0000
0002
0000
0000
0103
0000
0000
0000
0000
,
0001
0100
0010
1000
0100
0010
0001
0000
,
2000
0000
0000
3010
0000
0000
0000
0000
0002
0000
0000
0013
0000
0000
0000
0000
,
0001
1000
0010
0100
0001
1000
0100
0000
,
1100
0000
0000
0100
1000
0000
0000
0000
0101
0000
0000
0001
0100
0000
0000
0000
,
0001
1000
0010
0100
0001
1000
0100
0000
,
1000
0010
0100
0001
0010
0010
0100
2002
,
0000
0000
0000
3003
,
0010
0000
0000
0000
0000
0000
0000
0100
,
0001
0000
0000
0000
,
1000
0000
0000
0000
0000
0000
0000
0100
,
0010
0000
0000
0000
,
0001
0000
0000
1000
0000
0000
0010
0000
0100
0000
0000
0001
0000
0000
1000
0000
,
0100
0000
0000
0010
0000
0000
0001
0000
1000
0000
0000
0010
0000
0000
0100
0000
,
0101
0000
0000
1010
0000
0000
1001
0000
,
1000
0000
0100
0000
0001
0000
0100
0000
1000
0000
0010
0000
0100
0001
0100
0000
,
0010
0000
0000
1000
0000
0000
0100
0000
0010
0001
0000
0001
1000
0000
0010
0000
,
0100
0000
0000
0001
0000
0000
0010
0000
0100
0010
0000
0010
0001
0000
1000
0000
,
0010
0000
0000
0100
0000
0000
0001
0000
1000
0100
0000
0100
1000
0000
0010
0000
,
0100
0000
0000
0001
0000
0000
1000
0000
0100
0010
0000
0010
0001
0000
1000
0000
,
0010
0000
0000
1000
0000
0000
0001
0000
0100
0000
0001
0000
1000
0000
0001
0000
,
0010
0000
0000
0100
0000
0000
1000
0100
1000
0000
0001
0100
0000
0000
0010
0000
,
1100
0000
0000
0101
0000
0000
2002
0000
,
0000
0000
0000
3003
,
0010
0000
0000
1000
0000
0000
0002
0000
,
0000
0000
0000
0003
,
0200
0000
0000
0000
,
0000
0000
0000
0300
0000
0000
0000
0000
;

//---------------dance-single - ----------------
#NOTEDATA:;
#CHARTNAME:;
#STEPSTYPE:dance-single;
#DESCRIPTION:;
#CHARTSTYLE:;
#DIFFICULTY:Challenge;
#METER:9;
#RADARVALUES:0.489233,0.597440,0.125291,0.076567,0.570772,463.000000,18.000000,11.000000,0.000000,0.000000,0.000000,0.000000,0.000000,0.489233,0.597440,0.125291,0.076567,0.570772,463.000000,18.000000,11.000000,0.000000,0.000000,0.000000,0.000000,0.000000;
#CREDIT:Ben Speirs;
#NOTES:
// measure 0
0000
0000
0000
0000
,  // measure 1
0000
0000
0000
0000
,  // measure 2
0000
0000
0000
0000
,  // measure 3
0000
0000
0000
0000
,  // measure 4
1000
0100
0010
0001
0000
1000
0000
0010
0100
0000
0000
0001
0000
1000
0000
0100
,  // measure 5
0010
0000
0000
0001
0000
1000
0000
0010
0100
0000
0001
1000
0000
0010
0100
0000
,  // measure 6
0001
0100
0001
1000
0100
1000
0001
0000
0010
0000
0100
0000
1000
0001
0100
0010
,  // measure 7
1000
0100
1000
0001
0100
0001
1000
0000
0010
0000
0100
0000
0001
0010
0100
1000
,  // measure 8
0010
0100
0000
0100
0000
0100
0001
1000
0000
1000
0100
0010
0000
0010
0001
1000
,  // measure 9
0000
1000
0010
0100
0000
0100
0001
1000
0000
1000
0100
0010
0001
0010
0100
0000
,  // measure 10
1000
0100
1000
0001
0100
0001
1000
0000
0010
0000
0100
0000
0001
0010
0100
1000
,  // measure 11
0001
0010
0001
1000
0010
1000
0001
0000
0010
0000
0001
0000
1000
0010
0100
0000
,  // measure 12
0001
1000
0010
0100
0001
1000
0100
0000
0000
0000
0010
0000
1001
0000
0000
0000
,  // measure 13
1000
0100
1000
0010
0100
0001
1000
0000
0000
0000
0010
0000
0101
0000
0000
0000
,  // measure 14
0001
0010
0100
0010
0001
1000
0010
0000
0000
0000
0100
0000
1001
0000
0010
0000
,  // measure 15
2200
3300
0202
0303
,  // measure 16
1000
0000
0100
0010
0001
0000
1000
0000
0010
0100
0001
0100
0010
0000
1000
0000
,  // measure 17
0001
0000
0010
0100
1000
0000
0001
0000
1000
0010
0100
0010
1000
0000
0001
0000
,  // measure 18
0010
0000
0100
0010
0001
0000
1000
0000
0001
0100
0010
0100
0001
0000
1000
0000
,  // measure 19
0010
0000
0010
0100
0000
0100
0001
0000
1000
0000
0001
0010
0100
1000
0001
0000
,  // measure 20
1000
0100
0010
0001
0010
0100
2000
0000
3001
0000
0100
0000
0010
1000
0100
0000
,  // measure 21
0010
0001
0010
0100
1000
0100
0010
0000
0001
0000
1000
0010
0100
0001
1000
0000
,  // measure 22
0101
0000
0000
1100
0000
0000
1001
0000
,  // measure 23
0001
0000
0100
0000
1000
0000
0100
0000
0001
0010
0100
0000
1000
0010
0100
0001
,  // measure 24
1000
0100
1000
0001
0100
0001
1000
0000
0010
0100
0001
0000
1000
0100
0010
0001
,  // measure 25
1000
0000
0000
0010
0000
0000
1000
0000
0000
0001
0000
0000
0010
0000
0000
0001
0000
0000
1000
0000
0000
0000
0000
0000
0001
0000
0000
0100
0000
0000
0010
0000
0000
0000
0000
0000
1000
0000
0001
0000
1000
0000
0001
0000
1000
0000
0001
0000
,  // measure 26
0100
0010
0100
0001
1000
0001
0010
0000
0001
0100
0010
0000
1000
0010
0100
0001
,  // measure 27
1000
0100
1000
0001
0100
0001
0010
0000
0100
0000
1000
0000
0001
0100
1000
0100
,  // measure 28
0001
0000
0001
0010
0000
0000
0100
0000
1000
0000
1000
0010
0000
0000
0100
0000
,  // measure 29
0001
0000
1000
0100
1000
0000
0001
0100
0001
0000
1000
0010
1000
0000
0001
0000
,  // measure 30
0010
0000
0010
0100
0000
0000
1000
0000
0010
0000
0010
0100
0000
0000
0001
0000
,  // measure 31
1000
0000
0001
0100
0001
0000
1000
0100
1000
0000
0001
0010
0001
0000
1000
0000
,  // measure 32
0010
0100
0010
0100
0001
0000
1000
0000
0100
0010
0100
0010
0001
0000
1000
0000
,  // measure 33
0010
0000
1000
0100
1000
0000
0001
0100
0001
0000
1000
0010
1000
0000
0001
0000
,  // measure 34
1000
0100
1000
0100
0010
0001
1000
0010
0100
0001
0100
0001
1000
0100
0020
0000
,  // measure 35
0000
0000
0000
0030
,  // measure 36
0001
0000
0000
0010
0000
0000
0100
0000
0100
0000
0000
0000
0000
0000
1000
0000
,  // measure 37
1000
0000
0000
0010
0000
0000
0100
0000
0100
0000
0000
0000
0000
0000
0000
0000
,  // measure 38
0001
0000
0000
1000
0000
0000
0100
0000
0100
0000
0000
0000
0000
0000
0010
0000
,  // measure 39
0010
0000
0000
0001
0000
0000
1000
0000
0010
0000
0000
0100
0000
0000
0001
0000
,  // measure 40
0101
0000
0000
0010
0000
0000
1000
0000
1100
0000
0000
0001
0000
0000
0010
0000
,  // measure 41
0011
0000
0000
0001
0000
0000
1000
0000
1010
0000
0000
1000
0000
0000
0001
0000
,  // measure 42
0101
0000
0000
1100
0000
0000
1001
0000
,  // measure 43
0001
0000
0100
0000
1000
0000
0100
0000
0001
0010
0100
1000
0001
0100
0010
1000
,  // measure 44
0001
0000
0010
0100
1000
0000
0001
0000
0100
0010
1000
0010
0100
0000
0001
0000
,  // measure 45
1000
0000
0100
0010
0001
0000
1000
0000
0001
0100
0010
0100
0001
0000
1000
0000
,  // measure 46
0100
0000
0010
0100
1000
0000
0001
0000
1000
0010
0100
0010
1000
0000
0001
0000
,  // measure 47
0100
0000
0100
0010
0000
0010
1000
0000
0001
0000
1000
0100
0010
0001
1000
0000
,  // measure 48
0001
0010
0100
1000
0100
0010
0002
0000
1003
0000
0010
0000
0100
0001
0010
0000
,  // measure 49
0100
1000
0100
0010
0001
0010
0100
0000
1000
0000
0001
0100
0010
1000
0001
0000
,  // measure 50
1010
0000
0000
0011
0000
0000
2002
0000
,  // measure 51
0000
0000
3003
0000
,  // measure 52
0100
0000
0000
0010
0000
0000
2000
0000
,  // measure 53
0000
0000
3000
0000
,  // measure 54
0200
0000
0000
0000
,  // measure 55
0000
0000
0000
0300
0000
0000
0000
0000
;

//---------------dance-single - ----------------
#NOTEDATA:;
#CHARTNAME:;
#STEPSTYPE:dance-single;
#DESCRIPTION:;
#CHARTSTYLE:;
#DIFFICULTY:Medium;
#METER:5;
#RADARVALUES:0.252572,0.327629,0.132252,0.250583,0.000000,199.000000,19.000000,36.000000,0.000000,0.000000,0.000000,0.000000,0.000000,0.252572,0.327629,0.132252,0.250583,0.000000,199.000000,19.000000,36.000000,0.000000,0.000000,0.000000,0.000000,0.000000;
#CREDIT:Ben Speirs;
#NOTES:
0000
0000
0000
0000
,
0000
0000
0000
0000
,
0000
0000
0000
0000
,
0000
0000
0000
0000
,
0200
0310
2000
3100
,
0020
0031
2000
3010
,
1000
0100
0010
0001
0000
1000
1000
0000
,
0001
0100
0010
1000
0000
0001
0001
0000
,
0020
0130
2000
3010
,
0200
0301
2000
3100
,
1000
0001
1000
0010
0000
0100
0100
0000
,
0001
1000
0001
0010
0000
0100
0100
0000
,
1000
0000
0100
1000
0000
0000
0010
0000
,
0100
0000
0001
0100
0000
0000
0010
0000
,
1000
0000
0001
1000
0000
0000
0100
0000
,
2002
3003
0220
0330
,
1001
0000
0010
0000
1000
0001
0100
0000
,
0001
0000
1000
0000
0100
0010
0001
0000
,
1000
0000
0001
0000
0100
0010
1000
0000
,
0200
0310
0020
0031
,
0011
0000
1100
0000
0001
0100
1000
0000
,
1010
0000
0101
0000
0001
0100
1000
0000
,
1010
0000
0000
0011
0000
0000
2002
0000
,
0000
0000
3003
1001
,
1000
0100
0010
0001
0010
0100
1000
0000
,
0001
0010
0100
1000
0100
0010
0001
0000
,
1000
0010
0100
0001
0100
0010
1000
0000
,
1000
0010
0100
0001
0000
1000
0100
0000
,
2000
3100
0020
0031
,
0000
1000
0001
0000
0100
0010
1000
0000
,
0002
0013
0200
1300
,
0000
0010
0100
0000
0000
0001
1000
0000
,
0100
0010
0001
1000
,
0010
0100
0010
0000
1000
0000
0001
0000
,
0010
0100
0010
0000
0001
0010
0100
1000
,
0000
0000
0000
0000
,
0001
0000
0000
0000
0000
0000
0000
1000
,
1000
0000
0000
0000
,
0010
0000
0000
0000
0000
0000
0000
0100
,
0100
0000
0000
0000
,
0202
0303
2200
3300
,
0022
0033
2020
3030
,
0001
0000
0000
1000
0000
0000
2002
0000
,
0000
0000
3003
0000
0010
0100
0010
0000
,
1000
0000
0100
0010
0001
1000
0001
0000
,
0100
0100
0010
0010
,
1000
0000
0001
0100
0010
1000
0001
0000
,
1000
1000
0100
0100
,
2000
0000
3002
0000
0103
0010
1000
0000
,
0100
0010
0001
0000
1000
0000
0000
0000
,
1001
0000
0000
0110
0000
0000
2002
0000
,
0000
0000
3003
0000
,
0100
0000
0000
1000
0000
0000
0020
0000
,
0000
0000
0030
0000
,
0200
0000
0000
0000
,
0000
0000
0000
0300
0000
0000
0000
0000
;

//---------------dance-single - ----------------
#NOTEDATA:;
#CHARTNAME:;
#STEPSTYPE:dance-single;
#DESCRIPTION:;
#CHARTSTYLE:;
#DIFFICULTY:Easy;
#METER:2;
#RADARVALUES:0.124297,0.173450,0.027843,0.062646,0.000000,112.000000,4.000000,9.000000,0.000000,0.000000,0.000000,0.000000,0.000000,0.124297,0.173450,0.027843,0.062646,0.000000,112.000000,4.000000,9.000000,0.000000,0.000000,0.000000,0.000000,0.000000;
#CREDIT:Ben Speirs;
#NOTES:
0000
0000
0000
0000
,
0000
0000
0000
0000
,
0000
0000
0000
0000
,
0000
0000
0000
0000
,
0100
0000
0010
0000
,
1000
0000
0001
0000
,
1000
0100
0010
0000
,
0001
1000
0010
0000
,
0100
0000
0001
0000
,
1000
0000
0100
0000
,
1000
0010
0100
0000
,
0001
1000
0100
0000
,
0010
0001
0000
0000
,
1000
0010
0000
0000
,
0001
0100
0000
0000
,
1001
0000
1001
0000
,
0110
0000
0010
1000
,
0100
0000
0010
0001
,
1000
0000
0001
0100
,
0010
0000
1000
0100
,
0010
0000
0001
0000
,
0100
0000
0010
0000
,
1000
0000
0001
0000
,
0100
0000
0000
0000
,
0010
1000
0100
0100
,
0010
0000
0001
1000
,
0001
0100
0010
0010
,
1000
0000
0100
0010
,
0002
0003
2000
3000
,
0010
0000
0100
0000
,
0002
0003
0020
0030
,
0100
1000
0010
0000
,
0200
0300
0002
0003
,
0010
0000
0001
0000
,
2000
3000
0002
0003
,
0000
0000
0000
0000
,
0100
0000
0000
0000
,
0010
0000
0000
0000
,
1000
0000
0000
0000
,
0001
0000
1000
0000
,
0010
0000
0100
0000
,
0001
0000
1000
0000
,
0100
0100
0100
0100
,
0100
0000
1000
0000
,
1001
0000
0010
0000
,
1000
0001
0100
0000
,
0001
0000
1000
0000
,
0100
0010
0001
0000
,
1000
0100
1000
0000
,
0001
0100
0001
0000
,
1000
0000
0000
0010
,
0000
0000
0000
0000
,
0100
0000
0000
0001
,
0000
0000
0000
0000
,
2000
0000
0000
0000
,
0000
0000
0000
3000
0000
0000
0000
0000
;

//---------------dance-single - ----------------
#NOTEDATA:;
#CHARTNAME:;
#STEPSTYPE:dance-single;
#DESCRIPTION:;
#CHARTSTYLE:;
#DIFFICULTY:Beginner;
#METER:1;
#RADARVALUES:0.088500,0.131556,0.020882,0.000000,0.000000,86.000000,3.000000,0.000000,0.000000,0.000000,0.000000,0.000000,0.000000,0.088500,0.131556,0.020882,0.000000,0.000000,86.000000,3.000000,0.000000,0.000000,0.000000,0.000000,0.000000,0.000000;
#CREDIT:Ben Speirs;
#NOTES:
0000
0000
0000
0000
,
0000
0000
0000
0000
,
0000
0000
0000
0000
,
0000
0000
0000
0000
,
0100
0000
0000
0000
,
0001
0000
0000
0000
,
1000
0000
0100
0000
,
1000
0000
0100
0000
,
0010
0000
0000
0000
,
0001
0000
0000
0000
,
0100
0000
0001
0000
,
0100
0000
0001
0000
,
1000
1000
0000
0000
,
0001
0001
0000
0000
,
0100
0100
0000
0000
,
0010
0000
0000
0000
,
1001
0000
0000
1000
,
1000
0000
0000
0001
,
0001
0000
0000
0100
,
0100
0000
0000
0001
,
0001
0000
1000
0000
,
0100
0000
0010
0000
,
0001
0000
0000
0000
,
1000
0000
0000
0000
,
1001
0000
0010
0010
,
0010
0000
1000
0000
,
0001
0000
0100
0100
,
0100
0000
0001
0000
,
1000
0000
1000
0000
,
0000
0100
0000
0000
,
0010
0000
0010
0000
,
0000
0001
0000
0000
,
0100
0000
0100
0000
,
0000
0010
0000
0000
,
1000
0000
1000
0000
,
0001
0000
0000
0000
,
0100
0000
0000
0000
,
0001
0000
0000
0000
,
1000
0000
0000
0000
,
0100
0000
0000
0000
,
1000
0000
1000
0000
,
0001
0000
0001
0000
,
0100
0000
0100
0000
,
0100
0000
0010
0000
,
1001
0000
1000
0000
,
0010
0010
0010
0000
,
1000
0000
0001
0000
,
0100
0100
0100
0000
,
0001
0000
1000
0000
,
0100
0000
0010
0000
,
0001
0000
0000
1000
,
0000
0000
0000
0000
,
0010
0000
0000
0100
,
0000
0000
0000
0000
,
0001
0000
0000
0000
;

//---------------dance-double - ----------------
#NOTEDATA:;
#CHARTNAME:;
#STEPSTYPE:dance-double;
#DESCRIPTION:;
#CHARTSTYLE:;
#DIFFICULTY:Challenge;
#METER:8;
#RADARVALUES:0.417638,0.597440,0.201859,0.229701,0.410678,358.000000,29.000000,33.000000,0.000000,0.000000,0.000000,0.000000,0.000000,0.417638,0.597440,0.201859,0.229701,0.410678,358.000000,29.000000,33.000000,0.000000,0.000000,0.000000,0.000000,0.000000;
#CREDIT:Ben Speirs;
#NOTES:
00000000
00000000
00000000
00000000
,
00000000
00000000
00000000
00000000
,
00000000
00000000
00000000
00000000
,
00000000
00000000
00000000
00000000
,
10000000
00100000
10000000
00100000
00000000
00000000
00000000
00000000
10000000
00010000
10000000
00010000
00000000
00000000
00000000
00000000
,
00010000
01000000
00010000
01000000
00000000
00000000
00000000
00000000
00001000
00010000
00001000
00010000
00000000
00000000
00000000
00000000
,
00001000
00010000
01000000
10000000
00100000
01000000
00020000
00000000
10030000
00000000
00020000
00000000
10030000
01000000
00100000
00010000
,
10000000
00100000
00010000
00001000
00000010
00000001
00002000
00000000
00003001
00000000
00002000
00000000
00003001
00000010
00000100
00001000
,
00000001
00000100
00000001
00000100
00000000
00000000
00000000
00000000
00000001
00001000
00000001
00001000
00000000
00000000
00000000
00000000
,
00001000
00000010
00001000
00000010
00000000
00000000
00000000
00000000
00010000
00001000
00010000
00001000
00000000
00000000
00000000
00000000
,
00010000
00001000
00000010
00000001
00000100
00000010
00002000
00000000
00003001
00000000
00002000
00000000
00003001
00000010
00000100
00001000
,
00000001
00000100
00001000
00010000
01000000
10000000
00020000
00000000
10030000
00000000
00020000
00000000
10030000
01000000
00100000
00010000
,
10000000
00100000
10000000
00010000
00100000
00010000
10000000
00000000
00000000
00000000
00010000
00000000
00101000
00000000
00001000
00000000
,
00010000
00001000
00010000
00000010
00001000
00000010
00010000
00000000
00000000
00000000
00001000
00000000
00010100
00000000
00000100
00000000
,
00001000
00000001
00001000
00000010
00000100
00000010
00001000
00000000
00000000
00000000
00000001
00000000
00000110
00000000
00000010
00000000
,
00002100
00000000
00000002
00003003
,
00000100
00000000
00000000
00000001
00000000
00000000
00001000
00000000
00000100
00000010
00000000
00000010
00000001
00000000
00000100
00000000
,
00000010
00000000
00000000
00001000
00000000
00000000
00000100
00000000
00010000
00001000
00000000
00001000
00010000
00000000
00001000
00000000
,
01000000
00000000
00000000
00010000
00000000
00000000
10000000
00000000
00100000
01000000
00000000
01000000
00100000
00000000
10000000
00000000
,
01000000
00000000
00000000
00100000
00000000
00000000
00010000
00000000
10000000
00100000
00000000
00100000
10000000
00000000
00010000
00000000
,
00110000
00000000
00000000
10000000
00000000
00000000
00100000
00000000
10100000
00000000
00000000
10000000
00000000
00000000
00010000
00000000
,
01010000
00000000
00000000
00010000
00000000
00000000
10000000
00000000
11000000
00000000
00000000
01000000
00000000
00000000
00100000
00000000
,
10010000
00000000
00000000
01010000
00000000
00000000
00022000
00000000
,
00000000
00000000
00000000
00000000
00000000
00000000
00000000
00000000
00033000
00000000
00000000
00000000
00001000
00010000
00001000
00010000
,
00000100
00001000
00000100
00010000
00001000
00010000
00000200
00000000
00001300
00000000
00000200
00000000
00010300
00000000
00001000
00001000
,
00100000
00010000
00100000
00001000
00010000
00001000
00200000
00000000
00310000
00000000
00200000
00000000
00301000
00000000
00010000
00010000
,
00001000
00000100
00001000
00000100
00000001
00000100
00000020
00000000
00001030
00000000
00000020
00000000
00000130
00000000
00000001
00000001
,
00001000
00000100
00001000
00000001
00000100
00000001
00001000
00000000
00000010
00000000
00000100
00000000
00000001
00000010
00000100
00001000
,
00000010
00000000
00000010
00000100
00000000
00000000
00000001
00000000
00001000
00000000
00001000
00000100
00000000
00000000
00000100
00000000
,
00010000
00000000
00001000
00010000
00001000
00000000
00100000
00010000
00100000
00000000
00001000
00010000
00001000
00000000
01000000
00010000
,
01000000
00000000
01000000
00100000
00000000
00000000
10000000
00000000
01000000
00000000
01000000
00100000
00000000
00000000
00010000
00000000
,
10000000
00000000
00100000
01000000
00100000
00000000
10000000
01000000
10000000
00000000
00010000
01000000
00010000
00000000
10000000
00000000
,
01000000
00000000
01000000
00100000
00000000
00000000
10000000
00000000
00010000
00000000
00010000
00100000
00000000
00000000
00100000
00000000
,
00001000
00000000
00010000
00001000
00010000
00000000
00000100
00001000
00000100
00000000
00010000
00001000
00010000
00000000
00000010
00001000
,
00000010
00000000
00000010
00000100
00000000
00000000
00000001
00000000
00000010
00000000
00000010
00000100
00000000
00000000
00002002
00000000
,
00000000
00000000
00000000
00003003
,
00001000
00000000
00000000
00000000
00000000
00000000
00000000
00000010
,
00000010
00000000
00000000
00000000
,
00010000
00000000
00000000
00000000
00000000
00000000
00000000
00001000
,
00001000
00000000
00000000
00000000
,
02020000
03030000
22000000
33000000
,
20200000
30300000
00220000
00330000
,
10010000
00000000
00000000
00011000
00000000
00000000
00001001
00000000
,
00001000
00000000
00000001
00000000
00010000
00000000
00001000
00000000
10000000
00010000
10000000
00010000
10000000
00010000
10000000
00000000
,
00100000
00000000
00000000
10000000
00000000
00000000
00010000
00000000
00100000
01000000
00000000
01000000
10000000
00000000
00100000
00000000
,
01000000
00000000
00000000
00010000
00000000
00000000
00100000
00000000
00001000
00010000
00000000
00010000
00001000
00000000
00010000
00000000
,
00000010
00000000
00000000
00001000
00000000
00000000
00000001
00000000
00000100
00000010
00000000
00000010
00000100
00000000
00000001
00000000
,
00000010
00000000
00000000
00000100
00000000
00000000
00001000
00000000
00000001
00000100
00000000
00000100
00000001
00000000
00001000
00000000
,
00001100
00000000
00000000
00000001
00000000
00000000
00000100
00000000
00000101
00000000
00000000
00000001
00000000
00000000
00001000
00000000
,
00001010
00000000
00000000
00001000
00000000
00000000
00000001
00000000
00000011
00000000
00000000
00000010
00000000
00000000
00000100
00000000
,
00001001
00000000
00000000
00001010
00000000
00000000
00022000
00000000
,
00000000
00000000
00033000
00000000
,
00011000
00000000
00000000
00100010
00000000
00000000
00022000
00000000
,
00000000
00000000
00033000
00000000
,
20000000
00000000
00000000
00000000
,
00000000
00000000
00000000
30000000
00000000
00000000
00000000
00000000
;
