#VERSION:0.82;
#TITLE:Talk Dirty;
#SUBTITLE:;
#ARTIST:Jason Derulo feat. 2 Chainz;
#TITLETRANSLIT:;
#SUBTITLETRANSLIT:;
#ARTISTTRANSLIT:;
#GENRE:EDM;
#ORIGIN:;
#CREDIT:;
#BANNER:Talk Dirty.png;
#BACKGROUND:Talk Dirty-bg.png;
#PREVIEWVID:;
#JACKET:jacket.png;
#CDIMAGE:;
#DISCIMAGE:;
#LYRICSPATH:;
#CDTITLE:;
#MUSIC:Talk Dirty.ogg;
#OFFSET:-0.020000;
#SAMPLESTART:103.934135;
#SAMPLELENGTH:13.714000;
#SELECTABLE:YES;
#BPMS:0.000=100.400,
108.000=51.480,
109.000=100.200,
137.000=100.400,
173.000=100.380;
#STOPS:;
#DELAYS:;
#WARPS:;
#TIMESIGNATURES:0.000=4=4;
#TICKCOUNTS:0.000=4;
#COMBOS:0.000=1;
#SPEEDS:0.000=1.000=0.000=0;
#SCROLLS:0.000=1.000;
#FAKES:;
#LABELS:0.000=Song Start;
#BGCHANGES:4.000=Talk Dirty.avi=1.000=0=0=1=====,
99999=-nosongbg-=1.000=0=0=0 // don't automatically add -songbackground-
;
#KEYSOUNDS:;
#ATTACKS:
;

//---------------dance-single - ----------------
#NOTEDATA:;
#CHARTNAME:;
#STEPSTYPE:dance-single;
#DESCRIPTION:;
#CHARTSTYLE:;
#DIFFICULTY:Hard;
#METER:7;
#RADARVALUES:0.403237,0.441090,0.172976,0.070763,0.066832,328.000000,22.000000,9.000000,0.000000,0.000000,0.000000,0.000000,0.000000,0.403237,0.441090,0.172976,0.070763,0.066832,328.000000,22.000000,9.000000,0.000000,0.000000,0.000000,0.000000,0.000000;
#CREDIT:Ben Speirs;
#NOTES:
0000
0000
0000
0000
,
0000
0000
0000
0000
,
1100
0000
0000
0010
0101
0000
0000
0010
,
1100
0101
0000
0000
,
1000
0100
1000
0100
0010
0000
0001
0100
,
0100
0010
1000
0010
0200
0000
0301
0000
,
1000
0001
1000
0000
0001
0000
0010
0001
,
0001
0100
0010
0100
0020
0000
1030
0000
,
0001
0100
0001
0100
0010
1000
0001
0000
,
1000
0100
1000
0100
0010
0001
1000
0000
,
0001
0010
0200
0000
1300
0001
0200
0000
,
0301
1000
0010
1000
0001
0000
0000
0000
,
1000
0100
0010
0001
0001
0010
0100
1000
,
1000
0010
0100
0001
0001
0100
0010
1000
,
1001
0001
0010
0100
1100
1000
0010
0100
,
0101
0010
1010
0001
1001
0000
0000
0000
,
0000
0000
1000
0100
1000
0000
0010
0000
0100
0000
0100
0000
0001
0000
1000
0000
,
0010
1000
0010
0000
1000
0000
0001
0000
0010
0000
0000
0000
0000
0000
0000
0000
,
0000
0000
0001
0010
0001
0000
1000
0000
0010
0000
0010
0000
1000
0000
0001
0000
,
1000
0100
1000
0000
0010
0000
0100
0000
0001
0000
0000
0000
0000
0000
0000
0000
,
0000
0000
1000
0010
1000
0000
0001
0000
0010
0000
0010
0000
0001
0000
1000
0000
,
0010
0100
0010
0000
1000
0000
0001
0000
0100
0000
0000
0000
0000
0000
0000
0000
,
0000
0000
0001
0010
0001
0000
0010
0000
0001
0000
1000
0000
0010
0000
0100
0000
,
0010
1000
0010
0000
1000
0000
0001
0000
0201
0000
0000
0000
0310
0000
0100
0000
,
0001
1000
0100
0000
2100
0000
3001
1000
,
0010
1000
0001
0000
0012
0000
1003
0001
,
1000
0010
0100
0000
1010
0000
0011
0000
,
1010
0000
0001
1000
0001
1000
0100
0010
,
0001
0000
1000
0001
1000
0001
0100
0100
,
0100
0000
0000
0000
0001
0100
1000
0100
,
0002
0000
1003
0100
1000
0001
0010
0001
,
0100
0000
0010
0010
1000
1000
0001
0010
,
0002
0000
1003
0100
1000
0001
0100
0100
,
0010
0000
1000
0001
1000
0010
0100
0001
,
1000
0000
0001
0000
0100
0010
0100
0000
0001
0000
1000
0000
0100
0000
0100
0000
,
0010
0000
0011
0001
1000
0001
0100
0010
,
0000
1000
1000
0010
0100
0001
1000
0100
,
0010
0000
0001
0010
0100
1000
0001
0100
,
0000
0001
0001
0000
0000
0000
0000
0000
,
0000
0000
1001
1000
0100
1000
0010
0010
,
0100
0001
1001
0001
0010
0001
0100
0100
,
0010
1000
1010
1000
0100
0010
0011
0100
,
1000
0001
1001
0001
1001
0010
0000
0000
,
0000
0000
0000
0000
0001
0000
1000
0100
1000
0000
0010
0000
0100
0000
0100
0000
,
0001
0000
1000
0000
0001
0100
0001
0000
0100
0000
0010
0000
1000
0000
0000
0000
,
0000
0000
0000
0000
0001
0000
1000
0010
1000
0000
0001
0000
0010
0000
0010
0000
,
0001
0000
1000
0000
0001
0100
0001
0000
1000
0000
0100
0000
0010
0000
0000
0000
,
0000
0000
0000
0000
0100
0000
1000
0100
1000
0000
0010
0000
0100
0000
0100
0000
,
0010
0000
1000
0000
0001
1000
0001
0000
0010
0000
0001
0000
1000
0000
0000
0000
,
0000
0000
0000
0000
0001
0000
0100
0010
0100
0000
0001
0000
1000
0000
0001
0000
,
0010
0000
0100
0000
1000
0001
1000
0000
0100
0000
0010
0000
0001
0000
0000
0000
,
0100
0000
0000
0000
;

//---------------dance-single - ----------------
#NOTEDATA:;
#CHARTNAME:;
#STEPSTYPE:dance-single;
#DESCRIPTION:;
#CHARTSTYLE:;
#DIFFICULTY:Challenge;
#METER:9;
#RADARVALUES:0.606541,0.602960,0.062900,0.015725,0.703699,530.000000,8.000000,2.000000,0.000000,0.000000,0.000000,0.000000,0.000000,0.606541,0.602960,0.062900,0.015725,0.703699,530.000000,8.000000,2.000000,0.000000,0.000000,0.000000,0.000000,0.000000;
#CREDIT:Ben Speirs;
#NOTES:
// measure 0
0000
0000
0000
0000
,  // measure 1
0000
0000
0000
0000
,  // measure 2
1100
0000
0000
0001
0101
0000
0000
1000
,  // measure 3
1010
0000
0001
0000
0011
0000
1000
0001
0000
0000
0000
0000
0000
0000
0000
0000
,  // measure 4
1000
0000
0100
0000
0100
0000
1000
0100
0010
0001
0000
0000
1000
0000
0010
0000
,  // measure 5
0010
0000
0100
0001
0100
0000
0001
1000
0010
0000
0010
0000
0100
0000
0001
0000
,  // measure 6
1000
0000
0100
0000
1000
0000
0001
0100
0001
0000
1000
0000
0100
0000
0010
0000
,  // measure 7
0010
0000
0001
0010
0100
0000
1000
0001
0100
0000
0100
0000
0010
0000
0000
0000
,  // measure 8
1000
0000
0100
1000
0000
0010
0000
0100
0010
0000
1000
0000
0100
0000
0000
0000
,  // measure 9
0010
0000
0001
0100
0000
0010
0100
0000
0001
0000
0010
0000
0100
0000
0000
0000
,  // measure 10
0010
0000
0001
0000
1000
0000
0010
0100
0010
0100
0001
0000
0100
0000
0010
0000
,  // measure 11
0010
0000
1000
0100
1000
0000
0001
0100
0000
0000
0000
0000
0000
0000
0001
1000
,  // measure 12
0001
0000
0100
0010
0100
0000
0010
1000
0010
0000
1000
0100
1000
0000
0001
1000
,  // measure 13
0001
0000
0100
0001
0100
0000
0001
1000
0001
0000
1000
0010
1000
0000
0001
0010
,  // measure 14
0100
0000
1000
0001
1000
0000
0010
1000
0001
0000
0100
0001
0100
0000
0010
1000
,  // measure 15
0100
0000
0010
0001
0100
0000
0010
1000
0100
0000
0000
0000
0000
0000
0000
0000
,  // measure 16
1000
0000
0000
0000
0001
0000
0100
0000
0001
0000
0000
0000
1000
0000
0000
0000
0010
0000
0100
0000
0010
0000
1000
0000
0001
0010
0001
0000
0100
0000
0010
0000
,  // measure 17
1000
0000
0001
0000
1000
0000
0001
0000
0100
0010
0100
0000
0010
0000
1000
0000
0001
0000
0000
0000
0100
0000
0000
0000
0001
0000
0100
0000
0001
0000
0100
0000
,  // measure 18
0000
0000
0000
0000
0010
0000
1000
0000
0010
0000
0000
0000
1000
0000
0000
0000
0001
0000
0010
0000
0100
0000
1000
0000
0001
0100
0001
0000
1000
0000
0100
0000
,  // measure 19
0010
0000
0001
0000
1000
0000
0010
0000
1000
0100
1000
0000
0001
0000
0100
0000
0010
0000
0000
0000
1000
0000
0000
0000
0100
0000
1000
0000
0100
0000
1000
0000
,  // measure 20
0001
0000
0000
0000
0100
0000
0010
0000
0100
0000
0000
0000
0001
0000
0000
0000
1000
0000
0100
0000
1000
0000
0001
0000
0100
0010
0100
0000
0001
0000
1000
0000
,  // measure 21
0100
0000
0010
0000
0001
0000
1000
0000
0010
0100
0010
0000
1000
0000
0100
0000
0010
0000
0000
0000
0001
0000
0000
0000
0100
0000
0001
0000
0100
0000
0001
0000
,  // measure 22
0000
0000
0000
0000
1000
0000
0100
0000
1000
0000
0000
0000
0001
0000
0000
0000
1000
0000
0010
0000
0100
0000
0001
0000
1000
0100
1000
0000
0010
0000
0100
0000
,  // measure 23
0001
0000
1000
0000
0100
0000
0010
0000
0001
1000
0001
0000
0100
0000
0010
0000
1000
0000
0000
0000
0001
0000
0000
0000
0100
0000
0000
0000
0010
0000
1000
0000
,  // measure 24
0010
0000
0100
0000
0001
0000
1000
0000
1100
0000
0100
0000
0010
0000
0001
1000
,  // measure 25
0001
0000
0100
0000
0010
0000
1000
0100
1000
0000
0010
0000
0100
0000
0001
1000
,  // measure 26
0001
0000
0100
0000
0010
0000
1000
0100
1000
0100
0000
0000
1000
0000
0000
0000
,  // measure 27
2002
0003
3001
1000
0010
0100
0001
1000
,  // measure 28
0100
0000
0000
0000
1000
0000
1000
0000
0001
0000
0001
0000
0100
0000
0010
1000
,  // measure 29
0010
0100
0000
0000
0000
0000
0000
0000
0101
0000
0100
0000
0010
0000
1000
0100
,  // measure 30
1000
0000
0000
0000
0001
0000
0010
0000
0001
0000
1000
0000
0010
0100
0010
0000
,  // measure 31
1000
0000
0000
0000
0001
0000
1000
0100
0010
0001
1000
0000
0010
0100
0010
0000
,  // measure 32
1000
0000
0000
0000
0001
0100
0001
0100
0001
1000
0000
0000
0100
0000
1000
0000
,  // measure 33
0001
0000
0000
0000
1000
0000
0100
0000
0010
0000
0001
0000
1000
0010
0100
0000
,  // measure 34
0001
0000
0000
0000
1000
0000
0001
0000
0100
0000
0001
1000
0100
0000
0010
0001
,  // measure 35
0100
0000
0000
0000
1001
0000
1000
0100
0010
0000
0010
0001
0100
0000
0100
0010
,  // measure 36
1000
0000
1000
0000
0001
0000
0100
0001
0100
0000
0010
1000
0010
0000
1000
0100
,  // measure 37
0010
0000
0010
0000
0001
0000
1000
0100
1000
0000
0001
0010
0001
0000
1000
0010
,  // measure 38
1000
0000
0001
0000
0000
0000
0100
0001
1000
0000
0100
1000
0001
0000
0010
0001
,  // measure 39
1000
0010
0100
0001
1000
0000
0010
0100
0010
0000
0100
0001
0100
0000
0001
0010
,  // measure 40
0001
0000
1000
0001
1000
0000
0010
1000
0010
0000
1000
0001
1000
0000
0001
0100
,  // measure 41
0001
0000
1000
0100
0010
0000
0001
1000
0001
0000
0100
0001
1000
0000
0010
1000
,  // measure 42
0010
0000
0100
0001
0010
0000
0100
1000
0010
0000
0100
0001
0010
0000
0000
0000
,  // measure 43
0000
0000
0000
0000
0001
0000
1000
0010
1000
0000
0001
0000
0100
0010
0100
0001
,  // measure 44
1000
0100
1000
0000
0010
0000
0100
0000
0001
0000
1000
0000
0001
0000
1000
0000
0010
0100
0010
0000
0100
0000
0001
0000
1000
0000
0000
0000
0010
0000
0000
0000
,  // measure 45
1000
0010
1000
0010
0000
0000
0100
0001
0100
0000
0001
0000
1000
0100
0010
0001
,  // measure 46
1000
0010
1000
0000
0001
0000
0010
0000
0100
0000
1000
0000
0001
0000
0100
0000
0001
0010
0001
0000
1000
0000
0010
0000
0100
0000
0000
0000
0001
0000
0000
0000
,  // measure 47
0010
0001
0010
0001
1000
0000
0010
0100
0010
0000
1000
0000
0001
0010
0001
1000
,  // measure 48
0010
0100
0010
0000
1000
0000
0001
0000
0010
0000
0100
0000
1000
0000
0001
0000
0100
0010
0100
0000
0001
0000
0010
0000
0100
0000
0000
0000
1000
0000
0000
0000
,  // measure 49
0010
1000
0010
1000
0000
0000
0001
0010
0001
0000
1000
0000
0001
0100
0010
1000
,  // measure 50
0001
0010
0001
0000
0100
0000
0010
0000
1000
0000
0001
0000
0010
0000
0100
0000
1000
0001
1000
0000
0010
0000
0100
0000
0001
0000
0000
0000
0100
0000
0000
0000
,  // measure 51
0010
1000
0000
0000
0000
0000
0000
0000
;

//---------------dance-double - ----------------
#NOTEDATA:;
#CHARTNAME:;
#STEPSTYPE:dance-double;
#DESCRIPTION:;
#CHARTSTYLE:;
#DIFFICULTY:Challenge;
#METER:8;
#RADARVALUES:0.509943,0.502467,0.141526,0.039313,0.345953,431.000000,18.000000,5.000000,0.000000,0.000000,0.000000,0.000000,0.000000,0.509943,0.502467,0.141526,0.039313,0.345953,431.000000,18.000000,5.000000,0.000000,0.000000,0.000000,0.000000,0.000000;
#CREDIT:Ben Speirs;
#NOTES:
00000000
00000000
00000000
00000000
,
00000000
00000000
00000000
00000000
,
11000000
00000000
00000000
00010000
01010000
00000000
00000000
10000000
,
10010000
00011000
00000000
00000000
,
00000100
00000000
00001000
00000000
00000100
00000000
00001000
00000010
00001000
00000010
00000000
00000000
00001000
00000000
00000100
00000000
,
00000100
00000000
00000010
00000001
00000010
00000000
00000001
00001000
00000001
00000000
00000001
00000000
00000100
00000000
00000010
00000000
,
00001000
00000000
00000001
00000000
00001000
00000000
00000001
00000100
00000001
00000000
00000100
00000000
00000010
00000000
00001000
00000000
,
00001000
00000000
00000001
00000010
00000001
00000000
00001000
00000100
00001000
00000000
00001000
00000000
00000001
00000000
00000000
00000000
,
00001000
00000000
00000100
00010000
00000000
00000100
00000000
00001000
00000100
00000000
00010000
00000000
00001000
00000000
00000000
00000000
,
00010000
00000000
00001000
00100000
00000000
00010000
00100000
00000000
00001000
00000000
00100000
00000000
00010000
00000000
00000000
00000000
,
00100000
00000000
00010000
00000000
10000000
00000000
00100000
01000000
00100000
00000000
10000000
00000000
00010000
00000000
00000000
00000000
,
10000000
00000000
01000000
10000000
01000000
00000000
10000000
00010000
10000000
00000000
00000000
00000000
00000000
00000000
00000000
00000000
,
10100000
00000000
00010000
00000000
10000000
00000000
00100000
01000000
00010000
00000000
10000000
00000000
01000000
00000000
00100000
00000000
,
01100000
00000000
00100000
00000000
00010000
00000000
10000000
00010000
01000000
00000000
00100000
00000000
10000000
00000000
00010000
00000000
,
01010000
00010000
00100000
00001000
00101000
00001000
00010000
00000100
,
00010100
00001000
00011000
00010000
00000000
00000000
00000000
00000000
,
00010100
00000000
00001000
00000100
00001000
00000000
00000001
00000000
00001000
00000100
00000010
00000001
00001000
00000000
00000010
00000000
,
00000100
00000001
00000100
00000001
00001000
00000000
00000010
00000000
00000100
00000000
00000000
00000000
00000000
00000000
00000000
00000000
,
00000001
00000000
00000100
00000010
00000100
00000000
00000001
00000000
00001000
00000010
00001000
00000010
00000100
00000000
00000001
00000000
,
00001000
00000100
00001000
00000100
00010000
00000000
00001000
00000000
00100000
00000000
00000000
00000000
00000000
00000000
00000000
00000000
,
00010000
00000000
00100000
00010000
00100000
00000000
00010000
00000000
10000000
00100000
10000000
00010000
00100000
00000000
00010000
00000000
,
10000000
01000000
10000000
00010000
01000000
00000000
00100000
00000000
10000000
00000000
00000000
00000000
00000000
00000000
00000000
00000000
,
00010000
00000000
01000000
00100000
01000000
00000000
00010000
00000000
10000000
00100000
10000000
01000000
10000000
00000000
00010000
00000000
,
00100000
00010000
10000000
00010000
01000000
00000000
00100000
00000000
10000000
02000000
00000000
00000000
03100000
00000000
00010000
00000000
,
10000000
00000000
00100000
00000000
01000000
00000000
00010000
00000000
10000000
00200000
00000000
00000000
01300000
00000000
00010000
00000000
,
00100000
00000000
00001000
00000000
00100000
00000000
00001000
00000000
00010000
00000200
00000000
00000000
00010300
00000000
00001000
00000000
,
00100000
00001000
00010000
00000100
00001100
00000010
00000110
00000100
,
00000202
00000303
00000001
00000100
00000010
00001000
00000100
00010000
,
00001000
00000000
00000000
00000000
00010000
00000000
00000100
00000000
00001000
00000000
00000010
00000000
00000100
00000001
00000100
00000010
,
00001000
00000000
00000000
00000000
00000001
00000000
00000000
00000000
00001100
00000000
00000001
00000000
00000100
00000010
00000100
00000000
,
00000001
00000000
00000000
00000000
00001000
00000000
00000010
00000000
00000100
00000000
00000001
00000000
00001000
00000100
00001000
00000000
,
00000001
00000000
00000000
00000000
00001000
00000000
00000100
00010000
00000100
00010000
00000100
00000000
00010000
00000000
00001000
00000000
,
00100000
00000000
00000000
00000000
00001000
00000000
00100000
00000000
00010000
00000000
10000000
00000000
00100000
01000000
00100000
00000000
,
10000000
00000000
00100000
10000000
01000000
01000000
00100000
00010000
,
01000000
00000000
00000000
00000000
00010000
00000000
10000000
00000000
00100000
00000000
10000000
00000000
00010000
00000000
01000000
00100000
,
01000000
00000000
00000000
00000000
01010000
00000000
01000000
00100000
01000000
00000000
00100000
10000000
00100000
00000000
10000000
01000000
,
10000000
00000000
00010000
00000000
00100000
00000000
00010000
10000000
00010000
00000000
01000000
00000000
00100000
00000000
00100000
00000000
,
10000000
00000000
00010000
00000000
00100000
00000000
00010000
00100000
00010000
00000000
00100000
00001000
00100000
00000000
00001000
00010000
,
00001000
00010000
00000100
00001000
00001000
00000010
00000100
00000001
,
00001000
00000000
00001001
00001000
00000100
00000010
00000010
00000001
,
00000100
00000000
00000010
00001000
00000100
00000000
00001000
00000000
00000001
00000000
00000100
00000000
00000100
00000000
00000010
00000000
,
00001000
00000000
00000100
00010000
00001000
00000000
00010000
00000000
00000100
00000000
00010000
00001000
00100000
00000000
00001000
00000000
,
00010000
00000000
00001000
00100000
00010000
00000000
01000000
00000000
00100000
00000000
10000000
00000000
00010000
00000000
00000000
00000000
,
00000000
00000000
00000000
00000000
01010000
00000000
00100000
10000000
00100000
00000000
10000000
00000000
00010000
00100000
00010000
00100000
,
01000000
00000000
10000000
00000000
00010000
01000000
00010000
01000000
00100000
00000000
10000000
00000000
00010000
00000000
00100000
00000000
,
00001000
00100000
00001000
00100000
00001000
00000000
00010000
00000100
00010000
00000000
00001000
00000000
00010000
00000100
00010000
00000100
,
00001000
00000000
00000100
00001000
00000100
00001000
00000010
00000100
00000010
00000000
00000100
00000000
00000001
00000000
00000100
00000000
,
00000010
00001000
00000010
00001000
00000001
00000000
00000010
00000001
00000010
00000000
00000001
00000000
00001000
00000100
00001000
00000100
,
00000010
00000000
00000001
00000100
00000001
00000100
00000010
00001000
00000010
00000000
00001000
00000000
00000100
00000000
00010000
00000000
,
00000100
00010000
00000100
00010000
00001000
00000000
00100000
00001000
00100000
00000000
00010000
00000000
10000000
00010000
10000000
00010000
,
01000000
00000000
00100000
10000000
00100000
10000000
01000000
00100000
00010000
00000000
10000000
00000000
00010000
00000000
01000000
00000000
,
00001000
00010000
00000000
00000000
00000000
00000000
00000000
00000000
;

//---------------dance-single - ----------------
#NOTEDATA:;
#CHARTNAME:;
#STEPSTYPE:dance-single;
#DESCRIPTION:;
#CHARTSTYLE:;
#DIFFICULTY:Medium;
#METER:4;
#RADARVALUES:0.254972,0.300743,0.188701,0.000000,0.000000,203.000000,24.000000,0.000000,0.000000,0.000000,0.000000,0.000000,0.000000,0.254972,0.300743,0.188701,0.000000,0.000000,203.000000,24.000000,0.000000,0.000000,0.000000,0.000000,0.000000,0.000000;
#CREDIT:Ben Speirs;
#NOTES:
0000
0000
0000
0000
,
0000
0000
0000
0000
,
1001
0000
1001
0000
,
1001
1001
0000
0000
,
0001
0000
0100
0000
0010
0000
1000
0100
,
0100
0010
0001
0000
,
1000
0000
0010
0000
0100
0000
0001
0010
,
0010
0100
1000
0000
,
0001
0000
0001
0000
1000
0100
1000
0000
,
0001
0000
1000
0100
1000
0000
0000
0000
,
0001
0000
0100
0000
0010
0000
0010
1000
,
0100
0000
0000
0000
,
1000
0100
1000
0000
0010
0000
1010
0000
,
0001
0100
0001
0000
0010
0000
0011
0000
,
1001
0000
1001
0000
,
1001
1001
0000
0000
,
1000
0001
0100
0100
,
0001
0000
0010
0001
1000
0000
0000
0000
,
0001
1000
0010
0010
,
1000
0000
0010
0100
0001
0000
0000
0000
,
1000
0100
0010
0010
,
0100
0000
1000
0001
0100
0000
0000
0000
,
0001
1000
0010
0010
,
1000
0000
0001
0100
1001
0000
0000
0000
,
1000
1000
0100
0000
1001
0000
0000
0000
,
0001
0001
0100
0000
1001
0000
0010
0000
,
1001
0010
1001
1001
,
1001
0000
1000
0000
0100
0000
0010
0010
,
0010
0000
0001
0000
0100
0000
0010
0010
,
0010
0000
1001
1000
,
0100
1000
0001
0100
,
0100
0000
0010
0010
0010
0000
1000
0001
,
1000
0100
0100
0010
,
0000
0001
1000
0010
,
0010
0000
0100
0000
0000
0000
0010
0010
,
0010
0000
1000
0000
0001
0000
1000
0100
,
1000
0000
0001
0100
0001
0000
1000
0010
,
1000
0000
0001
0000
0010
0000
0001
1000
,
0001
0000
1000
0100
1000
0000
0001
0000
,
0100
0000
1001
0000
0000
1000
1000
0001
,
0100
0000
1001
0000
0000
0001
0001
1000
,
0100
1001
0010
1001
,
0100
1001
1001
0000
,
0000
1000
0100
0010
,
0010
0000
0001
1000
0010
0010
0010
0000
,
0000
1000
0001
0100
,
0100
0000
0001
1000
0010
0010
0010
0000
,
0000
1000
0100
1000
,
1000
0000
0001
0010
0001
0001
0100
0000
,
0000
0001
0100
0010
,
0010
0000
1000
0001
1000
1000
0010
0000
,
0100
0000
0000
0000
;

//---------------dance-single - ----------------
#NOTEDATA:;
#CHARTNAME:;
#STEPSTYPE:dance-single;
#DESCRIPTION:;
#CHARTSTYLE:;
#DIFFICULTY:Easy;
#METER:2;
#RADARVALUES:0.161744,0.200495,0.141526,0.000000,0.000000,126.000000,18.000000,0.000000,0.000000,0.000000,0.000000,0.000000,0.000000,0.161744,0.200495,0.141526,0.000000,0.000000,126.000000,18.000000,0.000000,0.000000,0.000000,0.000000,0.000000,0.000000;
#CREDIT:Ben Speirs;
#NOTES:
0000
0000
0000
0000
,
0000
0000
0000
0000
,
1000
0000
0001
0000
,
0100
0100
0000
0000
,
0001
0000
1000
0000
,
0010
1000
0100
0000
,
1000
0000
0001
0000
,
0100
0001
0010
0000
,
0001
0001
0010
0001
,
1000
1000
0010
0000
,
1000
0000
0001
0000
,
0100
0000
0000
0000
,
1001
0000
1000
1000
,
1001
0000
0001
0001
,
1001
0000
1001
0000
,
1001
1001
0000
0000
,
1000
0000
0001
0000
,
0100
0100
0010
0000
,
0010
0000
1000
0000
,
0001
0001
0010
0000
,
0001
0000
1000
0000
,
0010
0010
1000
0000
,
1000
0000
0100
0000
,
0010
0010
1001
0000
,
0001
0000
1001
0000
,
1000
0000
1001
0000
,
1001
0000
1001
1001
,
0000
1000
0000
0001
,
0000
0100
0100
0100
,
0000
0000
0010
0000
,
1000
0000
0001
0001
,
0000
1000
0100
1000
,
0000
0001
0010
0001
,
0000
1000
0000
0001
,
0000
0100
0100
0100
,
0000
0001
0100
0010
,
0100
0001
0000
1000
,
0000
1000
0100
0010
,
0100
1000
0000
0001
,
0000
1001
0000
1000
,
1000
1001
0000
0001
,
0001
1001
0000
1001
,
0000
1001
1001
0000
,
0000
0001
0000
1000
,
0000
0010
0010
0100
,
0000
0001
0000
0100
,
0000
0010
0010
1000
,
0000
1000
0100
1000
,
0000
0001
0100
0100
,
0000
0001
0100
0001
,
0000
1000
0010
0010
,
0100
0000
0000
0000
;

//---------------dance-single - ----------------
#NOTEDATA:;
#CHARTNAME:;
#STEPSTYPE:dance-single;
#DESCRIPTION:;
#CHARTSTYLE:;
#DIFFICULTY:Beginner;
#METER:1;
#RADARVALUES:0.104460,0.119708,0.039313,0.000000,0.000000,88.000000,5.000000,0.000000,0.000000,0.000000,0.000000,0.000000,0.000000,0.104460,0.119708,0.039313,0.000000,0.000000,88.000000,5.000000,0.000000,0.000000,0.000000,0.000000,0.000000,0.000000;
#CREDIT:Ben Speirs;
#NOTES:
0000
0000
0000
0000
,
0000
0000
0000
0000
,
0001
0000
0001
0000
,
1000
1000
0000
0000
,
0010
0000
0000
0100
,
0100
0000
0001
0000
,
1000
0000
0000
0001
,
0001
0000
1000
0000
,
0010
0010
0000
0000
,
0010
0010
0000
0000
,
1000
0000
1000
0000
,
0001
0000
0000
0000
,
1001
0000
0000
0000
,
1001
0000
0000
0000
,
0001
0000
1000
0000
,
0001
0001
0000
0000
,
1000
0000
0100
0000
,
0100
0000
0100
0000
,
1000
0000
0100
0000
,
0100
0000
0100
0000
,
0001
0000
0100
0000
,
0100
0000
0100
0000
,
0001
0000
0100
0000
,
0100
0000
1001
0000
,
0000
0000
0010
0000
,
0000
0000
1000
0000
,
0001
0000
0100
0100
,
0100
0000
0000
0000
,
0000
0001
0000
0000
,
0000
1000
0000
0000
,
0010
0010
0000
0000
,
0000
0100
0000
0100
,
0000
0001
0000
0000
,
0000
1000
0000
1000
,
0000
0100
0000
0000
,
0000
1000
1000
1000
,
0000
0001
0000
0000
,
0000
0001
0001
0001
,
0000
1000
0000
0000
,
0000
1001
0000
0000
,
0000
1001
0000
0000
,
0000
0001
0000
1000
,
0000
0001
0001
0000
,
0000
0100
0000
0100
,
0000
0100
0000
0100
,
0000
0001
0000
0001
,
0000
0001
0000
0001
,
0000
1000
0000
1000
,
0000
1000
0000
1000
,
0000
0010
0000
0010
,
0000
0010
0010
0010
;
