#VERSION:0.82;
#TITLE:Figure It Out;
#SUBTITLE:;
#ARTIST:Royal Blood;
#TITLETRANSLIT:;
#SUBTITLETRANSLIT:;
#ARTISTTRANSLIT:;
#GENRE:All About That Bass;
#ORIGIN:;
#CREDIT:;
#BANNER:Figure It Out.png;
#BACKGROUND:Figure It Out-bg.png;
#PREVIEWVID:;
#JACKET:jacket.png;
#CDIMAGE:;
#DISCIMAGE:;
#LYRICSPATH:;
#CDTITLE:;
#MUSIC:Figure It Out.ogg;
#OFFSET:-0.236000;
#SAMPLESTART:53.418488;
#SAMPLELENGTH:14.774005;
#SELECTABLE:YES;
#BPMS:0.000=108.000,
179.250=54.000,
179.500=216.000,
226.000=208.000,
227.500=216.000;
#STOPS:;
#DELAYS:;
#WARPS:;
#TIMESIGNATURES:0.000=4=4;
#TICKCOUNTS:0.000=4;
#COMBOS:0.000=1;
#SPEEDS:0.000=1.000=0.000=0;
#SCROLLS:0.000=1.000;
#FAKES:;
#LABELS:0.000=Song Start;
#BGCHANGES:4.000=Figure It Out.avi=1.000=0=0=1=====,
99999=-nosongbg-=1.000=0=0=0 // don't automatically add -songbackground-
;
#KEYSOUNDS:;
#ATTACKS:
;

//---------------dance-single - ----------------
#NOTEDATA:;
#CHARTNAME:;
#STEPSTYPE:dance-single;
#DESCRIPTION:;
#CHARTSTYLE:;
#DIFFICULTY:Hard;
#METER:9;
#RADARVALUES:0.525251,0.642654,0.428436,0.179164,0.151900,394.000000,55.000000,23.000000,0.000000,0.000000,0.000000,0.000000,0.000000,0.525251,0.642654,0.428436,0.179164,0.151900,394.000000,55.000000,23.000000,0.000000,0.000000,0.000000,0.000000,0.000000;
#CREDIT:Ben Speirs;
#NOTES:
0000
0000
0000
0000
,
0000
0000
0000
0000
,
0000
0000
0000
0000
,
0000
0000
0000
0000
0000
0000
0000
0000
0000
0000
0000
0000
0000
0000
0000
1000
,
0000
0001
0100
0000
0010
1000
0001
0000
,
0010
0001
1000
0000
0100
1000
0010
0100
,
0002
1003
0100
0010
,
0100
0000
1000
0010
0100
0000
1001
0000
,
0100
0100
0010
1000
0100
0100
0010
0001
,
1000
0000
1000
0000
0010
0000
1000
0000
0001
0000
0001
0000
0010
0100
0010
0100
,
2000
0000
3001
0000
1000
0100
0010
0000
,
0002
0000
1003
0000
0010
1000
0001
0000
,
0100
0100
0010
1000
0100
0100
0010
0001
,
1000
0000
1000
0000
0001
0000
1000
0000
0001
0000
0001
0000
0100
0010
0100
0010
,
2000
0000
3100
0000
0010
0001
1000
0000
,
0020
0000
0000
0000
0130
0000
0000
0000
0001
0000
1000
0000
0010
0100
0000
0000
,
0101
0100
0001
0100
0001
0100
0001
0100
,
1001
1000
0001
1000
0001
1000
0001
1000
,
1100
0100
1000
0100
1000
0100
1000
0100
,
1010
0010
1000
0010
1000
0010
1000
0010
,
2000
0100
0100
0100
0100
0100
3100
1000
,
0002
0100
0100
0100
0100
0100
0103
0001
,
2000
0010
0010
0010
0010
0010
3010
1000
,
0001
0000
0010
0000
0100
0000
1000
0000
0010
0100
0010
0100
0010
0000
0100
0000
,
0101
0000
0000
0000
1010
0000
0001
0000
1000
0100
1000
0000
0001
0000
1000
0000
,
0010
0000
0100
0000
0001
0000
1000
0100
0010
0000
0011
0000
0000
1100
0000
0000
,
0001
0000
1000
0000
1010
0000
0001
0000
0100
0010
0100
0000
0001
0000
1000
0010
,
1000
0000
0001
0000
0010
0000
0100
0000
1000
0000
1100
0000
0000
0011
0000
0000
,
1001
0000
0000
0000
0101
0000
1000
0000
0001
0010
0001
0000
1000
0000
0001
0000
,
0100
0000
0010
0000
1000
0000
0001
0010
0100
0000
1100
0000
0000
0011
0000
0000
,
1000
0000
0001
0000
0101
0000
1000
0000
0010
0100
0010
0000
1000
0000
0001
0100
,
0001
0000
1000
0000
0100
0000
0010
0000
0001
0000
0011
0000
0000
1100
0000
0000
,
0101
0000
0000
1010
0000
0000
0011
0000
0000
1100
0000
0000
1001
0000
0110
0000
,
1002
0000
0103
0000
0010
1000
0100
0000
,
2000
0000
0000
0000
3001
0000
0000
0000
1000
0000
0010
0000
0100
0000
0000
0102
,
0000
0000
1000
0000
1003
0000
0000
0000
0001
0000
0000
0000
1000
0100
1000
0002
,
0000
0000
0100
0000
0103
0000
0000
0000
0010
0000
0000
0000
0100
0001
0100
0020
,
0000
0000
1000
0000
1030
0000
0000
0000
0001
0000
0000
0000
1000
0100
1000
0002
,
0000
0000
1003
0000
0100
0000
0010
0000
0001
0000
0100
0000
0010
0000
0000
2010
,
0000
0000
0001
0000
3001
0000
0000
0000
1000
0000
0000
0000
0001
0010
0001
2000
,
0000
0000
0010
0000
3010
0000
0000
0000
0100
0000
0000
0000
0010
1000
0010
0200
,
0000
0000
0001
0000
0301
0000
0000
0000
1000
0000
0000
0000
0001
0010
0001
2000
,
0000
0000
3001
0000
0010
0000
0100
0000
1000
0000
0010
0000
0100
0000
0000
0101
,
0000
0000
0010
0000
1000
0000
0100
0000
0010
0000
0001
0000
1000
0000
0000
1100
,
0000
0100
1000
0010
0100
0001
1000
1001
,
0000
0000
0100
0000
1000
0010
1000
0000
,
0001
0010
0001
0000
1000
0100
0010
0002
,
0000
0000
1003
0000
0010
0100
0010
0000
,
1000
0010
1000
0000
0001
0010
0100
2000
,
0000
0000
3001
0000
0100
0010
0100
0000
,
0001
0100
0001
0000
1000
0100
0010
0002
,
0000
0000
1003
0000
0010
1000
0010
0000
,
1000
0100
1000
0000
0001
0010
0100
1000
,
0000
0000
1100
0000
0000
0000
0000
0001
,
0000
0000
0101
0000
0000
0000
0000
1000
,
0000
1010
0000
0000
,
0000
0000
0000
0000
0000
0000
0000
1001
,
0000
1100
0101
1010
,
0011
0000
1001
0000
1000
0100
0010
0001
,
0000
1100
0101
0011
,
1010
0000
1001
0000
0001
0010
0100
1000
,
0000
1100
0101
1010
,
0011
0000
1001
0000
1000
0100
0010
0001
,
0000
0000
1000
0000
0001
1000
0001
0000
,
0100
0010
0100
0010
1000
0100
0010
0001
,
0000
0000
0011
0000
0000
0000
0000
1000
,
0000
0000
1010
0000
0000
0000
0000
0001
,
0000
0000
0101
0000
0000
0000
0000
1001
,
0000
0000
0000
0000
2002
0000
0000
0000
0000
3003
0000
0000
;

//---------------dance-single - ----------------
#NOTEDATA:;
#CHARTNAME:;
#STEPSTYPE:dance-single;
#DESCRIPTION:;
#CHARTSTYLE:;
#DIFFICULTY:Medium;
#METER:7;
#RADARVALUES:0.450692,0.615876,0.381697,0.140215,0.042844,338.000000,49.000000,18.000000,0.000000,0.000000,0.000000,0.000000,0.000000,0.450692,0.615876,0.381697,0.140215,0.042844,338.000000,49.000000,18.000000,0.000000,0.000000,0.000000,0.000000,0.000000;
#CREDIT:Ben Speirs;
#NOTES:
0000
0000
0000
0000
,
0000
0000
0000
0000
,
0000
0000
0000
0000
,
0000
0000
0000
0000
,
0100
0010
1000
0000
0100
0010
0001
0000
,
0100
0010
1000
0000
0001
1000
0001
1000
,
0020
0130
0001
1000
,
0200
0310
0001
1100
,
0001
0100
0002
0000
1003
0100
2000
0000
,
3001
0000
0010
0000
0002
0000
0000
0000
1003
0000
0001
0000
0100
0010
0100
0010
,
1000
0000
0001
0000
0010
0000
0001
1000
,
0100
0000
1000
0000
0010
0100
0001
0000
,
1000
0100
2000
0000
3001
0100
0002
0000
,
1003
0000
0010
0000
2000
0000
0000
0000
3001
0000
0100
0000
0010
1000
0010
1000
,
0001
0000
0100
0000
0010
0000
1000
0100
,
0010
0000
0001
0000
1000
0001
1000
0000
,
1001
0000
0010
1000
0010
1000
0010
0000
,
1001
0000
0010
0001
0010
0001
0010
0000
,
1001
0000
0100
1000
0100
1000
0100
0000
,
1001
0000
0100
0001
0100
0001
0100
0000
,
0010
1000
0010
1000
0010
1000
0010
1000
,
0001
1000
0001
1000
0001
1000
0001
1000
,
0100
1000
0100
1000
0100
1000
0100
1000
,
0100
0010
0100
0010
0001
0010
0100
1000
,
0010
0100
0101
0000
0010
1000
1100
0000
,
0001
0000
1000
0000
0100
0000
0010
0000
0000
0000
0011
0000
0000
1100
0000
0000
,
0001
1000
1001
0000
0010
0100
0110
0000
,
0001
0000
0100
0000
0010
0000
1000
0000
0000
0000
1100
0000
0000
0101
0000
0000
,
1000
0100
1100
0000
0001
0010
0011
0000
,
1000
0000
0100
0000
0010
0000
0001
0000
0000
0000
1010
0000
0000
0011
0000
0000
,
1000
0001
1001
0000
0010
0100
0101
0000
,
0010
0000
1000
0000
0001
0000
0100
0000
0000
0000
0101
0000
0000
1100
0000
0000
,
0011
0000
0000
1010
0000
0000
1100
0000
0000
0101
0000
0000
1001
0000
0110
0000
,
1002
0103
0010
1000
,
0200
0000
0310
0000
0001
0010
0100
0000
,
2100
0000
3001
0000
1000
0010
1000
0000
,
0102
0000
1003
0000
0001
0000
0010
0100
,
0020
0000
0031
0000
1000
0000
0010
0100
,
0010
1000
1000
0001
0001
0010
0010
0001
,
2100
0000
3001
1000
0001
0000
1100
0000
,
0102
0000
1003
0001
1000
0000
1010
0000
,
0012
0000
0103
0010
0100
0000
0101
0000
,
1000
0001
0001
1000
1000
0010
0100
0010
,
1000
0100
0100
0010
0010
0001
1000
0001
,
0100
0010
0010
1000
0100
0010
0001
1100
,
0000
0001
0100
0010
,
1000
0000
0100
0000
0010
0001
0010
0100
,
0000
0010
0001
1000
,
0010
0000
0100
0000
0001
1000
0001
0100
,
0000
0010
0100
0001
,
0010
0000
0100
0000
1000
0100
1000
0001
,
0000
1000
0010
0100
,
0001
0000
1000
0000
0010
0100
0010
1000
,
0000
0000
1010
0000
0000
0000
0000
0001
,
0000
0000
0011
0000
0000
0000
0000
1000
,
0000
1100
0000
0000
,
0000
0000
0000
0000
0000
0000
0000
1001
,
0000
0001
0100
0010
,
1000
0000
0100
0000
0010
0001
0010
0001
,
1000
0010
0100
0001
,
1000
0000
0100
0000
0010
0001
0010
0001
,
1000
0010
0100
0001
,
1000
0000
0001
0000
0010
0100
0010
0100
,
1000
0010
0100
0001
,
1000
0000
0010
0000
0100
0000
0000
0101
,
0000
0000
1100
0000
0000
0000
0000
1010
,
0000
0000
0011
0000
0000
0000
0000
1001
,
0000
0000
0110
0000
0000
0000
0000
1100
,
0000
0000
0000
0000
0202
0000
0000
0000
0000
0303
0000
0000
;

//---------------dance-single - ----------------
#NOTEDATA:;
#CHARTNAME:;
#STEPSTYPE:dance-single;
#DESCRIPTION:;
#CHARTSTYLE:;
#DIFFICULTY:Challenge;
#METER:10;
#RADARVALUES:0.718882,0.883649,0.296010,0.233692,0.623179,578.000000,38.000000,30.000000,0.000000,0.000000,0.000000,0.000000,0.000000,0.718882,0.883649,0.296010,0.233692,0.623179,578.000000,38.000000,30.000000,0.000000,0.000000,0.000000,0.000000,0.000000;
#CREDIT:Ben Speirs;
#NOTES:
0000
0000
0000
0000
,
0000
0000
0000
0000
,
0000
0000
0000
0000
,
0000
0000
0000
0000
0000
0000
0000
0000
0000
0000
0000
0000
0000
0000
0000
0010
,
0000
1000
0100
0000
1000
0001
1000
0000
,
0001
0100
0001
0000
1000
0100
0010
0001
,
1000
0000
0000
0000
0001
0000
0000
0000
0100
0000
0000
0000
0010
0000
0000
1000
,
0000
0001
0000
0000
0100
0000
0100
0000
0010
0000
0000
0000
1001
0000
0000
0000
,
0101
0000
0100
0000
0010
0000
1000
0100
1000
0000
0010
0000
0100
0000
0001
1000
,
0001
0000
0010
0000
0100
0000
1000
0100
1000
0000
0001
0010
0001
0010
0001
0010
,
0100
0000
0100
0000
1000
0000
0010
0000
0100
0000
0001
0000
1000
0000
0010
0100
,
0000
0100
0001
0000
1000
0000
0100
0000
0010
0000
0001
0000
1000
0010
1000
0002
,
0000
0000
0103
0010
0100
0000
0001
0000
1000
0000
0100
1000
0100
0000
0010
0000
,
0001
0000
1000
0010
1000
0000
0001
0000
0100
0000
0010
1000
0010
1000
0010
0200
,
0000
0000
0301
0000
0001
0000
1000
0000
1000
0000
0100
0000
0010
0000
0001
1000
,
0000
0010
0100
0000
0001
0000
1000
0000
0100
0000
0010
0001
1000
0001
0000
0000
,
2000
0100
3002
0010
2003
0010
3002
0100
,
2003
0100
3002
0010
2003
0010
3002
0100
,
2003
0010
3002
0010
2003
0100
3002
0100
,
2003
0010
3002
0010
2003
0100
3002
0100
,
1003
0100
1000
0100
1000
0100
1000
0100
1000
0100
1000
0100
1000
0100
1000
0100
,
0010
0100
0010
0100
0010
0100
0010
0100
0010
0100
0010
0100
0010
0100
0010
0100
,
0010
0001
0010
0001
0010
0001
0010
0001
0010
0001
0010
0001
0010
0001
0010
0001
,
1000
0001
1000
0001
1000
0001
1000
0001
0100
0100
0010
1000
0100
0100
0010
0001
,
1000
0100
0000
0000
1100
0000
1000
0100
0010
0001
1000
0001
1000
0000
0010
0100
,
0010
0100
0001
0000
1000
0000
0100
0010
0001
0000
0101
0000
0000
1100
0000
0000
,
1001
1000
0000
0000
0011
0000
0001
0010
0100
1000
0001
1000
0001
0000
0100
0010
,
0100
0010
1000
0000
0001
0000
0010
0100
1000
0000
1100
0000
0000
0011
0000
0000
,
1010
0002
0000
0000
0103
0000
0010
1000
0010
1000
0100
1000
0001
0000
1000
0100
,
1000
0100
0010
0001
0010
0000
0001
1000
0001
0000
1001
0000
0000
0110
0000
0000
,
0101
2000
0000
0000
3010
0000
0100
0001
0100
0001
0010
0001
1000
0000
0001
0010
,
0001
0010
0100
1000
0100
0000
1000
0001
1000
0000
1001
0000
0010
0101
0000
0010
,
1100
0000
0001
1100
0000
0010
0101
0000
1000
1100
0000
0001
0011
0000
1100
0000
,
1002
0000
0000
0000
0103
0000
0000
0010
1000
0000
0000
0000
0001
0000
0000
0000
,
2000
0000
0000
0000
3100
0000
0000
0010
0001
0000
1000
0100
1000
0100
1000
0002
,
0000
0000
0000
0000
0103
0000
0000
0010
0010
0000
0000
0000
1000
0010
0100
0001
,
2000
0000
0000
0000
3100
0000
0000
0010
0010
0000
0000
0000
0001
0010
0100
1000
,
0002
0000
0000
0000
0103
0000
0000
0010
0010
0000
0000
0000
1000
0010
0100
0001
,
0000
1000
0100
1000
0001
1000
0010
1000
0001
1000
0100
1000
0010
1000
0001
0200
,
0000
0000
0000
0000
0310
0000
0000
1000
1000
0000
0000
0000
0100
1000
0001
0020
,
0000
0000
0000
0000
0031
0000
0000
0100
0100
0000
0000
0000
0001
0010
0100
2000
,
0000
0000
0000
0000
3010
0000
0000
0100
0100
0000
0000
0000
0001
1000
0010
0100
,
0000
0001
0100
0010
0100
0001
0100
0010
0100
1000
0100
0010
0100
0001
0100
0010
,
0000
1000
0010
0100
0010
0001
0010
0100
0010
1000
0010
0100
0010
0001
0010
1000
,
0000
0100
1000
0001
1000
0010
1000
0001
0100
0010
0100
0010
0100
0100
1001
0000
,
0000
1000
0100
1000
0001
0010
0001
1000
,
0010
1000
0001
0010
0100
1000
0010
0100
,
0000
0001
0100
0001
1000
0100
1000
0001
,
0010
0001
1000
0010
0100
0001
1000
0100
,
0000
0010
0001
0010
0100
1000
0100
0010
,
0001
0010
0100
1000
0010
0100
0001
1000
,
0000
0001
0100
0001
0100
0010
1000
0010
,
1000
0001
1000
0100
0010
0001
1000
1010
,
0000
0000
1001
0000
1000
0100
0010
0011
,
0000
0000
1100
0000
0001
0010
0100
1100
,
0000
0000
0000
0101
0000
0000
1000
0010
1000
0001
0100
0001
,
1000
0000
0100
0000
1000
0000
0001
0000
0010
0000
0001
0000
0100
0000
0000
0000
0000
0000
0000
0000
0000
1001
0000
0000
,
0000
0001
0010
0001
1000
0100
1000
0001
,
0100
0001
1000
0100
0010
0001
0100
0010
,
0000
1000
0010
1000
0001
0010
0001
1000
,
0100
1000
0001
0100
0010
1000
0001
0010
,
0000
0100
1000
0100
0010
0001
0010
0100
,
1000
0100
0010
0001
0100
0010
1000
0001
,
0000
1000
0010
1000
0010
0100
0001
0100
,
0001
1000
0001
1000
0001
1000
0001
0000
0100
0000
0010
0000
1000
0000
1100
0000
,
0000
0000
0101
0000
1000
0100
0010
0011
,
0000
0000
1010
0000
0001
1000
0001
0101
,
0000
0000
1100
0000
1000
0100
1000
1001
,
0000
0000
0000
0000
0220
0000
0000
0000
0000
0330
0000
0000
;

//---------------dance-single - ----------------
#NOTEDATA:;
#CHARTNAME:;
#STEPSTYPE:dance-single;
#DESCRIPTION:;
#CHARTSTYLE:;
#DIFFICULTY:Easy;
#METER:4;
#RADARVALUES:0.274867,0.481990,0.171374,0.202533,0.003895,199.000000,22.000000,26.000000,0.000000,0.000000,0.000000,0.000000,0.000000,0.274867,0.481990,0.171374,0.202533,0.003895,199.000000,22.000000,26.000000,0.000000,0.000000,0.000000,0.000000,0.000000;
#CREDIT:Ben Speirs;
#NOTES:
0000
0000
0000
0000
,
0000
0000
0000
0000
,
0000
0000
0000
0000
,
0000
0000
0000
0000
,
0100
0010
1000
0100
,
0010
0000
0001
0000
1000
0000
0010
0010
,
0010
0000
1000
0000
,
0001
1000
0010
1001
,
0100
0010
1000
0100
,
0010
0000
0001
0000
1000
0000
0010
0100
,
0010
0000
1000
0001
,
1000
0100
0010
0001
,
1000
0001
0100
0010
,
1000
0000
0001
0000
0010
0000
0001
1000
,
0001
0000
0100
0100
,
0010
1000
0001
0000
,
2100
0000
3100
0000
,
0102
0000
0103
0000
,
2010
0000
3010
0000
,
0012
0000
0013
0000
,
0002
0203
0320
2030
,
3200
0320
0032
2003
,
3020
0230
0302
0023
,
0230
2300
3001
0000
,
1100
1000
0001
0100
,
0010
0000
1000
0001
1000
0000
0000
0000
,
0101
0100
0010
1000
,
0001
0000
0010
0001
0010
0000
0000
0000
,
1001
0110
1001
0010
,
1000
0000
0100
0010
0001
0000
0000
0000
,
1001
0110
1001
0100
,
0001
0000
0010
0100
1000
0000
0000
0000
,
0010
0000
0100
0000
,
1001
0000
0100
0000
,
1000
0000
0001
0000
,
0200
0300
0010
1000
,
0200
0300
0010
0001
,
2000
3000
0010
1000
,
0001
0001
1000
1000
,
0020
0030
0100
0001
,
2000
3000
0100
0010
,
0002
0003
0100
0001
,
1000
1000
0001
0001
,
0100
0010
1000
0100
,
0010
0000
0001
0000
1000
0001
1000
0000
,
0000
0010
0010
0000
,
1000
0000
0001
0010
,
0001
1000
1000
0000
,
0010
0000
0100
0001
,
0100
0010
0010
0000
,
1000
0000
0001
0010
,
0001
1000
1000
0000
,
0100
1000
0001
0000
,
0000
1100
0000
0000
,
0000
0101
0000
0000
,
0000
1001
0000
0000
,
0000
0000
0000
0000
,
0000
0010
0010
0000
,
1000
0100
0010
0001
,
1000
0000
0010
0000
,
1000
0100
1000
0001
,
0010
0000
0001
0000
,
0100
0010
0100
0001
,
1000
0000
0001
0000
,
0010
0000
0010
0000
0010
0000
0000
0001
,
0000
0000
0011
0000
0000
0000
0000
1000
,
0000
0000
1010
0000
0000
0000
0000
0001
,
0000
0000
0101
0000
0000
0000
0000
1001
,
0000
0000
0000
0000
2002
0000
0000
0000
0000
3003
0000
0000
;

//---------------dance-single - ----------------
#NOTEDATA:;
#CHARTNAME:;
#STEPSTYPE:dance-single;
#DESCRIPTION:;
#CHARTSTYLE:;
#DIFFICULTY:Beginner;
#METER:2;
#RADARVALUES:0.124636,0.185396,0.031159,0.000000,0.000000,108.000000,4.000000,0.000000,0.000000,0.000000,0.000000,0.000000,0.000000,0.124636,0.185396,0.031159,0.000000,0.000000,108.000000,4.000000,0.000000,0.000000,0.000000,0.000000,0.000000,0.000000;
#CREDIT:Ben Speirs;
#NOTES:
0000
0000
0000
0000
,
0000
0000
0000
0000
,
0000
0000
0000
0000
,
0000
0000
0000
0000
,
1000
0000
0001
0000
,
0100
0000
0010
0000
,
1000
0000
0000
0000
,
0001
0000
0000
0100
,
0100
0000
0010
0000
,
1000
0000
0100
0100
,
0100
0000
0000
0000
,
0010
0000
0000
0001
,
0001
0000
1000
0000
,
0001
0000
0100
0100
,
0100
0000
0000
0000
,
0010
0000
0000
1000
,
1000
0000
0100
0000
,
0010
0000
0001
0000
,
1000
0000
0100
0000
,
0010
0000
0001
0000
,
1000
0000
1000
0000
,
0010
0000
0010
0000
,
0100
0000
0100
0000
,
0001
0000
0001
0000
,
1001
0000
0000
0000
,
0010
0010
0010
0000
,
1001
0000
0000
0000
,
0100
0100
0100
0000
,
1001
0000
0000
0000
,
1000
1000
1000
0000
,
1001
0000
0000
0000
,
0001
0001
0001
0000
,
0100
0000
0010
0000
,
1000
0000
0000
0000
,
0001
0000
0000
0000
,
1000
1000
0000
0000
,
0010
0010
0000
0000
,
1000
1000
0000
0000
,
0001
0000
1000
0000
,
0001
0001
0000
0000
,
0100
0100
0000
0000
,
0010
0010
0000
0000
,
0100
0000
0001
0000
,
1000
0000
0100
0000
,
0010
0000
0001
0000
,
0000
0000
0000
0000
,
1000
0000
1000
0000
,
0010
0000
0000
0000
,
0100
0000
0100
0000
,
0001
0000
0000
0000
,
1000
0000
1000
0000
,
0010
0000
0000
0000
,
0100
0000
0100
0000
,
0001
0000
0000
0000
,
1000
0000
0000
0000
,
0010
0000
0000
0000
,
0000
0000
0000
0000
,
0000
0000
0000
0000
,
1000
0000
1000
0000
,
0100
0000
0000
0000
,
0010
0000
0010
0000
,
0001
0000
0000
0000
,
0100
0000
0100
0000
,
0010
0000
0000
0000
,
1000
0000
1000
0000
,
0001
0000
0000
0000
,
1000
0000
0000
0000
,
0010
0000
0000
0000
,
0100
0000
0000
0000
;

//---------------dance-double - ----------------
#NOTEDATA:;
#CHARTNAME:;
#STEPSTYPE:dance-double;
#DESCRIPTION:;
#CHARTSTYLE:;
#DIFFICULTY:Challenge;
#METER:10;
#RADARVALUES:0.672143,0.883649,0.319379,0.093477,0.560861,551.000000,41.000000,12.000000,0.000000,0.000000,0.000000,0.000000,0.000000,0.672143,0.883649,0.319379,0.093477,0.560861,551.000000,41.000000,12.000000,0.000000,0.000000,0.000000,0.000000,0.000000;
#CREDIT:Ben Speirs;
#NOTES:
// measure 0
00000000
00000000
00000000
00000000
,  // measure 1
00000000
00000000
00000000
00000000
,  // measure 2
00000000
00000000
00000000
00000000
,  // measure 3
00000000
00000000
00000000
00000000
00000000
00000000
00000000
00000000
00000000
00000000
00000000
00000000
00000000
00000000
00000000
00001000
,  // measure 4
00000000
00010000
00001000
00000000
00100000
00001000
00100000
00000000
,  // measure 5
00001000
00010000
00001000
00000000
00010000
00000100
00010000
00000100
,  // measure 6
00001000
00000000
00000000
00000000
00000010
00000000
00000000
00000000
00000100
00000000
00000000
00000000
00000001
00000000
00000000
00001000
,  // measure 7
00000000
00000100
00000000
00000000
00001000
00000000
00000001
00000000
00000100
00000000
00000000
00000000
00001001
00000000
00000000
00000000
,  // measure 8
00000101
00000000
00000100
00000000
00000010
00000000
00001000
00000100
00001000
00000000
00000001
00000000
00000010
00000000
00000001
00001000
,  // measure 9
00000001
00000000
00000100
00000000
00000010
00000000
00001000
00000000
00000100
00000000
00010000
00001000
00010000
00001000
00010000
00001000
,  // measure 10
00100000
00000000
00010000
00000000
01000000
00000000
00100000
00000000
10000000
00000000
01000000
00000000
00100000
00000000
00010000
10000000
,  // measure 11
00000000
10000000
00010000
00000000
01000000
00000000
00100000
00000000
10000000
00000000
01000000
00000000
00100000
00000000
00000000
10010000
,  // measure 12
00000000
00000000
10000000
01000000
10000000
00000000
00010000
00100000
00010000
00000000
10000000
00000000
01000000
00000000
10000000
00010000
,  // measure 13
10000000
00000000
00100000
00000000
01000000
00000000
00010000
00000000
00100000
00000000
00001000
00010000
00001000
00010000
00001000
00010000
,  // measure 14
00000100
00000000
00001000
00000000
00000010
00000000
00000100
00000000
00000001
00000000
00000010
00000000
00000100
00000000
00001000
00000001
,  // measure 15
00000000
00000001
00001000
00000000
00000010
00000000
00000100
00000000
00000001
00000000
00001000
00000100
00000010
00000001
00000000
00000000
,  // measure 16
00001100
00000100
00001000
00000100
00001000
00000100
00001000
00000100
,  // measure 17
00010100
00010000
00000100
00010000
00000100
00010000
00000100
00010000
,  // measure 18
00011000
00001000
00010000
00001000
00010000
00001000
00010000
00001000
,  // measure 19
00101000
00100000
00001000
00100000
00001000
00100000
00001000
00100000
,  // measure 20
00010000
00100000
00010000
00100000
00010000
00100000
00010000
00100000
00010000
00100000
00010000
00100000
00010000
00100000
00010000
00100000
,  // measure 21
00001000
00100000
00001000
00100000
00001000
00100000
00001000
00100000
00001000
00100000
00001000
00100000
00001000
00100000
00001000
00100000
,  // measure 22
00001000
00010000
00001000
00010000
00001000
00010000
00001000
00010000
00001000
00010000
00001000
00010000
00001000
00010000
00001000
00010000
,  // measure 23
00000100
00010000
00000100
00010000
00000100
00010000
00000100
00010000
00000100
00001000
00000010
00000100
00000001
00000010
00000100
00001000
,  // measure 24
00000001
00000100
00000000
00000000
00001001
00000000
00001000
00000100
00001000
00000001
00000100
00000001
00001000
00000000
00000001
00000010
,  // measure 25
00000100
00001000
00000001
00000000
00001000
00000000
00000010
00000100
00000000
00000000
00000110
00000000
00000000
00000101
00000000
00000000
,  // measure 26
00001000
00000010
00000000
00000000
00001001
00000000
00001000
00000100
00001000
00000001
00000100
00000001
00001000
00000000
00000100
00010000
,  // measure 27
00000100
00000000
00010000
00000000
00001000
00000000
00100000
00010000
00100000
00000000
00110000
00000000
00000000
11000000
00000000
00000000
,  // measure 28
10000000
00100000
00000000
00000000
10010000
00000000
00010000
00100000
00010000
10000000
00100000
10000000
00010000
00000000
10000000
01000000
,  // measure 29
00100000
00010000
10000000
00000000
00010000
00000000
01000000
00100000
00000000
00000000
01100000
00000000
00000000
10100000
00000000
00000000
,  // measure 30
00010000
01000000
00000000
00000000
10010000
00000000
00010000
00100000
00010000
10000000
00100000
10000000
00010000
00000000
00100000
00001000
,  // measure 31
00100000
00000000
00001000
00000000
00010000
00000000
00000100
00001000
00000100
00000000
00001100
00000000
00000000
00000011
00000000
00000000
,  // measure 32
00000101
00000000
00000000
00001010
00000000
00000000
00010100
00000000
00000000
00011000
00000000
00000000
00110000
00000000
00011000
00000000
,  // measure 33
02000000
00000000
00000000
00000000
03100000
00000000
00000000
01000000
00010000
00000000
00000000
00000000
10000000
00000000
00000000
00000000
,  // measure 34
00200000
00000000
00000000
00000000
01300000
00000000
00000000
00010000
10000000
00000000
00100000
01000000
00100000
01000000
00100000
20000000
,  // measure 35
00000000
00000000
00000000
00000000
30010000
00000000
00000000
10000000
10000000
00000000
00000000
00000000
00010000
00100000
01000000
20000000
,  // measure 36
00000000
00000000
00000000
00000000
30010000
00000000
00000000
01000000
01000000
00000000
00000000
00000000
00100000
10000000
00100000
02000000
,  // measure 37
00000000
00000000
00000000
00000000
03010000
00000000
00000000
10000000
10000000
00000000
00000000
00000000
01000000
10000000
00010000
00100000
,  // measure 38
00000000
00100000
00001000
00100000
00001000
00100000
00001000
00100000
00001000
00010000
00001000
00010000
00000100
00010000
00000100
00002000
,  // measure 39
00000000
00000000
00000000
00000000
00003001
00000000
00000000
00000100
00000100
00000000
00000000
00000000
00000001
00001000
00000100
00002000
,  // measure 40
00000000
00000000
00000000
00000000
00003010
00000000
00000000
00000100
00000100
00000000
00000000
00000000
00000001
00000010
00000100
00000020
,  // measure 41
00000000
00000000
00000000
00000000
00000031
00000000
00000000
00000100
00000100
00000000
00000000
00000000
00000001
00000100
00000010
00001000
,  // measure 42
00000000
00000100
00001000
00000100
00001000
00000100
00010000
00000100
00010000
00001000
00010000
00001000
00010000
00001000
00100000
00020000
,  // measure 43
00000000
00000000
00130000
00010000
00100000
00010000
10000000
00010000
10000000
00010000
10000000
01000000
10000000
01000000
10000000
00020000
,  // measure 44
00000000
00000000
01030000
00010000
01000000
00010000
10000000
00100000
01000000
00000000
01000000
00000000
00100000
01000000
10010000
00000000
,  // measure 45
00000000
00000000
10000000
01000000
10000000
00010000
00100000
00010000
,  // measure 46
10000000
00100000
10000000
01000000
00100000
00010000
01000000
00001000
,  // measure 47
00000000
00000000
00100000
00010000
00100000
00010000
10000000
00010000
,  // measure 48
10000000
00100000
01000000
00010000
00100000
00001000
00010000
00000100
,  // measure 49
00000000
00000000
00001000
00000100
00001000
00000010
00001000
00000010
,  // measure 50
00001000
00000100
00000010
00000001
00001000
00000010
00000100
00000001
,  // measure 51
00000000
00000000
00000001
00000100
00000001
00000100
00000001
00001000
,  // measure 52
00000001
00001000
00000010
00000100
00000001
00000010
00000100
00001100
,  // measure 53
00000000
00000000
00001001
00000000
00001000
00000010
00000100
00000101
,  // measure 54
00000000
00000000
00001001
00000000
00000001
00001000
00000100
00010100
,  // measure 55
00000000
00000000
00000000
00011000
00000000
00000000
00100000
00010000
00100000
00001000
00010000
00001000
,  // measure 56
01000000
00000000
00010000
00000000
01000000
00000000
00100000
00000000
10000000
00000000
00100000
00000000
01000000
00000000
00000000
00000000
00000000
00000000
00000000
00000000
00000000
10010000
00000000
00000000
,  // measure 57
00000000
10000000
01000000
10000000
01000000
10000000
00010000
10000000
,  // measure 58
00010000
10000000
00010000
00100000
00010000
00100000
00001000
00010000
,  // measure 59
00000000
00001000
00010000
00001000
00010000
00000100
00010000
00000100
,  // measure 60
00001000
00000100
00001000
00000010
00000100
00000001
00001000
00000100
,  // measure 61
00000000
00000010
00000001
00000010
00000001
00000010
00000100
00000010
,  // measure 62
00000100
00000010
00000100
00001000
00000010
00000100
00000001
00001000
,  // measure 63
00000000
00000001
00000100
00000010
00001000
00000100
00010000
00001000
,  // measure 64
00100000
00010000
01000000
00100000
10000000
01000000
00100000
00110000
,  // measure 65
00000000
00000000
10010000
00000000
00010000
00100000
01000000
11000000
,  // measure 66
00000000
00000000
10010000
00000000
10000000
00010000
01000000
01010000
,  // measure 67
00000000
00000000
00101000
00000000
00100000
00001000
00010000
00010100
,  // measure 68
00000000
00000000
00000000
00000000
00022000
00000000
00000000
00000000
00000000
00033000
00000000
00000000
;
