#TITLE:Zelda's Lullaby;
#SUBTITLE:(Techno Remix);
#ARTIST:Nintendo;
#TITLETRANSLIT:;
#SUBTITLETRANSLIT:;
#ARTISTTRANSLIT:;
#CREDIT:;
#BANNER:Zelda's Lullaby-banner.BMP;
#BACKGROUND:Zelda's Lullaby-bg.BMP;
#LYRICSPATH:;
#CDTITLE:./CDTITLES/DANCE DANCE REVOLUTION EXTREME.PNG;
#MUSIC:Zelda's Lullaby (Techno Remix).mp3;
#OFFSET:-3.727;
#SAMPLESTART:66.460;
#SAMPLELENGTH:12.000;
#SELECTABLE:YES;
#BPMS:0.000=130.000;
#STOPS:;
#BGCHANGES:;

//---------------dance-single - ----------------
#NOTES:
     dance-single:
     :
     Hard:
     7:
     0.453,0.468,0.102,0.272,0.076:
0000
0000
0000
0000
,
0000
0000
0000
0000
,
0000
0000
0000
0000
1000
0010
0100
0000
,
0001
0001
0100
0010
1000
0000
1001
0000
,
0200
0010
0010
0000
0310
0000
1000
1000
,
0010
0000
0100
0001
0020
0100
0100
0000
,
0130
0000
1000
0100
0002
0000
0103
0000
,
0010
0001
1000
0000
0002
0000
0100
0100
,
0100
0000
0103
0000
1000
0010
1000
0000
,
0101
0000
0001
0100
0010
1000
0100
0000
,
0001
0100
1000
0000
0010
0001
0010
0100
,
0010
0000
0011
0000
1000
0010
0001
0000
,
0100
0100
0010
1000
0010
0001
0010
0000
,
2000
0001
3010
0000
0100
1000
0020
1000
,
0130
0000
0101
0000
0200
0010
1300
0000
,
0001
0000
0000
0000
0000
0000
0000
0000
0000
0000
0000
0000
1000
0000
0000
0000
0001
0000
0000
0000
1000
0000
0000
0000
0001
0000
0000
0000
1000
0000
0000
0000
0001
0000
0000
0000
1000
0000
0000
0001
0000
0000
1000
0000
0000
0001
0000
0000
,
1000
0010
0200
0310
,
1000
0000
0001
0100
0020
1000
1030
0000
,
0100
0000
0002
0100
0103
0000
0010
0000
,
1000
0100
1000
0001
0100
0000
0010
0100
,
0001
1000
0100
0000
0001
0100
0010
0000
,
1000
1000
0010
0100
0001
0000
1001
0000
,
0020
0100
0100
0000
0130
0000
0001
0001
,
0100
0000
0010
1000
0200
0010
0010
0000
,
0310
0000
0001
0010
2000
0000
3010
0000
,
0100
1000
0001
0000
2000
0000
0010
0010
,
0010
0000
3010
0000
0001
0100
0001
0000
,
1010
0000
1000
0010
0100
0001
0010
0000
,
1000
0010
0001
0000
0100
1000
0100
0010
,
0100
0000
1100
0000
0001
0100
1000
0000
,
0010
0010
0100
0001
0100
1000
0100
0000
,
0002
1000
0103
0000
0010
0001
0200
0001
,
0310
0000
1010
0000
0020
0100
0031
0000
,
1000
0000
0000
0000
0000
0000
0000
0000
0000
0000
0000
0000
0001
0000
0000
0000
1000
0000
0000
0000
0001
0000
0000
0000
1000
0000
0000
0000
0001
0000
0000
0000
1000
0000
0000
0000
0001
0000
0000
1000
0000
0000
0001
0000
0000
1000
0000
0000
,
0001
0100
0020
0130
,
0001
0000
1000
0010
0200
0001
0301
0000
,
0010
0000
2000
0010
3010
0000
0100
0000
,
0001
0010
0001
1000
0010
0000
0100
0010
,
1000
0001
0010
0000
1000
0010
0100
0000
,
0001
0001
0100
0010
1000
0000
1001
0000
,
0200
0010
0010
0000
0310
0000
1000
1000
,
0010
0000
0100
0001
0020
0100
0100
0000
,
0130
0000
1000
0100
0002
0000
0103
0000
,
0010
0001
1000
0000
0002
0000
0100
0100
,
0100
0000
0103
0000
1000
0010
1000
0000
,
0101
0000
0001
0100
0010
1000
0100
0000
,
0001
0100
1000
0000
0010
0001
0010
0100
,
0010
0000
0011
0000
1000
0010
0001
0000
,
0100
0100
0010
1000
0010
0001
0010
0000
,
2000
0001
3010
0000
0100
1000
0020
1000
,
0130
0000
0101
0000
0200
0010
1300
0000
,
0001
0000
0000
0000
0000
0000
0000
0000
0000
0000
0000
0000
1000
0000
0000
0000
0001
0000
0000
0000
1000
0000
0000
0000
0001
0000
0000
0000
1000
0000
0000
0000
0001
0000
0000
0000
1000
0000
0000
0001
0000
0000
1000
0000
0000
0001
0000
0000
,
1000
0010
2000
3010
,
0100
0000
0001
0010
0200
0000
0010
0000
,
0310
0002
1000
1003
,
0100
0001
1000
0010
,
0100
0001
2000
0000
,
3010
0100
0002
0000
0000
0000
0000
0000
,
0103
0000
0000
0000
;

//---------------dance-single - Copied from----------------
#NOTES:
     dance-single:
     Copied from:
     Medium:
     5:
     0.303,0.419,0.187,0.408,0.051:
0000
0000
0000
0000
,
0000
0000
0000
0000
,
0000
0000
2000
0000
,
3010
0100
0002
0000
0000
0000
0003
0000
,
2000
0000
3010
0200
,
0000
0000
0301
0010
0002
0000
0000
0000
,
1003
0020
0000
0030
,
2000
0000
3001
0200
,
0000
0310
2002
0000
,
0000
0000
0000
3003
,
0100
0000
0000
0000
0010
1000
0100
0010
,
0002
0003
0100
0000
,
0010
0100
0001
1000
0020
0000
0030
0000
,
0100
0001
0100
1010
,
0110
0101
1001
0100
,
0100
0000
0000
1000
0100
1000
0100
1000
0100
2000
0000
0000
,
3020
0000
0130
0002
,
0000
0000
1003
0100
2000
0000
0000
0000
,
3010
0200
0000
0300
,
0001
0100
1010
0110
,
0001
1010
2000
0000
,
3010
0100
0002
0000
0000
0000
0003
0000
,
2000
0000
3010
0200
,
0000
0000
0301
0010
0002
0000
0000
0000
,
1003
0020
0000
0030
,
2000
0000
3001
0200
,
0000
0310
2002
0000
,
0000
0000
0000
3003
,
0100
0000
0000
0000
0010
1000
0100
0010
,
0002
0003
0100
0000
,
0010
0100
0001
1000
0020
0000
0030
0000
,
0100
0001
0100
1010
,
0110
0101
1001
0100
,
0100
0000
0000
1000
0100
1000
0100
1000
0100
2000
0000
0000
,
3020
0000
0130
0002
,
0000
0000
1003
0100
2000
0000
0000
0000
,
3010
0200
0000
0300
,
0001
0100
1010
0110
,
0001
1010
0002
0000
,
0103
0010
2000
0000
0000
0000
3000
0000
,
0002
0000
0103
0020
,
0000
0000
1030
0100
2000
0000
0000
0000
,
3001
0200
0000
0300
,
0002
0000
1003
0020
,
0000
0130
2002
0000
,
0000
0000
0000
3003
,
0010
0000
0000
0000
0100
0001
0010
0100
,
2000
3000
0010
0000
,
0100
0010
1000
0001
0200
0000
0300
0000
,
0010
1000
0010
0101
,
0110
1010
1001
0010
,
0010
0000
0000
0001
0010
0001
0010
0001
0010
0002
0000
0000
,
1003
0000
1000
1000
,
0000
0000
0001
1000
0001
0000
0000
0000
,
0100
0020
0000
0030
,
1000
0000
0010
0100
,
0000
0001
1000
0000
,
0010
0100
0010
0000
0000
0000
0000
0000
,
1001
0000
0000
0000
;

//---------------dance-single - Copied from Copied from----------------
#NOTES:
     dance-single:
     Copied from Copied from:
     Easy:
     5:
     0.209,0.222,0.051,0.306,0.000: // measure 1
0000
0000
0000
0000
,  // measure 2
0000
0000
0000
0000
,  // measure 3
0000
0000
0000
0000
,  // measure 4
0000
0000
0000
0000
,  // measure 5
0100
0000
0020
0130
,  // measure 6
0000
0002
1003
0000
,  // measure 7
0200
0002
0000
0303
,  // measure 8
1000
0000
0002
0103
,  // measure 9
0000
0020
0200
0000
,  // measure 10
0000
0000
0000
0330
,  // measure 11
0002
0000
1000
1000
,  // measure 12
1003
0000
0200
0000
,  // measure 13
0010
0010
0310
0000
,  // measure 14
2000
0000
0001
0001
,  // measure 15
0001
0001
3001
0100
,  // measure 16
0010
2000
0000
0002
,  // measure 17
3003
0000
0100
0001
,  // measure 18
0000
1000
0010
0000
,  // measure 19
0100
0110
0000
0000
,  // measure 20
0001
0000
1000
0010
,  // measure 21
0000
1000
0001
0000
,  // measure 22
0100
0110
0000
0000
,  // measure 23
0010
0000
0200
0310
,  // measure 24
0000
2000
3001
0000
,  // measure 25
0020
2000
0000
3030
,  // measure 26
0001
0000
2000
3010
,  // measure 27
0000
0200
0020
0000
,  // measure 28
0000
0000
0000
0330
,  // measure 29
2000
0000
0001
0001
,  // measure 30
3001
0000
0020
0000
,  // measure 31
0100
0100
0130
0000
,  // measure 32
0002
0000
1000
1000
,  // measure 33
1000
1000
1003
0010
,  // measure 34
0100
0002
0000
2000
,  // measure 35
3003
0000
0010
1000
,  // measure 36
0000
0001
0100
0000
,  // measure 37
0010
0110
0000
0000
,  // measure 38
1000
0000
0001
0100
,  // measure 39
0000
0001
1000
0000
,  // measure 40
0010
0110
0000
0000
,  // measure 41
0100
0000
0020
0130
,  // measure 42
0000
0002
1003
0000
,  // measure 43
0200
0002
0000
0303
,  // measure 44
1000
0000
0002
0103
,  // measure 45
0000
0020
0200
0000
,  // measure 46
0000
0000
0000
0330
,  // measure 47
0002
0000
1000
1000
,  // measure 48
1003
0000
0200
0000
,  // measure 49
0010
0010
0310
0000
,  // measure 50
2000
0000
0001
0001
,  // measure 51
0001
0001
3001
0100
,  // measure 52
0010
2000
0000
0002
,  // measure 53
3003
0000
0100
0001
,  // measure 54
0000
1000
0010
0000
,  // measure 55
0100
0110
0000
0000
,  // measure 56
0001
0000
1000
0010
,  // measure 57
0000
1000
0001
0000
,  // measure 58
0100
0110
0000
0000
,  // measure 59
0100
0000
0000
0000
;
