#TITLE:Spitting Games;
#SUBTITLE:;
#ARTIST:Snow Patrol;
#TITLETRANSLIT:;
#SUBTITLETRANSLIT:;
#ARTISTTRANSLIT:;
#GENRE:;
#CREDIT:;
#BANNER:Spitting Games-bn.png;
#BACKGROUND:Spitting Games-bg.png;
#LYRICSPATH:;
#CDTITLE:;
#MUSIC:Spitting Games.mp3;
#OFFSET:-0.130;
#SAMPLESTART:39.780;
#SAMPLELENGTH:16.360;
#SELECTABLE:YES;
#BPMS:0.000=145.140
;
#STOPS:
;
#BGCHANGES:-0.900=Spitting Games.avi=1.000=1=0=0=StretchNoLoop==CrossFade==,
99999=-nosongbg-=1.000=0=0=0 // don't automatically add -songbackground-
;
#KEYSOUNDS:;
#ATTACKS:;

//---------------dance-single - ----------------
#NOTES:
     dance-single:
     :
     Beginner:
     1:
     0.081,0.088,0.008,0.000,0.000,66.000,1.000,0.000,0.000,0.000,0.000,0.081,0.088,0.008,0.000,0.000,66.000,1.000,0.000,0.000,0.000,0.000:
0000
0000
0000
0000
,
0000
0000
0000
0000
,
0000
0000
0000
0000
,
0000
0000
0000
0000
,
0010
0000
0000
0000
,
0010
0000
0000
0000
,
0100
0000
0000
0000
,
0100
0000
0000
0000
,
0001
0000
0000
0000
,
1000
0000
0000
0000
,
0100
0000
0000
0000
,
1000
0000
0000
0000
,
0010
0000
0000
0000
,
1000
0000
0000
0000
,
0001
0000
0000
0000
,
0010
0000
0000
0000
,
0001
0000
0000
0000
,
0100
0000
0000
0000
,
0001
0000
0000
0000
,
1000
0000
0000
0000
,
0100
0000
0000
0000
,
1000
0000
0000
0000
,
0010
0000
0000
0000
,
1000
0000
0000
0000
,
0001
0000
0000
0000
,
0001
0000
0000
0000
,
1000
0000
0000
0000
,
1000
0000
0000
0000
,
0100
0000
0000
0000
,
0100
0000
0000
0000
,
0010
0000
0000
0000
,
0010
0000
0000
0000
,
0001
0000
0000
0000
,
0100
0000
0000
0000
,
0001
0000
0000
0000
,
1000
0000
0000
0000
,
0010
0000
0000
0000
,
1000
0000
0000
0000
,
0100
0000
0000
0000
,
1000
0000
0000
0000
,
0010
0000
0000
0000
,
0100
0000
0000
0000
,
0001
0000
0000
0000
,
0010
0000
0000
0000
,
0100
0000
0000
0000
,
1000
0000
0000
0000
,
0001
0000
0000
0000
,
0100
0000
0000
0000
,
0001
0000
0001
0000
,
0001
0000
0000
0000
,
0001
0000
0000
0000
,
0000
0000
0000
0000
,
0100
0000
0100
0000
,
0100
0000
0000
0000
,
0100
0000
0000
0000
,
0000
0000
0000
0000
,
0010
0000
0010
0000
,
0010
0000
0000
0000
,
0010
0000
0000
0000
,
0000
0000
0000
0000
,
1000
0000
1000
0000
,
1000
0000
0000
0000
,
1000
0000
0000
0000
,
0000
0000
0000
0000
,
1001
0000
0000
0000
,
0100
0000
0000
0000
,
0010
0000
0000
0000
,
0100
0000
0000
0000
,
1000
0000
0000
0000
,
0001
0000
0000
0000
;

//---------------dance-single - ----------------
#NOTES:
     dance-single:
     :
     Medium:
     5:
     0.253,0.267,0.119,0.306,0.000,158.000,14.000,36.000,0.000,0.000,0.000,0.253,0.267,0.119,0.306,0.000,158.000,14.000,36.000,0.000,0.000,0.000: // measure 0
0000
0000
0000
0000
,  // measure 1
0000
0000
0000
0000
,  // measure 2
0000
0000
0000
0000
,  // measure 3
0000
0000
0000
0000
,  // measure 4
0220
0000
0000
0330
,  // measure 5
0202
0000
0000
0303
,  // measure 6
2020
0000
0000
3030
,  // measure 7
0002
0000
0000
2000
0000
0000
3003
0000
,  // measure 8
0100
1000
0001
0000
,  // measure 9
0010
0001
0100
0000
,  // measure 10
0010
1000
0100
0000
,  // measure 11
1000
0001
0100
0000
,  // measure 12
0010
1000
0100
0000
,  // measure 13
1000
0100
0010
0000
,  // measure 14
0001
0010
0100
0000
,  // measure 15
0010
0001
0100
0000
,  // measure 16
0010
1000
0100
0000
,  // measure 17
1000
0001
0100
0000
,  // measure 18
0001
0100
0010
0000
,  // measure 19
1000
0010
1000
0000
,  // measure 20
0001
0100
0010
0000
,  // measure 21
1000
0100
0010
0000
,  // measure 22
0001
1000
0010
0000
,  // measure 23
0100
0010
1000
0000
,  // measure 24
2020
0000
0000
3030
,  // measure 25
2002
0000
0000
3003
,  // measure 26
0220
0000
0000
0330
,  // measure 27
0002
0000
0000
0200
0000
0000
0303
0000
,  // measure 28
2002
0000
0000
3003
,  // measure 29
2200
0000
0000
3300
,  // measure 30
0220
0000
0000
0330
,  // measure 31
0200
0000
0000
2000
0000
0000
3300
0000
,  // measure 32
0100
1000
0001
0000
,  // measure 33
1000
0001
0100
0000
,  // measure 34
0010
0100
0010
0000
,  // measure 35
1000
0010
0100
0000
,  // measure 36
0001
1000
0100
0000
,  // measure 37
0010
0001
0100
0000
,  // measure 38
0010
0100
0001
0000
,  // measure 39
0010
0100
1000
0000
,  // measure 40
0010
1000
0001
0000
,  // measure 41
1000
0001
0100
0000
,  // measure 42
0010
1000
0001
0000
,  // measure 43
1000
0100
0010
0000
,  // measure 44
0001
1000
0010
0000
,  // measure 45
0100
0010
1000
0000
,  // measure 46
0100
0010
0001
0000
,  // measure 47
1000
0010
0100
0000
,  // measure 48
0001
1000
0001
0000
1000
0000
0001
0000
,  // measure 49
0100
0010
0100
0010
,  // measure 50
1000
0000
0000
0000
,  // measure 51
0000
0000
0000
0000
,  // measure 52
0100
0010
0100
0000
0001
0000
0100
0000
,  // measure 53
0010
1000
0001
0010
,  // measure 54
0100
0000
0000
0000
,  // measure 55
0000
0000
0000
0000
,  // measure 56
0010
0001
0010
0000
0001
0000
1000
0000
,  // measure 57
0010
0100
0010
1000
,  // measure 58
0100
0000
0000
0000
,  // measure 59
0000
0000
0000
0000
,  // measure 60
1000
0010
1000
0000
0100
0000
1000
0000
,  // measure 61
0010
0100
0010
1000
,  // measure 62
0001
0000
0000
0000
,  // measure 63
0000
0000
0000
0000
,  // measure 64
2002
0000
0000
3003
,  // measure 65
0220
0000
0000
0330
,  // measure 66
0202
0000
0000
0303
,  // measure 67
2000
0000
0000
0020
0000
0000
3030
0000
,  // measure 68
2200
0000
0000
3300
,  // measure 69
0022
0000
0000
0033
;

//---------------dance-single - ----------------
#NOTES:
     dance-single:
     :
     Hard:
     9:
     0.408,0.385,0.280,0.365,0.000,260.000,33.000,43.000,0.000,0.000,0.000,0.408,0.385,0.280,0.365,0.000,260.000,33.000,43.000,0.000,0.000,0.000:
0000
0000
0000
0000
,
0000
0000
0000
0000
,
0000
0000
0000
0000
,
0000
0000
0000
0000
,
0002
0200
0000
0000
0000
0000
0303
0000
,
0020
0200
0000
0000
0000
0000
0330
0000
,
2000
0200
0000
0000
0000
0000
3300
0000
,
0100
0020
0000
0002
0000
0000
0033
0000
,
1001
0000
1000
0000
0100
1000
0001
0000
,
0100
0000
0001
0000
1000
0001
0100
0000
,
0010
0000
1000
0000
0001
0010
0100
0000
,
1000
0000
0001
0000
1000
0100
0010
0000
,
0001
0000
1000
0000
0010
0100
0001
0000
,
1000
0000
0001
0000
0010
0100
1000
0000
,
0010
0000
1000
0000
0001
1000
0100
0000
,
0010
0000
0001
0000
1000
0001
0100
0000
,
0010
1010
1001
0100
,
0010
0100
0101
1100
,
0010
1000
0101
1100
,
0010
1000
1001
0101
,
0010
1000
1100
0110
,
0001
1000
1001
0101
,
0010
1000
1010
0101
,
1000
0001
1001
0101
,
0020
0200
0000
0000
0000
0000
0330
0000
,
0002
2000
0000
0000
0000
0000
3003
0000
,
2000
0200
0000
0000
0000
0000
3300
0000
,
0001
2000
0000
0002
0000
0000
3003
0000
,
0020
2000
0000
0000
0000
0000
3030
0000
,
0002
0200
0000
0000
0000
0000
0303
0000
,
0002
0020
0000
0000
0000
0000
0033
0000
,
0100
2000
0000
0020
0000
0000
3030
0000
,
0100
0000
0101
0000
0100
1000
0001
0000
,
0100
0000
1100
0000
1000
0010
0100
0000
,
0010
0000
1010
0000
1000
0001
0010
0000
,
0100
0000
0110
0000
0010
0001
1000
0000
,
0010
0000
1001
0000
0100
0001
1000
0000
,
0010
0000
1001
0000
1000
0100
0010
0000
,
0001
0000
0101
0000
0010
0100
0001
0000
,
0010
0000
0011
0000
0001
0010
0100
0000
,
1000
0001
1000
0000
0020
0000
0130
0000
,
0001
0100
0001
0000
0020
0000
0130
0000
,
1000
0100
1000
0000
0020
0000
0130
0000
,
0010
1000
0010
0000
0200
0000
0301
0000
,
1000
0100
1000
0000
0020
0000
1030
0000
,
0001
0010
0001
0000
0200
0000
0310
0000
,
0100
0001
0100
0000
0020
0000
1030
0000
,
0001
1000
0100
0000
1000
0001
1000
0001
,
1000
0010
1010
0101
,
0000
0000
0001
1000
0000
0001
0000
0100
,
0010
0100
0001
0010
,
0100
1000
0010
0100
,
0010
1000
1010
0101
,
0000
0000
0001
0100
0000
1000
0000
0100
,
0001
0010
0100
1000
,
0010
0100
0010
1000
,
0001
1000
1100
0101
,
0000
0000
0001
0100
0000
0010
0000
1000
,
0001
1000
0100
0010
,
0001
1000
0010
0100
,
0010
1000
1001
0101
,
0000
0000
0100
0010
0000
1000
0000
0100
,
0010
0001
0010
0100
,
1000
0000
0010
0000
1000
0001
1000
0001
,
0200
0002
0000
0000
0000
0000
0303
0000
,
0020
0200
0000
0000
0000
0000
0330
0000
,
0002
2000
0000
0000
0000
0000
3003
0000
,
1000
0200
0000
0020
0000
0000
0330
0000
,
0002
0200
0000
0000
0000
0000
0303
0000
,
2000
0200
0000
0000
0000
0000
3300
0000
;

//---------------dance-single - ----------------
#NOTES:
     dance-single:
     :
     Easy:
     2:
     0.168,0.177,0.042,0.161,0.000,114.000,5.000,19.000,0.000,0.000,0.000,0.168,0.177,0.042,0.161,0.000,114.000,5.000,19.000,0.000,0.000,0.000:
0000
0000
0000
0000
,
0000
0000
0000
0000
,
0000
0000
0000
0000
,
0000
0000
0000
0000
,
0020
0030
0000
0000
,
2000
3000
0000
0000
,
0002
0003
0000
0000
,
2000
3000
0000
0000
,
0100
0000
0100
0000
,
1000
0000
1000
0000
,
0001
0000
0001
0000
,
0010
0000
0010
0000
,
0001
0000
0001
0000
,
0100
0000
0100
0000
,
0010
0000
0010
0000
,
1000
0000
1000
0000
,
0100
0000
0100
0000
,
1000
0000
1000
0000
,
0010
0000
0010
0000
,
0100
0000
0100
0000
,
0001
0000
0001
0000
,
0010
0000
0010
0000
,
0001
0000
0001
0000
,
0100
0000
0100
0000
,
0020
0030
0000
0000
,
0200
0300
0000
0000
,
0002
0003
0000
0000
,
0020
0030
0000
0000
,
0002
0003
0000
0000
,
0200
0300
0000
0000
,
0020
0030
0000
0000
,
2000
3000
0000
0000
,
0010
0000
0010
0000
,
1000
0000
1000
0000
,
0001
0000
0001
0000
,
1000
0000
1000
0000
,
0100
0000
0100
0000
,
0010
0000
0010
0000
,
0001
0000
0001
0000
,
1000
0000
1000
0000
,
0010
0000
0010
0000
,
1000
0000
1000
0000
,
0100
0000
0100
0000
,
0010
0000
0010
0000
,
0001
0000
0001
0000
,
0100
0000
0100
0000
,
0010
0000
0010
0000
,
1000
0000
1000
0000
,
1001
0000
0100
0000
,
1000
0000
0010
0000
,
0100
0000
0100
0000
,
0100
0000
0100
0000
,
1001
0000
0010
0000
,
0001
0000
0100
0000
,
0010
0000
0010
0000
,
0010
0000
0010
0000
,
1001
0000
0100
0000
,
1000
0000
0010
0000
,
1000
0000
1000
0000
,
1000
0000
1000
0000
,
1001
0000
0100
0000
,
0010
0000
0001
0000
,
0100
0000
0100
0000
,
0100
0000
0100
0000
,
0002
0003
0000
0000
,
2000
3000
0000
0000
,
0020
0030
0000
0000
,
2000
3000
0000
0000
,
0200
0300
0000
0000
,
2002
3003
0000
0000
;

//---------------dance-single - ----------------
#NOTES:
     dance-single:
     :
     Challenge:
     11:
     0.608,0.593,0.425,0.425,0.051,401.000,50.000,50.000,0.000,0.000,0.000,0.608,0.593,0.425,0.425,0.051,401.000,50.000,50.000,0.000,0.000,0.000:
0000
0000
0000
0000
,
0000
0000
0000
0000
,
0001
0200
0010
0000
1000
0000
0310
0000
,
1000
0100
2000
0002
0000
0000
3003
0000
,
0010
2000
0100
0000
0010
0000
3001
0000
,
0100
0020
1000
0000
0001
0000
0130
0000
,
1000
0002
0100
0000
0010
0000
0103
0000
,
0010
0100
0002
0020
0000
0000
0033
0000
,
0001
0100
0101
0000
1100
0000
1001
0000
,
0101
2010
3100
1002
,
0103
0210
0301
2100
,
3010
1000
0100
1000
0001
0100
0010
0100
,
0001
1000
1100
0000
0101
0000
1001
0000
,
1010
0210
0301
2100
,
3001
0102
1003
0210
,
0301
0100
1000
0100
0010
1000
0100
0010
,
0001
0100
0101
0000
1100
0000
1001
0000
,
0110
0101
1100
0011
,
1010
1002
0103
2100
,
3100
1000
0010
1000
0001
0010
0100
1000
,
0010
0100
0110
0000
0101
0000
1100
0000
,
1001
0110
0011
0201
,
0310
2100
3001
0210
,
0301
0100
0010
1000
0100
0010
0001
0000
,
1000
0002
0100
0000
0010
0000
0103
0000
,
1000
0020
0100
0000
1000
0000
0031
0000
,
0100
0002
0100
0000
1000
0000
0013
0000
,
0100
1000
0020
0200
0000
0000
0330
0000
,
1000
0200
0010
0000
0001
0000
1300
0000
,
0001
2000
0010
0000
0100
0000
3010
0000
,
0100
0002
0010
0000
1000
0000
0013
0000
,
0100
1000
0002
0200
0000
0000
0303
0000
,
0010
1000
0010
0100
0010
0001
0010
1000
,
0010
0100
0010
1000
0010
0001
0010
0100
,
0010
1000
0100
0010
0001
0100
1000
0100
,
0010
1000
0100
0010
0001
1000
0010
0000
,
0100
1000
0100
0010
0100
0001
0100
0010
,
0100
1000
0100
0010
0100
1000
0100
0010
,
0001
0100
0010
1000
0100
1000
0010
0100
,
0001
1000
0100
0010
0001
1000
0010
0000
,
0001
0100
0101
0000
1100
0000
1001
0000
,
0110
0101
1100
0011
,
1000
0100
0001
0100
1000
0010
0100
0010
,
1000
0001
0010
1000
0010
0001
1000
0010
,
1010
0101
1100
0011
,
0110
1001
0110
0101
,
0100
1000
0100
0010
1000
0100
0001
0100
,
1000
0000
0010
0000
0100
0000
0001
0000
0100
0010
0100
0010
0100
0010
0100
0010
,
0100
0001
1000
0100
1000
0010
0100
0001
,
1000
0000
0010
1000
0100
0010
0001
1000
,
0020
0130
2000
3100
,
0002
0000
0000
0000
0103
0000
0000
0000
1000
0001
1000
0001
1000
0001
1000
0001
,
1000
0010
0100
0001
1000
0010
1000
0010
,
0100
0000
0001
0010
1000
0010
0001
1000
,
0200
1300
0002
0103
,
2000
0000
3100
0000
0010
0010
0100
0010
,
1000
0100
1000
0001
0100
0010
0100
0001
,
1000
0000
0001
0100
1000
0100
0001
1000
,
0020
0130
2000
3100
,
0002
0000
0103
0000
1000
1000
0010
1000
,
0100
0010
0001
1000
0010
0100
0001
1000
,
0010
0000
0100
0001
0100
1000
0100
0010
,
2000
3100
0020
0130
,
2000
0000
0000
0000
3001
0000
0000
0000
0010
0001
0010
0001
0010
0001
0010
0001
,
0100
0020
1000
0000
0001
0000
0130
0000
,
1000
0200
0001
0000
0010
0000
0301
0000
,
1000
0002
0100
0000
1000
0000
0013
0000
,
0100
0010
2000
0002
0000
0000
3003
0000
,
0100
0020
1000
0000
0001
0000
0130
0000
,
1000
0002
0010
0000
0100
0000
1003
0000
;
