#TITLE:Hardware Store;
#ARTIST:Weird Al;
#FILE:Weird Al - Track 2.mp3;
#BPM:230.000;
#GAP:0;
#SAMPLESTART:100.000;
#SAMPLELENGTH:12.000;
#SINGLE:MANIAC:10:
00000000
{0000000000000000000000000000000000000000000000400000000000600000}
{0000004000000000000000000000000000000000000000000000000000000000}
{0000000000000000000000000000000000400000000000600000000000000040}
{0000000000600000000000004000000000000000000000000000000000000000}
(0000000000000400)
{0060000000000040000000000000000000000000000000000000000000000000}
00000400
{0020000000000000000000000000008000000000000000006000000040000000}
{0000000080000000000000000020000000000000006000000000000040000000}
{0000000020000000000000800000000000000060000000400000000000000000}
{2000000000000000008000000000000060000000000000400000000000008000}
{0000000000200000000000000060000040000000200000000000008000000000}
{0000006000000000004000000000000080000000000020000000000000006000}
{0000000000400000000000008000000000000020000000000000006000000000}
{0040000000200000008000000060000000000000000000000040000080000000}
{2000000000600000000000000040000000800000200000000000000060000000}
{0000004000000000000000200000008000000060000040000000800000000020}
{0000000000000000600000004000000020000000000000800000006000000000}
{0000400000002000000000800000600000000040000000800000000020000000}
{0000000060000000400000200000000000008000000000000000006000000000}
{0000000000000000000000000000B!B0000000000000000000B000002080000000}
(0000060000400200)
{0000800000600000004000000000000000002000000000000000008000000000}
{0000000060000000400000000000008000000000002000000000000060000000}
{4000002000000000800000600000000000400000008000000000200000000000}
{0000600000004000000000008000002000000000600000000000000000400000}
{2000000000000000800000600000000000400000000000000080000000000000}
{0000000000200000000000000000000000000000406000000000000000000000}
{4!406!60000000000000000000000000000000000000406000000000004000000000}
{0000002000008000000060000000004000000000000000000080000000000000}
{0000200000000000000000006000000000400000008000000000000020000000}
{6000000000000040000000200000008000000000600000000000004000000080}
{0000002000000000000000600000400000000000000080000020000000000000}
{6000000000800000000000000020000000000000400000600000000020000000}
{0000000000800000000000000000000000006040000000000000000000008060}
{000000000000000000000000B!B00000000000000000000000000000B000000000}
{8000000000400000000000000060000000200000000000008000000040000000}
{0000006000000000000020000000000000000000008000000000400000006000}
{0000800000200000000000400000006000000000008000002000000000400000}
{0000006000000020000000000000008000004000000000000000600000000000}
{2000000080000000000000000040000060000000000000800000000000002000}
{0000400000600000000000000000002000000000000000000000000080000000}
{0000000000000000004060000000000000000000004!406!60000000000000000000}
{0000000000000000000000000000000000000000004060000000000000000040}
{0000000000002000000080000000006000000000000000400000000000800000}
{0000000020000000000060000000000000400000000000002000000000000000}
{8000006000000000400000000000800000000000000020000000000060000000}
{0000400000000000002000000000000080000000000000000060000040002000}
{0000000000008000000000000060000000000000004000000000000080000000}
{0000002000000000000000600000000000004000000000000000200000000000}
{0000800000000000000060000000000040000000800000002000000000600000}
{0040000000800000002000000060000000000000000000200000000000008000}
{0000006000000040000000200000000080000000600000004000000000800000}
{0020000000600000004000000000200000008000000060000000000000004000}
{0000000080000020000060000000000000008000000000000000200000000000}
{0000400000600000200000000000000080000000000000400000600000000000}
{0080000000000000000000000000B!B00000000000000000000000000000000000}
(0000000002000000)
{8000000000000000000000000000002000000000000000000000000000800000}
(000B000000000040)
{0000000000000000000000200000000000000000800000600000000000000040}
{0000000000000080000000000000002000000060000040000000000000002000}
{0000000000800000000000000060000000400000008000000000000020000000}
{0000006000000000000000000000000000400000000000000000000000006000}
{0000000000000080000020000000000000000000400000000000000060000000}
{0000000020000000000080000000000000400000000000000060000000000020}
{0000600000200000000000000080000000000000400000000000000060000080}
{0000006000000040000000800000002000006000000000400000800000000000}
{4000000000000000006000000000008000000000600000000020000000008000}
{0000000000004000000000000000600000000080000000600000000040000000}
{0000008000000000200000006000000000000040000000600000000000800000}
{0020000000004000600000000000800000000020000000000000004000006000}
{0000000040000000000080000000000000200000000000000060000000000000}
{000000000000006!604!400000000000000000000000B00000B!B00000000000000000}
{0000000000004060000000000040000000000000800000000000000020000060}
{0000004000000000000000800000000000000020000000000000000000600000}
{0000000000000000004000000000000080000000002000006000000000800000}
{2000000000400000006000000000200000000000000000000000800000002000}
{0000600000000000000080000000000000600000004000000080000000200000}
{0060000000000000400000000080000000000000000080000000000000000000}
{00000000003000000000000000000000000040008000000000000000000000B!B0}
{0000000000000000000000006040000000400000000080000000000000200000}
{0000000060000000400000800000002000000000000060000000000000800000}
{0000000000006000000000000000004000000000000000800000000020000000}
{6000000040000000800000002000000000000000006000000000000000000040}
{0000008000000000400000006000000080000000200000000000800000006000}
{0000004000000000800000000000002000000060000000200000000000008000}
{0000000040000000000000000090000000000000000000000000004080000000}
{00000000000000006!604!4000000000000000000000006000400080000000004000}
{0000600000000080000000002000000000400000800000000000002000000000}
{0000006000000000000000000040000000800000000000000000800000000000}
{6000000020000000800000000000400000000000600000000000004000000080}
{0000000000002000000000000060000000800000000000002000000040000000}
{0080000000000000002000000060000000000000400000008000000000008000}
{00000000000000206000000000000000000000008!806!6000000000000000806000}
{000000B000000000000000000000002!208!80000000000000000000000000002080}
{000000000000400000000000006!60000000000000000000008000600000000000}
{0000000000006000000000000000200000000000002000000000000040000000}
{0000200000000000000080000000000000006000000000000040000020000000}
{0080000000000060000000000000400000000000000080000000000000200000}
{0000006000000000000080000000000000000000200000400000000000600000}
{0000000080000000000020000000000000000000004080000000000000000000}
B!B0000000
{0000000000004060000040000000000000200000000000008000006000000040}
{0000000000000080000000200000600000000000004000008000000020000000}
{0000600000000000000040000000000000000020000000000000000080000000}
{0000006000000000000020000000000080000000000000400000000000006000}
{0020000000800000000000002000000060000040000000200000000000008000}
{0060000000000000004000000000000000800000000000000000300000000000}
{000000000000004!408!800000000000000000000000000000000000000000000000}
{0000000000004080000000004!406!6000000000000000000000B000008!802!20000000}
{000000000000002080006!604!4000000000000000000000B0002!208!80000000000000}
{000000000000000000000000002080000000000000B000000000000040000000}
{0020000000800000000000000060000000400000200000000000008000000060}
{0000004000000000008000000000002000000000000000600000000000400000}
{0000000000200000000000008000000000006000000000000000400000000000}
{0080000000200000600000000000004000002000000080000060000000000000}
{4000008000000020000000000000000000000000B!B00000000000000000000000}
00000000
{0000000000000000000000000020000000000000000000000000000000000080}
(0000002000000800)
(0B00000000000000)
{0000000000004000000000000020000080000000300000000000400000000000}
{0000800000000000000020000000000000006000000000000040000000800000}
{0000000020000000600000000000400000000000008000000000000020000000}
{0000000060000000000040000000000000002000000080000000000000600000}
{0040000000000080000000000000000020000000000000006000000000000040}
{0000000000008000000000000020000000600000000000000000800000200000}
{0000004000000000000060000000000000002000000000000080000000000000}
{0040000000000000006000000080000000000000002000004000000000000080}
(0002000600800020)
{0000000040000080000000000000002000006000000000000080000000000000}
{8000000000000000200000000000006000000000000000400000000000800000}
{0020000000000000000060000040000000000000800000000000200000000000}
{0060000000000000800000000000002000000000000000400000008000000000}
{0000200000006000000000000000600000000000000000000000000000400000}
{0020000000008000000060000000200000008000000000400000000060000000}
{8000000000200000000040000000200000000040000000200000008000000060}
{0000000040000000200000008000000060000000004000000020000000800000}
{0000200000000000400000000000000000800000004000000060000000200000}
{0080000000400000006000000000200000008000000000400000002000000000}
{8000000000600000000000400000002000000000800000006000000040000000}
{2000000000000000008000000000600000000020000080000000004000000060}
{0000000020000000800000004000000060000000008000000020000000002000}
{0000600000000020000000800000000040000000600000002000000000008000}
{0000200000006000000000400000008000000020000060000000400000008000}
{0000200000006000000000800000002000000000400000006000000020000000}
{8000000040000000600000008000002000000040000000600000002000008000}
{0000400000006000000020000000800000000000200000600000008000000060}
{0000002000000080000000400000006000000000200000008000000000200000}
{0060000000000000000000000000004000002000000000800000006000000000}
{0000004000000000000000200000008000006000000040000000002000000000}
{0000800000000000006000000040000080000000200000006000000000400000}
{8000000020000000600000004000008000000020000060000000800000002000}
{0000400000600000000020000080000000400000006000008000000020000000}
{0040000060000000200000008000000040000000600000000000200000008000}
{0000400000006000000080000000800000000020000000000060000000400000}
{0080000000200000006000000040000000800000000000400000002000000080}
{0000006000004000000000000000200000000000004000000000200000800000}
{0060000040000000800000000000000000002000000060000000400000008000}
{0000002000006000000000400000008000000020000000600000008000000020}
{0000000040000000000000000060000000400000008000000020000000600000}
{0000000000400000000000800000002000006000000040000000000000000000}
{0000000000008000000000000020000080000000100000000000006000000000}
{0000400000000000000060400000002000000000800000000000200000004000}
{0000000000000000000000006000000000000040000000000000002000000000}
{0000008000006000000040000000000000200000000000004000000000000000}
{0060000000400000008000000000004000000000000000200000000000000040}
{0060000000400000000000008000000000000000200000000000000060000000}
{0000004000000000000080000000000000200000000000000060000040000080}
{0000000000002000000000000000600000000000000000008040000000000000}
0B!B000000
{0000000000000000000040600000000040000000000000800000000000002000}
{0060000000400000000000000080000020000000600000000000008000000020}
{0000400000000000006000000000000020008000000000000040000000000000}
{6000000000000080000000000000002000000000000040000000000000600000}
{0000000040000080000000004000000000000060000000200000600000000000}
{0000400000800000400000000000000060000000000020006000000000000000}
{604000000000000000000000004!406!600000000000000000000000000000000000}
00000000
00000000
{0000000000000000000040006000000000000040000000000000200000000000}
{0080000060000000400000000000000020000000800000600000000000004000}
{0000200000800000000000006000000000000000B00000000000000000000000}
{0000000080000000000000200000000000000060000000000000400000000000}
{002000000000000080000060000000400000000000004000000000000000B000}
{0000000000002000008000004000000000000060000000000000008000000000}
{0000600000000000000000000000000000B!B00000000000000000000000000000}
{0000000000000000000000000000000000004060004!406!60000000000000000000}
{B000004!406!6000000000000000000000B00000B!B0000000000000000000B0004!406!60}
00000000
{0000000000000000400000000000004000000060000000200000800000006000}
{0000000000400020000000800000000000006000000000000040000000000000}
{8000000000000000200000000000006000000000000040000000000000200000}
{0000000080000000000000600000000020000080000000000040000000600000}
{008000002000000000000040000000600000000000000000000000000000B!B000}
00000000
00000000
00000000
{0000000000000000000040600000000000000000400000000000000000000000}
(0200000080000060)
{0000000040000000000000002000000000000000000000000000008000000000}
(0000060000040000)
{0020000000000000800000000000000000000000000000600000000000000000}
{0000000040000000000000000000000000200000000000000000800000000000}
{0000600000000000000000000000000000400000000000000000000000000020}
{0000000000000000000000800000000000000000600000000000000040000000}
{0000002000000080000060000000000000002000000000000080000000000000}
{0040000060000000200000000000008000000000000080000000000000004000}
{0020000000000000000080000000000000000060000000000000200000800000}
{0000200000000000008000000000000040000000000000002000008000006000}
{0000000000004000000000000080000000000000004000000060000000000000}
{00800020000000000000B!B0000000000000000000000000000000000000000000}
00000000
00000000
{0000604000000000000000000000000000000000000000000000000000000000}
;
