#TITLE:The One That Got Away;
#SUBTITLE:;
#ARTIST:Katy Perry;
#TITLETRANSLIT:;
#SUBTITLETRANSLIT:;
#ARTISTTRANSLIT:;
#CREDIT:;
#BANNER:The One That Got Away-bn.png;
#BACKGROUND:The One That Got Away-bg.png;
#LYRICSPATH:;
#CDTITLE:;
#MUSIC:The One That Got Away.mp3;
#OFFSET:-0.200;
#SAMPLESTART:102.220;
#SAMPLELENGTH:15.400;
#SELECTABLE:YES;
#BPMS:0.000=134.000,68.000=67.000,70.000=134.000,226.000=67.000,228.000=134.000;
#STOPS:;
#BGCHANGES:1.330=The One That Got Away.avi=1.000=1=0=0,
99999=-nosongbg-=1.000=0=0=0 // don't automatically add -songbackground-
;

//---------------dance-single - ----------------
#NOTES:
     dance-single:
     :
     Beginner:
     1:
     0.097,0.131,0.043,0.000,0.000:
0000
0000
0000
0000
,
0000
0000
0000
0000
,
1000
0000
0000
0000
,
1000
0000
0000
0000
,
0100
0000
0000
0000
,
0100
0000
0000
0000
,
0010
0000
0000
0000
,
0010
0000
0000
0000
,
0001
0000
0000
0000
,
0001
0000
0000
0000
,
0100
0000
0000
0000
,
0100
0000
0000
0000
,
0001
0000
0000
0000
,
0001
0000
0000
0000
,
1000
0000
0000
0000
,
1000
0000
0000
0000
,
0010
0000
0000
0000
,
0010
0000
0010
0000
,
0000
0000
1000
0000
,
1000
0000
1000
0000
,
0000
0000
0001
0000
,
0001
0000
0001
0000
,
0000
0000
1000
0000
,
0000
0000
0010
0000
,
0000
0000
0100
0000
,
0100
0000
0100
0000
,
0000
0000
0001
0000
,
0001
0000
0001
0000
,
0000
0000
1000
0000
,
1000
0000
1000
0000
,
0000
0000
0010
0000
,
0000
0000
1000
0000
,
0000
0000
0100
0100
,
0100
0000
0100
0000
,
0000
0000
1001
0000
,
0000
0000
0010
0000
,
0000
0000
0110
0000
,
0000
0000
0100
0000
,
0000
0000
1001
0000
,
0000
0000
1000
0000
,
0000
0000
0001
0000
,
0001
0000
0001
0000
,
0000
0000
0010
0000
,
0000
0000
0100
0000
,
0000
0000
0010
0000
,
0000
0000
0001
0000
,
0000
0000
0100
0000
,
0000
0000
0010
0000
,
0000
0000
1000
0000
,
0000
0000
1001
0000
,
0000
0000
0100
0000
,
0000
0000
1000
0000
,
0000
0000
0010
0000
,
0000
0000
0100
0000
,
0000
0000
0001
0000
,
0000
0000
0010
0000
,
0010
0000
0010
0000
,
0110
0000
0000
0000
,
0100
0000
0100
0000
,
0100
0000
0000
0000
,
1000
0000
1000
0000
,
1000
0000
0000
0000
,
0001
0000
0000
0000
,
0010
0000
0000
0000
,
0001
0000
0001
0000
,
0001
0000
0000
0000
,
0100
0000
0100
0000
,
0100
0000
0000
0000
,
0010
0000
0010
0000
,
0010
0000
0000
0000
,
0100
0000
0000
0000
,
0001
0000
0000
0000
,
1000
1000
1000
0000
,
1001
0000
0000
0000
;

//---------------dance-single - ----------------
#NOTES:
     dance-single:
     :
     Medium:
     5:
     0.282,0.318,0.043,0.122,0.000:
0000
0000
0000
0000
,
0000
0000
0000
0000
,
0010
0100
0001
0000
,
0010
0100
1000
0000
,
0001
1000
0010
0000
,
1000
0001
0100
0000
,
0010
0100
0001
0000
,
0010
0100
1000
0000
,
0020
1000
1030
0000
,
2000
0100
3100
0000
,
1000
0100
0010
0000
,
0001
1000
0100
0000
,
1000
0010
0100
0000
,
0010
1000
0001
0000
,
0010
0001
0100
0000
,
0001
1000
0100
0000
,
2000
0010
3010
0000
,
0002
0000
0103
0000
,
0001
0000
1000
0100
,
0010
0001
0100
0000
0010
0000
0000
0000
,
0100
0000
0001
0010
,
0100
1000
0010
0000
1000
0000
0000
0000
,
0001
0000
0100
0010
,
1000
0100
0010
0000
0001
0000
0000
0000
,
1000
0000
0001
1000
,
0010
0100
0010
0100
0010
0000
0000
0000
,
0100
0000
0001
1000
,
0001
0010
0100
0000
1000
0000
0000
0000
,
0010
0000
1000
0001
,
0100
0010
1000
0000
0001
0000
0000
0000
,
0010
0000
0001
1000
,
0010
0000
0100
0010
1000
0000
0000
0000
,
0001
0000
1000
0100
1000
0000
0010
0000
,
0100
0001
0100
0000
0000
0000
0001
0000
,
0000
0000
1000
0000
0010
0100
0010
0000
,
0100
0010
0100
0000
0000
0000
0001
0000
,
0000
0000
0010
0000
0001
1000
0001
0000
,
1000
0001
1000
0000
0000
0000
0100
0000
,
0000
0000
1000
0000
0010
1000
0010
0000
,
0100
0001
0100
0000
0000
0000
0010
0000
,
0000
0000
1000
0100
0010
0000
0001
0000
,
1000
0001
0100
0000
0010
0000
0010
0000
,
1000
1000
0100
0100
,
0010
0000
0010
0000
0002
0000
0000
2003
,
0000
3200
0000
0010
,
0010
0010
0310
0001
,
1000
0010
0100
0010
,
1000
0000
0001
0000
2000
0000
0000
3002
,
0000
0203
0000
0001
,
0001
0001
0301
0010
,
0001
1000
0100
0010
,
0100
0000
1000
0000
0020
0000
0000
2030
,
0000
3200
0000
1000
,
1000
1000
1300
0001
,
0100
0010
1000
0010
,
0100
0001
0101
0101
,
0101
0101
2002
0003
,
3010
0000
1000
0000
,
0001
0000
0010
0000
0100
1000
0010
0000
,
0100
0000
0010
0000
,
1000
0000
0100
0000
0010
0001
0100
0000
,
0001
0000
1000
0000
,
0010
0000
0100
0000
0001
0010
0100
0000
,
1000
0000
0001
0000
,
1000
0000
0001
0000
0100
0010
0100
0010
,
0100
0000
0010
0000
,
1000
0000
0001
0000
1000
0100
0010
0000
,
0001
0000
0100
0000
,
0001
0000
1000
0000
0010
0100
0001
0000
,
1000
0000
0100
0000
,
1000
0000
0001
0000
0100
0000
0010
0100
,
0001
0000
0000
0000
1000
0000
0001
0010
,
0001
0000
0100
0000
0010
1000
0010
0000
,
0220
0000
0000
0330
;

//---------------dance-single - ----------------
#NOTES:
     dance-single:
     :
     Hard:
     9:
     0.386,0.371,0.093,0.136,0.000: // measure 1
0000
0000
0000
0000
,  // measure 2
0000
0000
0000
0000
,  // measure 3
0010
1000
0001
0010
,  // measure 4
0001
0000
1000
0000
0010
0000
0100
0010
,  // measure 5
1000
0100
1000
0001
,  // measure 6
0010
0000
0001
0000
0100
0000
0001
0010
,  // measure 7
0100
0010
0001
1000
,  // measure 8
0010
0000
0100
0000
0010
0000
1000
0010
,  // measure 9
0200
0010
0310
1000
,  // measure 10
0002
0000
1000
0000
1003
0000
0010
1000
,  // measure 11
0100
0010
0001
1000
,  // measure 12
0010
0000
0100
0000
0010
0000
1000
0001
,  // measure 13
0100
0001
0010
0100
,  // measure 14
1000
0000
0001
0000
1000
0000
0010
0100
,  // measure 15
0010
1000
0001
0010
,  // measure 16
0100
0000
1000
0000
0010
0000
1000
0001
,  // measure 17
0200
0010
0310
0001
,  // measure 18
0220
0030
0302
1000
,  // measure 19
0100
1003
0010
1000
,  // measure 20
0001
0100
0010
0000
2000
0000
0100
0000
,  // measure 21
0010
0000
3001
0000
0100
1000
0001
0000
,  // measure 22
0100
0001
1000
0000
0010
0000
0100
0010
,  // measure 23
0100
0000
0001
0100
0001
0000
1000
0100
,  // measure 24
1000
0000
0010
0100
0020
0000
1000
0000
,  // measure 25
0100
0130
2000
0100
,  // measure 26
0001
3001
0101
0010
,  // measure 27
0100
0001
1000
0100
,  // measure 28
1000
0010
0100
0010
1000
0000
0001
0000
,  // measure 29
1000
0100
0010
0001
,  // measure 30
1000
0001
0100
0001
1000
0000
0010
0100
,  // measure 31
0010
0000
1000
0100
1000
0000
0001
1000
,  // measure 32
0001
0000
0100
0001
0200
0000
0010
0000
,  // measure 33
0001
0000
0310
0100
0010
0000
1000
0000
,  // measure 34
0001
0100
1000
0000
0000
0000
0110
0000
,  // measure 35
0000
0000
0100
0010
1000
0001
1000
0001
,  // measure 36
1000
0001
1000
0001
0000
0000
1100
0000
,  // measure 37
0000
0000
0010
1000
0001
1000
0001
1000
,  // measure 38
0001
1000
0001
1000
0000
0000
0011
0000
,  // measure 39
0000
0000
0100
0010
0001
1000
0001
1000
,  // measure 40
0001
1000
0001
1000
0000
0000
0110
0000
,  // measure 41
0000
0000
0001
1000
0100
0000
1000
0000
,  // measure 42
0001
0100
1000
0000
0010
0000
0010
0000
,  // measure 43
1000
0000
0100
1000
0001
0000
1000
0001
,  // measure 44
0100
0000
0010
0000
1000
0000
1000
0001
,  // measure 45
0000
0001
0010
0000
0001
0000
0100
0000
,  // measure 46
0010
0000
1000
0001
0000
1000
0000
0000
,  // measure 47
0000
0000
0000
0000
0010
1000
0100
0000
,  // measure 48
1000
0001
0100
0000
0010
0000
0010
0100
,  // measure 49
0000
0100
0001
0000
0100
0000
0001
0000
,  // measure 50
1000
0100
0010
0001
0100
0000
0001
0000
,  // measure 51
1000
0000
0100
1000
0001
0000
1000
0001
,  // measure 52
0100
0000
0010
0100
0001
0000
0010
0001
,  // measure 53
1000
0000
0100
1000
0010
0000
0100
0000
,  // measure 54
0010
1000
0001
0010
0000
0000
0000
0000
,  // measure 55
0000
0000
0000
0000
1000
0100
1000
0000
,  // measure 56
0001
0100
0001
0000
1001
0000
1001
0000
,  // measure 57
1001
1001
0220
0300
,  // measure 58
2030
0001
0010
3001
,  // measure 59
0100
0000
0001
0000
1000
0010
0100
0000
,  // measure 60
0002
0010
0100
1003
,  // measure 61
0010
0001
1000
0000
0010
1000
0001
0000
,  // measure 62
0100
0000
0010
0100
0010
0000
1000
0010
,  // measure 63
1000
0000
0001
0010
0001
0000
0100
0010
,  // measure 64
0200
0001
0010
0310
,  // measure 65
0002
0010
1000
1003
,  // measure 66
1010
0100
0010
1000
,  // measure 67
0001
0000
0010
0000
0001
0100
0010
0100
,  // measure 68
0001
1000
0001
0010
,  // measure 69
0100
0000
1000
0000
0001
1000
0010
1000
,  // measure 70
0001
0000
0100
0010
0100
0000
0001
0010
,  // measure 71
0001
0000
1000
0001
1000
0000
0010
1000
,  // measure 72
0020
0000
0100
0000
1000
0000
0130
0010
,  // measure 73
0100
0000
0001
0000
1000
0010
0001
0000
,  // measure 74
2002
0000
0000
3003
;

//---------------dance-single - ----------------
#NOTES:
     dance-single:
     :
     Easy:
     2:
     0.176,0.207,0.029,0.036,0.000:
0000
0000
0000
0000
,
0000
0000
0000
0000
,
0010
0000
0100
0000
,
0001
0001
0001
0000
,
0100
0000
0001
0000
,
1000
1000
1000
0000
,
0100
0000
1000
0000
,
0010
0010
0010
0000
,
2000
0000
3000
0000
,
0020
0000
0030
0000
,
0100
0000
0001
0000
,
0010
0010
0010
0000
,
0001
0000
1000
0000
,
0100
0100
0100
0000
,
1000
0000
0001
0000
,
0010
0010
0010
0000
,
0002
0000
0003
0000
,
0200
0000
0310
0000
,
0010
0000
1000
0000
,
1000
0000
0001
0000
,
0001
0000
0100
0000
,
0100
0000
0001
0000
,
1000
0000
0010
0000
,
1000
0000
0100
0000
,
0010
0000
0001
1000
,
0010
0100
0001
0000
,
0100
0000
0010
0000
,
1000
0000
0100
0000
,
1000
0000
0010
0000
,
1000
0000
1001
0000
,
0100
0000
1001
0000
,
0010
0000
0100
0100
,
0100
0100
0100
0010
,
0010
0100
0100
0000
,
0010
0000
1000
0001
,
1000
0001
0100
0000
,
0001
0000
1000
0001
,
1000
0001
0100
0000
,
0001
0000
1000
0001
,
1000
0001
0100
0000
,
0001
0000
1000
0001
,
1000
0000
0010
0000
,
0010
0000
0010
0000
,
0010
0000
1000
0000
,
1000
0000
1000
0000
,
1000
0000
0100
0000
,
0100
0000
0100
0000
,
0100
0000
0010
0000
,
0010
0000
0010
0000
,
0010
0000
0001
0000
,
0001
0000
0001
0000
,
0001
0000
0100
0000
,
0100
0000
0100
0000
,
0100
0000
0010
0000
,
0010
0000
0010
0000
,
0010
0000
1000
1000
,
1000
1000
2000
0000
,
3010
0000
0010
0000
,
1000
0000
1000
0000
,
0001
0000
0001
0000
,
0100
0000
0100
0000
,
0001
0000
1000
0000
,
0010
0000
1000
0000
,
0100
0000
0010
0000
,
0001
1000
0010
0100
,
0001
0000
0100
0000
,
0010
0000
1000
0000
,
0100
0000
1000
0000
,
0010
0000
1000
0000
,
1001
0000
0100
0000
,
1001
0000
0010
0000
,
0100
0100
0100
0100
,
0100
0000
0000
0000
;
